#TITLE:Cyberpunk;
#SUBTITLE:;
#ARTIST:Ateez;
#TITLETRANSLIT:;
#SUBTITLETRANSLIT:;
#ARTISTTRANSLIT:;
#GENRE:;
#CREDIT:;
#MUSIC:Cyberpunk.ogg;
#BANNER:Cyberpunk.png;
#BACKGROUND:Cyberpunk-BG.png;
#CDTITLE:;
#SAMPLESTART:47.497;
#SAMPLELENGTH:22.071;
#SELECTABLE:YES;
#OFFSET:0.175;
#BPMS:0.000=110.100
,87.500=165.150
,87.875=55.050
,88.000=165.150
,88.375=55.050
,88.500=165.150
,88.875=55.050
,89.000=110.100
,119.500=165.150
,119.875=55.050
,120.000=165.150
,120.375=55.050
,120.500=165.150
,120.875=55.050
,120.958=40.000
,121.000=110.100
,183.500=165.150
,183.875=55.050
,184.000=165.150
,184.375=55.050
,184.500=165.150
,184.875=55.050
,185.000=165.150
,185.375=55.050
,185.500=165.150
,185.875=55.050
,186.000=165.150
,186.375=55.050
,186.500=165.150
,186.875=55.050
,187.000=165.150
,187.375=55.050
,187.500=165.150
,187.875=55.050
,188.000=165.150
,188.375=55.050
,188.500=165.150
,188.875=55.050
,189.250=165.150
,190.000=110.100
,193.000=51.000
,193.250=165.150
,194.000=110.100
,215.500=165.150
,215.875=55.050
,216.000=165.150
,216.375=55.050
,216.500=165.150
,216.875=52.300
,217.250=165.150
,218.000=110.100
;
#STOPS:;
#BGCHANGES:;
#FGCHANGES:;

//--------------- dance-single - Alex ----------------
#NOTES:
     dance-single:
     Alex:
     Beginner:
     1:
     0.078866,0.135655,0.065376,0,0,76,67,9,0,0,0,0.078866,0.135655,0.065376,0,0,76,67,9,0,0,0:
0000
0000
0000
0000
,
0000
0000
0000
0000
,
0000
0001
0000
0000
,
0000
0001
0000
0000
,
0000
0100
0000
0000
,
0000
0100
0000
0000
,
0000
0001
0000
0000
,
0000
1000
0000
0000
,
0000
1000
0000
0000
,
0000
0010
0000
0000
,
0000
0100
0000
0000
,
0000
0001
0000
0000
,
0000
1000
0000
0000
,
0000
0001
0000
0000
,
0000
1000
0000
0000
,
0000
0001
0000
0000
,
0000
0100
0000
0000
,
0000
0010
0000
0000
,
0000
1001
0000
0000
,
0000
1001
0000
0000
,
0000
0010
0000
0010
,
0000
0010
0000
0000
,
0000
1001
0000
0000
,
0000
1000
0000
0000
,
0000
0001
0000
0000
,
0000
0001
0000
0000
,
0000
0100
0000
0000
,
0000
0100
0000
0000
,
0000
0010
0000
0000
,
0000
1000
0000
0000
,
0000
1001
0000
0000
,
0000
0001
0000
0000
,
0000
0100
0000
0000
,
0000
0010
0000
0000
,
0000
0010
0000
0000
,
0000
1000
0000
0000
,
0000
1000
0000
0000
,
0000
0001
0000
0000
,
0000
1001
0000
0000
,
0000
0001
0000
0000
,
0000
0100
0000
0000
,
0000
0100
0000
0000
,
0000
0010
0000
0010
,
0000
0010
0000
1000
,
0000
1000
0000
0001
,
0000
0001
0000
1001
,
0000
0000
0000
0000
,
0000
0100
0100
0100
,
0000
0110
0000
0000
,
0000
0010
0000
0000
,
0000
1000
0000
0000
,
0000
0001
0000
0000
,
0000
1000
0000
0000
,
0000
0001
0000
0000
,
0000
1001
0000
0000
,
0000
0001
0000
0000
,
0000
0100
0000
0000
,
0000
0010
0000
0000
,
0000
0010
0000
0000
,
0000
1000
0000
0000
,
0000
1000
0000
0000
,
0000
0001
0000
0000
,
0000
1001
0000
0000
;

//--------------- dance-single - Alex ----------------
#NOTES:
     dance-single:
     Alex:
     Easy:
     3:
     0.160846,0.226092,0.130752,0.021792,0,155,137,18,3,0,0,0.160846,0.226092,0.130752,0.021792,0,155,137,18,3,0,0:
0000
0000
0000
0000
,
0000
0000
0000
0000
,
0000
0010
0000
1000
,
0000
0001
0000
1000
,
0000
0100
0000
0010
,
0000
0001
0000
1000
,
0000
0001
0000
0100
,
0000
0100
0000
0010
,
0000
1000
0000
0001
,
0000
0001
0000
1000
,
0000
1001
0000
1001
,
0000
0010
0010
0010
,
0000
0110
0000
0110
,
0000
0001
0001
0001
,
0000
1000
1000
1000
,
0000
0100
0100
0100
,
0000
1000
0000
0001
,
0000
1000
0000
0001
,
0000
1001
0000
1001
,
0000
0110
0000
0110
,
0000
0010
0100
0010
,
0100
0020
0000
0030
,
0000
1000
0000
0001
,
0000
1000
0000
0001
,
0000
0100
0000
0010
,
0000
0100
0000
0010
,
0000
1000
0000
0001
,
0000
0010
0000
0001
,
0000
0100
0000
0100
,
0000
0010
0000
1001
,
0000
0001
0000
1000
,
0000
0010
0000
0100
,
0000
0100
0000
0001
,
0000
1000
0000
1000
,
0000
0001
0000
0010
,
0000
0010
0000
0001
,
0000
0100
0000
0100
,
0000
0010
0000
1000
,
1000
1000
0000
1001
,
0000
0001
0000
0101
,
0000
0100
0000
0110
,
0000
0010
0000
1010
,
0000
0010
0010
0010
,
0010
1000
1000
1000
,
1000
0001
0001
1000
,
1000
2002
0000
3003
,
0000
0100
0100
0100
,
0100
1001
0000
0000
,
0000
0010
0010
0100
,
0100
0001
0000
1000
,
0000
0001
0000
0100
,
0000
0010
0000
0010
,
0000
1000
0000
1000
,
0000
0001
0000
1001
,
0000
0010
0010
0010
,
1000
0001
0000
1000
,
0000
0100
0000
0010
,
0000
0001
0000
1000
,
0000
1000
0000
0001
,
0000
0001
0000
0100
,
0000
0100
0000
0010
,
0000
0010
0000
1001
,
0000
1001
0000
0000
;

//--------------- dance-single - Alex ----------------
#NOTES:
     dance-single:
     Alex:
     Medium:
     5:
     0.272919,0.341181,0.188864,0.043584,0,263,237,26,6,2,0,0.272919,0.341181,0.188864,0.043584,0,263,237,26,6,2,0:
0000
0000
0000
0000
,
0000
0000
0000
0000
,
0000
0001
1000
1000
,
0010
0100
0001
0010
,
0100
1000
0001
0100
,
0100
0001
0001
1000
,
0010
0100
0001
0010
,
0100
0010
0010
0001
,
1000
1000
0001
0100
,
0001
1000
0010
0100
,
0001
1000
1100
0010
,
0011
0000
0001
0100
0010
1000
0001
0000
,
0000
1000
1001
0001
,
0101
0000
0100
0010
0100
0010
0100
0000
,
0000
0000
0001
1000
0010
0100
0001
0000
,
0000
0000
1000
0100
0010
0001
1000
0000
,
0000
0001
1000
0001
,
0100
0010
0100
1001
,
0000
0001
0001
1000
,
1000
0010
0100
0010
,
0010
0000
1000
0100
1000
0100
1000
0100
,
1000
0001
0200
0000
0000
0000
0300
0000
,
0000
0001
0001
1000
,
1000
1001
0110
0010
,
0100
0001
0001
1000
,
0100
0011
1100
0001
,
0100
0100
0010
1000
,
0001
0010
0001
0100
,
0100
0010
1000
0100
,
0010
0100
1000
0001
,
0000
1000
1000
0001
,
0001
1001
0110
0001
,
0010
0001
0001
0100
,
0100
0110
1001
1000
,
0100
0010
0100
1000
,
0001
0100
0010
0100
,
0100
0001
0010
0100
,
1000
0001
0100
0010
,
0000
1002
0000
0100
,
0003
2010
0000
0100
,
3000
2001
0000
0001
,
3000
0120
0000
0100
,
0030
0000
0010
1000
0010
0000
1000
0010
,
0100
0000
0001
0100
0010
0000
1000
0100
,
0010
0000
0001
0100
0010
0100
0001
1000
,
0001
1000
0002
0000
0000
0000
0003
0000
,
0000
0000
0000
0000
,
0000
0000
1001
0000
1001
0000
0001
0100
,
0010
1000
0100
0000
1000
0000
0010
0000
,
0100
0101
1010
0001
,
1000
0001
0001
0100
,
0100
0010
1000
0100
,
0010
0100
1000
1000
,
0001
0100
0001
1001
,
0000
0000
0001
0100
,
0010
1010
0101
0001
,
0010
0100
1000
0001
,
1000
1010
1100
0100
,
0100
1000
0010
0100
,
0001
0010
0100
0010
,
0010
0001
1000
0010
,
1000
0001
0001
1000
,
0010
0100
0001
0000
0000
M00M
0000
0000
;

//--------------- dance-single - Alex ----------------
#NOTES:
     dance-single:
     Alex:
     Hard:
     8:
     0.473198,0.430438,0.152544,0.03632,0.203392,456,435,21,5,0,0,0.473198,0.430438,0.152544,0.03632,0.203392,456,435,21,5,0,0:
0000
0000
0000
0000
,
0000
0000
0000
0000
,
0000
1000
0001
0000
0001
0100
0010
0000
,
1000
0100
0010
0000
0001
0100
0001
0001
,
1000
0010
1000
0000
0001
0010
0001
0000
,
0100
0010
0100
0000
0001
0010
0100
1000
,
0001
0100
0010
1000
0010
0000
1000
0100
,
0010
0000
0000
0001
0000
0100
0000
0001
0000
1000
0000
0010
0000
0000
0000
0000
,
0100
0000
0000
0001
0000
1000
0000
0100
0000
1000
0000
0001
0000
0000
0000
0000
,
0100
0000
0000
0001
0000
0010
0000
0100
0000
1000
0000
0001
0000
0000
0100
0000
,
0010
1000
0100
0010
0011
0000
0001
0100
,
0110
0000
0000
0000
0010
0000
0000
1000
0000
0001
0000
0100
0000
0000
0010
0000
,
1000
0100
1000
0001
0101
0000
0010
1000
,
1010
0000
0000
0000
0010
0000
0000
1000
0000
0100
0000
1000
0000
0000
0000
0000
,
0001
0000
0010
0000
0001
0000
0100
0001
0000
0100
0000
0001
0000
0000
0000
0000
,
1000
0000
0010
0000
0100
0000
0001
1000
0000
0001
0000
1000
0000
0000
0000
0000
,
0001
0000
0010
0001
0010
0000
0000
0000
0001
0000
0100
0000
0001
0000
0000
0000
,
1000
0000
0010
0000
1000
0000
0000
0001
0100
0000
0000
0100
0010
0000
0010
0000
,
1001
0000
0000
0000
0001
0000
0100
0000
0001
0000
1000
0000
0010
0000
0100
0001
,
0000
0000
0001
0000
1000
0000
0100
0000
1000
0000
0001
0000
1000
0000
1000
0010
,
0000
0010
0100
0001
1000
0100
0010
0001
,
0100
0000
0010
0000
4000
0004
0000
0000
0000
0000
0000
0000
3003
0000
0001
0000
,
0100
0001
1000
0010
0100
0001
1000
0100
,
0010
0001
0011
0000
1100
0000
1000
0100
,
1000
0010
1000
0001
0100
0010
1000
0001
,
0010
0001
1001
0000
0110
0000
0010
0100
,
0001
0100
0000
0100
0001
0000
1000
0000
0010
0000
1000
0000
0001
0000
0100
0000
,
0001
1000
0100
0010
0001
1000
0010
0100
,
0010
0100
0000
0100
0001
0000
1000
0000
0100
0000
0010
0000
0100
0000
1000
0000
,
0001
0100
0010
0100
0001
1000
0010
0100
,
0001
1000
0100
0010
0001
0001
1000
0010
,
0100
0001
0101
0000
1010
0000
0010
1000
,
0010
0100
0001
1000
0001
0100
0001
0010
,
0001
0100
0110
0000
0101
0000
0001
0010
,
0100
1000
0000
1000
0100
0000
0010
0000
0001
0000
0100
0000
0010
0000
0100
0000
,
0001
1000
0001
0100
0001
0010
0001
0100
,
0010
1000
0000
1000
0010
0000
1000
0000
1000
0000
0001
0000
0100
0000
0100
0000
,
0001
1000
0100
1000
0001
0100
0010
1000
,
1001
0000
0001
0010
0001
0100
0010
1000
,
0100
0000
0200
0000
0000
0300
1000
0000
1000
0000
0010
0000
0010
0000
1000
0000
,
0001
0000
0200
0000
0000
0300
0001
0000
0010
0000
0001
0000
0000
0000
1000
0000
,
0010
1000
0000
0001
0100
0001
1000
0100
,
0010
0000
0001
0000
0100
0000
0000
0100
0000
0000
0001
0000
1000
0000
0000
1000
,
0000
0000
0010
0000
1000
0000
0000
0001
0000
0000
0001
0000
0100
0000
0000
0010
,
0000
0010
1000
0100
0010
0100
1000
0001
,
0100
0000
0010
0000
4000
0004
0000
0000
0000
0000
0000
0000
3003
0000
0001
0000
,
0100
0001
1000
0010
0010
1000
0001
0010
,
0100
1000
0001
0000
1001
0000
0001
0100
,
0001
1000
0020
0000
0130
0100
0001
1000
,
0100
0010
0011
0000
1100
0000
0010
0001
,
0100
0010
0000
0010
0100
0000
0001
0000
0010
0000
0100
0000
1000
0000
0001
0000
,
0100
0001
1000
0010
0100
0001
1000
0100
,
0010
0001
0000
0001
0010
0000
0001
0000
0100
0000
0001
0000
1000
0000
0010
0000
,
0100
0001
1000
0100
0010
0100
1000
0001
,
0100
0001
2000
0000
3001
0100
0001
1000
,
0010
0100
0101
0000
1010
0000
0010
0010
,
1000
1000
0001
0100
0001
0010
0001
0100
,
0010
1000
1100
0000
0110
0000
0010
0001
,
0100
0001
0000
0001
1000
0000
0010
0000
0100
0000
0001
0000
1000
0000
0100
0000
,
1000
0010
1000
0001
0100
0010
1000
0001
,
0001
1000
0000
1000
0001
0000
0100
0000
0001
0000
1000
0000
0010
0000
0100
0000
,
0001
1000
0100
0010
0001
0100
0010
1000
,
0001
0100
0001
0200
0000
0000
0300
0000
0000
0000
0000
0000
0000
0000
0000
0000
;

//--------------- dance-single - Alex ----------------
#NOTES:
     dance-single:
     Alex:
     Challenge:
     11:
     0.753382,0.681001,0.21792,0.813569,1.056914,726,694,30,112,25,1,0.753382,0.681001,0.21792,0.813569,1.056914,726,694,30,112,25,1:
0000
0000
0000
0000
,
0000
0000
0000
0000
,
0000
0000
0100
0000
0010
0000
1000
0010
1000
0000
0001
0000
0100
0000
0010
0100
,
0001
0000
0010
0000
0100
0000
1000
0001
0100
0000
0020
0030
2000
3000
0002
0003
,
0200
0300
0020
0030
1000
0000
0100
0010
0001
0000
0100
0000
0010
0000
1000
0001
,
1000
0000
0001
0000
0010
0000
0001
0010
0001
0000
0100
0000
0020
0030
2000
3000
,
0002
0003
0200
0300
0010
0000
1000
0001
1000
0000
0001
0010
0001
0000
0100
0001
,
0100
0000
0010
1000
0010
1000
0000
0001
0000
0100
0000
0010
0000
1000
0001
0000
,
0010
0001
0010
0001
0000
0001
0000
1000
0000
0010
0000
0100
0000
0001
1000
0000
,
0100
0010
0001
0100
0000
0010
0000
1000
0000
0100
0000
0010
0000
0001
1000
0000
,
0010
0000
0100
0000
0101
0000
0001
1000
0001
0000
1000
0000
1010
0000
0010
1000
,
0010
0000
0100
0000
0101
0000
0001
2000
3000
0020
0030
0200
0300
0001
0010
0100
,
1000
0000
0001
0000
0100
0000
0001
0000
1001
0000
0001
1000
0010
0000
0100
0000
,
0110
0000
0010
1000
0100
0000
0100
2000
3000
0020
0030
0200
0300
0001
0010
0000
,
0100
0000
1000
0000
1001
0000
0001
0100
0000
0110
0000
2002
0000
0000
3003
0000
,
0001
0000
0010
0000
0011
0000
0001
0100
0000
1010
0000
2200
0000
0000
3300
0000
,
0001
0000
0010
0001
0010
0000
0001
0100
0001
0000
1000
0010
0100
0000
0001
0100
,
0010
0000
1000
0100
1000
0000
0010
0100
0010
0000
1000
0001
1000
0000
0000
0000
,
1111
0000
0001
0010
0100
1000
0001
0010
,
0001
1000
0010
0100
0001
1000
0100
0010
,
0100
0000
1000
0000
0001
0100
0010
0100
0001
0010
0100
1000
0001
0100
0010
1000
,
0100
0010
0001
1000
0040
0400
0000
0000
0000
0000
0330
0000
0000
0000
0002
0003
,
2000
3000
0020
0030
0100
0001
0010
0100
1000
0001
0100
0010
1000
0100
0010
0001
,
0100
0010
1000
0001
0020
0030
0001
0100
0020
0030
1000
0100
0020
0030
0002
0003
,
2000
3000
0020
0030
0100
0001
0100
0001
0010
0001
0100
0001
0100
0010
1000
0100
,
0010
0100
1000
0001
2000
3000
0010
0100
0002
0003
1000
0100
0020
0030
0001
0100
,
0010
0100
0000
0100
0001
0100
0001
0010
0001
0100
0010
1000
0100
0010
0100
1000
,
0001
0100
0010
1000
0002
0003
1000
0010
0200
0300
0001
0010
0200
0300
0010
0001
,
0100
0010
0000
0010
1000
0010
1000
0100
1000
0001
1000
0001
0100
0001
0010
0001
,
0100
0010
1000
0100
0020
0030
0001
0100
0020
0030
1000
0001
0200
0300
0002
0003
,
0020
0030
0200
0300
0010
0001
0100
0010
0100
0001
0010
0001
1000
0010
1000
0010
,
0100
0010
0100
0001
2000
3000
0001
0100
0020
0030
1000
0100
0020
0030
0002
0003
,
0200
0300
0020
0030
1000
0010
0100
0010
1000
0100
0010
0100
1000
0001
0100
0010
,
0100
0001
0010
0100
0020
0030
0001
0100
0020
0030
1000
0001
0200
0300
0001
1000
,
0100
1000
0000
1000
0001
1000
0001
0100
0001
1000
0010
1000
0001
0010
0001
0100
,
0010
1000
0100
0010
0002
0003
0100
0010
2000
3000
0001
0010
0200
0300
0010
0001
,
0100
0010
0000
0010
1000
0010
1000
0001
0100
0001
1000
0100
1000
0010
0100
0001
,
0010
0100
0010
0001
0200
0300
0010
1000
0002
0003
0010
0001
2000
3000
0010
0100
,
0001
0000
0000
0000
0000
0000
0001
0000
0000
0100
0000
0000
0010
0000
0000
0000
0100
0000
0000
0000
0001
0000
0000
0000
0010
0000
0000
0000
0001
0000
0000
0000
0100
0000
0000
0000
0010
0000
0000
0000
1000
0000
0000
0000
0100
0000
0000
0000
,
0010
0001
0200
0000
0300
0001
1000
0010
0100
0001
1000
0100
0010
0001
0100
0010
,
1000
0010
0100
0000
0001
1000
0000
1000
0001
0000
1001
0000
0001
0100
0000
0100
,
0001
0000
0101
0000
0001
1000
0001
0100
0001
1000
0010
1000
0001
0100
0001
0010
,
0100
1000
0001
0000
1002
0000
0003
0210
0000
0300
0012
0003
2010
0000
3000
0210
,
0000
0300
0012
0003
0201
0000
0300
2010
0000
3000
0120
0030
1002
0000
0003
0210
,
0000
0300
0012
0003
1000
0100
0010
0100
1000
0001
0100
0010
1000
0001
0010
0001
,
1000
0010
0100
0001
4000
0040
0000
0000
0000
0000
0000
0000
3030
0000
0200
0300
,
0002
0003
2000
3000
0020
0030
2000
3000
0002
0003
0020
0030
0002
0003
0200
0300
,
0020
0030
2000
3000
0220
0000
0000
0330
1001
0000
0000
0000
0002
0003
0200
0300
,
0020
0000
0000
0030
0000
0000
2000
0000
0000
3000
0000
0000
1001
0000
M0M0
0000
0M0M
0000
0MM0
0000
M00M
0M00
M0M0
0000
0001
0000
0000
0100
0000
0000
0001
0000
0000
0010
0000
0000
0001
0000
0000
0100
0000
0000
0010
0000
0000
0100
0000
0000
,
0001
0010
0100
1000
0002
0003
1000
0010
0200
0300
0001
0010
0200
0300
0010
0001
,
1000
0010
0000
0010
1000
0010
1000
0001
1000
0001
0100
0001
0100
0010
1000
0010
,
0100
0001
0010
0100
0020
0030
0001
0100
0020
0030
1000
0100
0020
0030
0001
0100
,
0010
0100
0000
0100
0001
0100
0001
0010
0001
0100
0010
1000
0010
0100
0001
0010
,
0100
1000
0001
0100
0020
0030
1000
0100
0020
0030
0001
0100
0020
0030
2000
3000
,
0002
0000
0000
0000
0000
0000
0000
0000
0000
0000
0000
0000
0003
0000
0000
0000
0000
0000
0000
0000
0000
0000
0000
0000
0200
0000
0000
0000
0000
0000
0000
0000
0000
0000
0000
0000
0300
0000
0000
0000
0000
0000
0000
0000
0000
0000
0000
0000
1001
0000
0000
0000
0000
0000
0000
0000
0000
0000
0000
0000
M000
0000
0000
0000
000M
0000
0000
0000
00M0
0000
0000
0000
M000
0000
0000
0000
00M0
0000
0000
0000
0M00
0000
0000
0000
000M
0000
0000
0000
0M00
0000
0000
0000
00M0
M000
0000
0000
0001
0000
0000
0000
0000
0000
0000
0000
0000
0000
0000
0000
1000
0000
0000
0000
0000
0000
0000
0000
0000
0000
0000
0000
0001
0000
0000
0000
0000
0000
0000
0000
0000
0000
0000
0000
0100
0000
0000
0000
0000
0000
0000
0000
0000
0000
0000
0000
0001
0000
0000
0000
0000
0000
0000
0000
0000
0000
0000
0000
0010
0000
0000
0000
0000
0000
0000
0000
0000
0000
0000
0000
0100
0000
0000
0000
0000
0000
0000
0000
0000
0000
0000
0000
1000
0000
0000
0000
0000
0000
0000
0000
0000
0000
0000
0000
,
0001
0100
0010
1000
0200
0300
0010
0001
0200
0300
0010
1000
0002
0003
0020
0030
,
0200
0300
0020
0030
0001
0100
0010
0100
0001
1000
0010
0100
0001
1000
0100
0010
,
0001
0100
0010
1000
0020
0030
0100
0001
0020
0030
0001
1000
0200
0300
0010
0001
,
0100
0010
0000
0010
1000
0010
1000
0001
1000
0001
0100
0001
0100
0001
0010
0100
,
0010
0001
0100
0010
2000
3000
0001
1000
0200
0300
0010
0001
0200
0300
0010
1000
,
0010
0100
0000
0100
0001
0100
0001
1000
0010
1000
0001
0010
0001
0100
0001
0010
,
0100
0010
0001
0100
0020
0030
1000
0100
0020
0030
0001
0100
0020
0030
1000
0001
,
0100
0001
0010
0100
0000
0000
0000
0000
MMMM
0000
0000
0000
0000
0000
0000
0000
;
