#TITLE:Chk Chk Boom;
#SUBTITLE:;
#ARTIST:Stray Kids;
#TITLETRANSLIT:;
#SUBTITLETRANSLIT:;
#ARTISTTRANSLIT:;
#GENRE:;
#CREDIT:;
#MUSIC:Chk Chk Boom.ogg;
#BANNER:Chk Chk Boom.png;
#BACKGROUND:Chk Chk Boom-BG.png;
#CDTITLE:;
#SAMPLESTART:47.109;
#SAMPLELENGTH:18.713;
#SELECTABLE:YES;
#OFFSET:-0.078;
#BPMS:0.000=102.000;
#STOPS:;
#BGCHANGES:0.000=Chk Chk Boom.avi=1.000=1=0=0=StretchNoLoop==CrossFade==,
99999.000=-nosongbg-=1.000=0=0=0=StretchNoLoop====
;
#FGCHANGES:;

//--------------- dance-single - Alex ----------------
#NOTES:
     dance-single:
     Alex:
     Beginner:
     1:
     0.062671,0.101238,0,0,0,65,65,0,0,0,0,0.062671,0.101238,0,0,0,65,65,0,0,0,0:
0000
0000
0000
0000
,
0000
0000
0000
0000
,
0000
0000
0000
0000
,
0000
0000
0000
0000
,
0001
0000
0000
0000
,
0100
0000
0000
0000
,
0010
0000
0000
0000
,
0100
0000
0000
0000
,
0100
0000
0000
0000
,
0001
0000
0000
0000
,
1000
0000
0000
0000
,
1000
0000
0000
0000
,
0001
0000
0000
0000
,
1000
0000
0000
0000
,
0010
0000
0000
0000
,
0100
0000
0000
0000
,
0010
0000
0010
0000
,
0010
0000
0000
0000
,
0100
0000
0100
0000
,
0100
0000
0000
0000
,
0001
0000
0000
0000
,
1000
0000
0000
0000
,
0001
0000
0000
0000
,
1000
0000
0000
0000
,
0010
0000
0000
0000
,
1000
0000
0000
0000
,
0001
0000
0000
0000
,
0001
0000
0000
0000
,
1000
0000
0000
0000
,
0001
0000
0000
0000
,
1000
0000
0000
0000
,
0010
0000
0000
0000
,
0100
0000
0000
0000
,
0100
0000
0000
0000
,
0001
0000
0000
0000
,
1000
0000
0000
0000
,
0010
0000
0000
0000
,
0010
0000
0000
0000
,
1000
0000
0000
0000
,
0001
0000
0000
0000
,
1000
0000
0001
0000
,
1000
0000
0000
0000
,
0001
0000
1000
0000
,
0001
0000
0000
0000
,
1000
0000
0000
0000
,
0001
0000
0000
0000
,
0100
0000
0000
0000
,
0010
0000
0000
0000
,
0100
0000
0000
0000
,
0001
0000
0000
0000
,
0001
0000
0000
0000
,
1000
0000
1000
0000
,
1000
0000
0000
0000
,
0010
0000
0000
0000
,
1000
0000
0000
0000
,
0001
0000
1000
1000
,
1000
0000
0000
0000
,
0001
0000
0000
0000
,
0100
0000
0000
0000
,
0010
0000
0010
0000
,
0010
0000
0000
0000
;

//--------------- dance-single - Alex ----------------
#NOTES:
     dance-single:
     Alex:
     Easy:
     2:
     0.131127,0.16198,0.053993,0.026997,0,136,128,8,4,0,0,0.131127,0.16198,0.053993,0.026997,0,136,128,8,4,0,0:
0000
0000
0000
0000
,
0000
0000
0000
0000
,
0000
0000
0000
0000
,
0100
0100
0100
0000
,
1001
0000
0010
0000
,
1000
0000
0001
0000
,
1000
0000
0010
0000
,
0100
0000
0001
0000
,
1001
0000
1000
1000
,
1000
0000
0001
0000
,
1000
0000
0001
0000
,
0100
0000
0001
0000
,
0010
0000
0100
0000
,
1000
0000
0010
0000
,
1000
0000
0001
0000
,
1000
0000
0001
0000
,
1001
0000
1000
0001
,
2000
0000
3000
0000
,
0010
0000
0100
0010
,
0200
0000
0300
0000
,
0010
0000
0100
0000
,
0010
0000
1000
0000
,
0001
0000
1000
0000
,
0001
0001
0001
0000
,
1000
0000
0001
0000
,
0100
0000
0010
0000
,
1000
0000
0100
0000
,
0010
0001
0010
0000
,
1001
0000
0001
0000
,
0100
0000
0100
0000
,
0001
0000
1000
0000
,
1000
0000
0010
1000
,
0010
0000
1000
0000
,
0001
0000
0100
0000
,
0001
0000
0010
0000
,
0001
0000
0100
0100
,
1001
0000
0010
0100
,
0010
0000
1000
0000
,
0001
0000
1000
0001
,
1000
0000
0001
0000
,
0100
0000
0010
0100
,
0020
0000
0030
0000
,
1000
0000
0100
1000
,
0200
0000
0300
0000
,
1001
0000
0001
0000
,
1000
0000
0001
0000
,
0001
0000
1000
0000
,
1000
1000
1000
0000
,
0001
0000
0100
0000
,
0001
0000
1000
0000
,
0010
0000
0010
0000
,
0100
0100
0100
0000
,
1001
0000
0001
0000
,
1000
0000
1000
0000
,
0010
0000
0100
0000
,
0001
0000
1000
1000
,
0001
0000
0100
0000
,
0001
0000
1000
0000
,
0010
0000
0100
0000
,
0010
0010
0010
0010
,
0110
0000
0000
0000
;

//--------------- dance-single - Alex ----------------
#NOTES:
     dance-single:
     Alex:
     Medium:
     5:
     0.222723,0.263218,0.101238,0.040495,0,231,216,15,6,0,0,0.222723,0.263218,0.101238,0.040495,0,231,216,15,6,0,0:
0000
0000
0000
0000
,
0000
0000
0000
0000
,
0000
0000
0000
0000
,
1001
1001
2002
3003
,
0001
1000
0010
0100
,
0100
0001
0010
0100
,
1000
0001
0100
0001
,
0001
1000
0010
1000
,
0001
0100
0010
0100
,
0001
0010
0100
1000
,
0001
1000
0010
0010
,
1000
0001
0100
0100
,
1001
0001
1000
0100
,
0010
0001
0100
0100
,
0001
0000
1000
0001
1000
0000
0100
0010
,
0100
0001
0010
0100
,
0010
0000
0001
0000
,
2000
0000
3010
0010
,
0100
0000
0001
0000
,
0020
0000
0030
0000
,
1001
0001
0100
0001
,
1000
0010
1000
0100
,
0010
0100
1000
0001
,
0100
0000
0100
0000
0010
0100
0010
0000
,
0110
0010
1000
0010
,
0010
0100
0001
0100
,
0100
0001
0010
0100
,
0010
0000
0001
0000
1000
0010
1000
0000
,
1001
0001
0100
1000
,
0100
0001
1000
0001
,
1000
0010
1000
0001
,
0100
0100
0010
0010
,
1010
0010
1000
0100
,
0010
0100
1000
1000
,
0001
0100
0010
0100
,
0001
0001
1000
0010
,
0100
0001
0010
0100
,
1000
0000
0001
0000
,
1000
0001
0100
0001
,
1000
0000
0010
0000
,
1001
0000
1000
0000
,
0002
0000
1003
0010
,
1000
0000
0001
0000
,
0200
0000
0300
0000
,
1001
0001
0100
0010
,
0010
1000
0100
0010
,
0001
1000
0010
0010
,
1000
0000
0001
0000
1000
0001
1000
0000
,
1001
0001
0100
0010
,
0100
0001
0010
0100
,
0010
0001
1000
1000
,
0001
0000
0001
0000
1000
0010
1000
0000
,
1010
0010
1000
0100
,
0010
0100
1000
1000
,
0001
0100
0001
0001
,
1000
0000
1000
0000
0010
0100
0010
0000
,
1000
0001
0100
0001
,
1000
0010
1000
0001
,
0010
0010
0001
0100
,
0110
0000
0110
0000
0010
0100
0010
0000
,
1001
0000
0000
0000
;

//--------------- dance-single - Alex ----------------
#NOTES:
     dance-single:
     Alex:
     Hard:
     8:
     0,0,0,0,0:
0000
0000
0000
0000
,
0000
0000
0000
0000
,
0000
0000
0000
0000
,
1001
0000
1001
0000
0001
1000
1001
0000
,
1001
0000
0001
0100
0010
1000
0100
0010
,
0001
0000
0001
1000
0010
0100
0001
1000
,
0100
0000
1000
0001
0100
0010
0100
0100
,
0001
0010
0100
1000
0001
0100
0010
0020
,
0030
0100
0001
1000
0100
2000
3000
0001
,
1000
0010
0100
0001
1000
0002
0003
1000
,
0001
1000
0100
0010
0001
0100
0010
0010
,
1000
0001
0010
0100
1000
1000
0001
1000
,
1001
0000
0001
0100
0010
0100
0001
1000
,
0200
0300
1000
0001
0100
0010
0100
0100
,
0000
0000
0001
0000
1001
0000
1001
0000
1001
0000
0001
1000
0001
0000
1001
0000
,
0001
0010
0100
1000
0001
0100
0010
1000
,
0100
0000
0000
0010
0000
0000
0001
0000
0100
0000
0010
0000
0100
0000
0001
0000
,
1000
0000
0000
0001
0000
0000
1000
0000
0010
0000
1000
0000
0001
0000
0010
0000
,
0001
0000
0000
0100
0000
0000
0010
0000
1000
0000
0100
0000
0001
0000
0100
0000
,
1000
0000
0000
0000
0000
0000
0010
0000
0000
0000
0000
0000
0100
0000
0000
0000
0002
0000
0000
0000
0000
0000
0003
0000
2000
0000
0000
0000
0000
3000
0000
0000
,
1001
0000
0001
0010
0100
1000
0001
0100
,
0020
0030
1000
0100
0010
0100
1000
0001
,
2000
3000
0001
0001
1000
0010
0100
0001
,
0011
0000
0011
0000
0001
1000
1010
0000
,
1001
0000
0001
0100
0010
0100
0001
1000
,
0200
0300
1000
0001
0010
0001
0100
0010
,
0200
0300
0001
0010
0100
1000
0001
0100
,
0110
0000
0110
0000
0010
1000
1010
0000
,
1001
0000
0001
0010
0001
1000
0010
0100
,
0001
0000
0001
0010
0100
0010
0001
0100
,
0010
0000
0010
1000
0100
0010
0100
1000
,
0001
0001
0100
0100
0010
1000
0001
0100
,
0110
0000
0010
1000
0100
0100
1000
1000
,
0001
0010
0100
1000
0001
0001
1000
1000
,
0010
1000
0001
0100
0010
1000
0100
0010
,
0001
0100
0010
0100
0001
0001
0010
0200
,
0300
1000
0001
0100
0010
1000
0001
0010
,
0001
0000
0100
0000
0010
0000
1000
0000
0100
0000
0000
0010
0000
0000
0002
0000
,
1003
0010
1000
0001
0100
0001
1000
0100
,
0010
0010
0100
0100
1000
0010
0100
0001
,
1001
0000
0000
1000
0000
0000
0001
0000
0100
0000
0010
0000
0100
0000
0001
0000
,
0010
0000
0000
0010
0000
0000
0001
0000
1000
0000
0010
0000
1000
0000
0001
0000
,
0100
0000
0000
0100
0000
0000
0001
0000
1000
0000
0100
0000
0010
0000
0001
0000
,
0100
0000
0000
0000
0000
0000
0010
0000
0000
0000
0000
0000
1000
0000
0000
0000
0002
0000
0000
0000
0000
0000
0003
0000
2000
0000
0000
0000
0000
3000
0000
0000
,
1001
0000
0001
1000
0010
1000
0001
0100
,
0010
0000
0010
0100
0001
0010
0100
1000
,
0001
0000
1000
0010
1000
0001
0100
0010
,
1010
0000
1010
0000
1000
0001
0011
0000
,
1001
0000
0001
0100
0010
1000
0100
0010
,
0001
0000
1000
0010
0100
0001
0010
0100
,
0010
0000
0001
0001
1000
1000
0010
0100
,
0101
0000
0101
0000
0010
1000
1010
0000
,
2001
0000
0000
3020
0000
0000
0130
0000
0001
0000
0010
0000
0100
0000
1000
0000
,
0002
0000
0000
0203
0000
0000
0310
0000
1000
0000
0100
0000
0020
0000
0000
0030
,
0002
0000
0000
2003
0000
0000
3010
0000
1000
0000
0001
0000
0100
0000
0010
0000
,
0200
0000
0000
0320
0000
0000
1030
0000
0001
0000
0010
0000
0200
0300
2000
3000
,
0002
0000
0000
0203
0000
0000
0310
0000
1000
0000
0100
0000
0100
0000
1000
0000
,
0002
0000
0000
0023
0000
0000
0031
0000
0100
0000
0010
0000
0200
0000
0000
0000
,
0320
0000
0000
2030
0000
0000
3001
0000
0100
0000
0010
0000
1000
0000
0100
0000
,
0110
0000
0110
0000
0010
0001
1001
0000
,
2002
3003
0000
0000
;

//--------------- dance-single - Alex ----------------
#NOTES:
     dance-single:
     Alex:
     Challenge:
     9:
     0,0,0,0,0:
0000
0000
0000
0000
,
0000
0000
0000
0000
,
0000
0000
0000
0000
,
1001
0000
0110
0000
0010
0100
1001
0000
,
1MM1
0000
0000
0000
0001
0000
1000
0000
0010
0000
0100
0000
0001
0000
1000
0000
0100
0000
0020
0000
0000
0032
0000
0000
,
2003
0000
0000
0000
3010
0000
0100
0000
0001
0000
1000
0000
0100
0000
1000
0000
0001
0000
0100
0000
0000
0010
0000
0000
,
0200
0000
0000
0000
0301
0000
0010
0000
0100
0000
1000
0000
0001
0000
0100
0000
0010
0000
1000
0000
0000
0001
0000
0000
,
1001
0000
0000
0110
0000
0000
0010
0000
0100
0000
0001
0000
1000
0000
0100
0000
1000
0000
0001
0000
0000
0100
0000
0000
,
0010
1000
0100
0000
0010
0000
0001
1000
0010
0100
0002
0000
0003
1000
0100
1000
,
0001
0100
0001
0000
1000
0000
0010
0100
0001
1000
0200
0000
0300
1000
0010
1000
,
0001
0000
0001
0100
0010
0000
0010
0100
0001
0010
0100
0000
0100
1000
0001
0100
,
0010
0000
0000
1000
0000
0000
0100
0000
0000
0010
0000
0000
0001
0000
0000
0100
0000
0000
0010
0000
0000
1000
0000
0000
0001
0000
0000
0000
0000
0000
1000
0000
0000
0000
0000
0000
1001
0000
0000
0000
0101
0000
0000
0000
1001
0000
0000
0000
,
2200
0000
0000
3300
0010
0000
0001
0000
0100
0000
0010
0000
0100
0000
0001
0000
0010
0000
0100
0000
0000
1000
0000
0000
,
0001
0000
0000
2000
0000
0000
0000
0000
0000
3010
0000
0000
0100
0000
0000
0000
0001
0000
0000
0000
1000
0000
0000
0000
0100
0000
0000
0000
1000
0000
0000
0000
0001
0000
0000
0000
0100
0000
0000
0000
0000
0000
0020
0000
0000
0000
0000
0000
,
0030
0000
0100
0001
1000
0000
1001
0000
1001
0000
0001
1000
0010
0000
1010
0000
,
0010
1000
0000
0001
1000
0000
0001
0100
0001
0000
1000
0000
0010
0000
0110
0000
,
1001
0000
0000
0001
0010
0100
1000
0001
0100
0000
0010
0000
1000
0000
0100
0000
,
0010
0000
0000
0001
0000
0000
0100
0000
1000
0000
0100
0000
0001
0000
0010
0000
,
0011
0000
0000
0001
0100
0010
0100
0001
1000
0000
0001
0100
0010
0000
1000
0000
,
0100
0000
0000
1000
0000
0000
0010
0000
1010
0000
0000
0000
0101
0000
0000
0000
,
2002
0000
0000
3003
0000
0000
0001
0000
0100
0000
0010
0000
1000
0000
0100
0000
0010
0000
0001
0000
0000
1001
0000
0000
,
0220
0000
0000
0330
0000
0000
0001
0000
0010
0000
0100
0000
0010
0000
0001
0000
0100
0000
0010
0000
0000
1000
0000
0000
,
2020
0000
0000
0000
0000
0000
3030
0000
0000
0000
0000
0000
0010
0000
0000
0000
1000
0000
0000
0000
0100
0000
0000
0000
1000
0000
0000
0000
0000
0000
0001
0000
0000
0100
0000
0000
0010
0000
0000
0000
0000
0000
1000
0000
0000
0000
0000
0000
,
2M2M
3030
M2M2
0303
0011
1100
0202
0303
,
2002
0000
0000
3003
0000
0000
0001
0000
0010
0000
0001
0000
0100
0000
1000
0000
0100
0000
0001
0000
0000
0010
0000
0000
,
0022
0000
0000
0033
0000
0000
0001
0000
0010
0000
1000
0000
0010
0000
0001
0000
1000
0000
0100
0000
0000
1100
0000
0000
,
0022
0000
0000
0000
0000
0000
0033
0000
0000
0000
0000
0000
0001
0000
0000
0000
0100
0000
0000
0000
0010
0000
0000
0000
1000
0000
0000
0000
0000
0000
0100
0000
0000
0010
0000
0000
0001
0000
0000
0000
0000
0000
0100
0000
0000
0000
0000
0000
,
M22M
0330
22MM
3300
0101
1100
0220
0330
,
1001
0000
0001
0000
0010
0100
1000
0001
0100
0010
1000
0100
0010
0000
0001
0000
,
0101
0000
0010
0000
0100
0000
0100
0000
0001
0010
0100
1000
0001
0100
0010
0000
,
1010
0000
0010
0000
1000
0001
0100
0001
1000
0000
0010
0100
0001
0000
1000
0100
,
0010
0000
0001
0100
0010
0100
0001
0010
0200
0300
1000
0001
0100
0010
1000
0001
,
1001
0000
0000
0000
0000
0000
0001
0000
0100
0000
0000
0000
0100
0000
0000
0000
0010
1000
0010
1000
0010
0000
0000
0000
0100
0000
0000
0000
0001
0000
0000
0000
,
1000
0100
1000
0100
1000
0000
0000
0000
0001
0000
0000
0000
0100
0000
0000
0000
0001
0100
0001
0100
0001
0000
0000
0000
0100
0000
0000
0000
0010
0000
1000
0000
,
0100
0000
0010
0001
0000
0100
0001
1000
0010
0000
0100
0001
0000
1000
0100
0010
,
0001
0000
0001
1000
0000
1000
0010
1000
0001
0000
0100
0000
0010
0000
1000
0000
,
1001
0000
0001
0000
0010
0000
0001
0000
0100
0000
1000
0200
0300
0002
0003
2000
,
0000
3000
0010
0000
0100
0000
0001
0000
0022
0000
0033
2200
0000
3300
0110
0000
,
1001
0000
0001
0000
0010
0000
0001
0000
0100
0000
1000
0200
0300
0020
0030
0200
,
0000
0300
0010
0000
0001
0000
0100
0000
0010
0000
1000
0000
1001
0000
0110
0000
,
1001
0000
0000
0001
1000
0010
1000
0001
0100
0000
0001
0000
0010
0000
0100
0000
,
1000
0000
0000
0010
0000
0000
0100
0000
1000
0000
0100
0000
0001
0000
0010
0000
,
0011
0000
0000
0001
0100
0010
1000
0100
0010
0000
0001
0100
0010
0000
1000
0000
,
0001
0000
0000
0100
0000
0000
0010
0000
1010
0000
0000
0010
0100
0000
0001
0000
,
0022
0000
0000
0033
0000
0000
0010
0000
0001
0000
0100
0000
0010
0000
1000
0000
0100
0000
0010
0000
0000
0001
0000
0000
,
2002
0000
0000
3003
0000
0000
0010
0000
0100
0000
0001
0000
1000
0000
0100
0000
1000
0000
0001
0000
0000
0100
0000
0000
,
0220
0000
0000
0000
0000
0000
0330
0000
0000
0000
0000
0000
0010
0000
0000
0000
1000
0000
0000
0000
0100
0000
0000
0000
1000
0000
0000
0000
0000
0000
0001
0000
0000
0100
0000
0000
0001
0000
0000
0000
0000
0000
1000
0000
0000
0000
0000
0000
,
2M2M
3030
M2M2
0303
1001
0110
2002
3003
,
2020
0000
0000
3030
0000
0000
0010
0000
1000
0000
0100
0000
0001
0000
0100
0000
1000
0000
0010
0000
0000
0100
0000
0000
,
0202
0000
0000
0303
0000
0000
0001
0000
0010
0000
1000
0000
0010
0000
0001
0000
0100
0000
0001
0000
0000
0010
0000
0000
,
0220
0000
0000
0000
0000
0000
0330
0000
0000
0000
0000
0000
0100
0000
0000
0000
1000
0000
0000
0000
0001
0000
0000
0000
0100
0000
0000
0000
0000
0000
0010
0000
0000
0100
0000
0000
0001
0000
0000
0000
0000
0000
1000
0000
0000
0000
0000
0000
,
22MM
3300
M2M2
0303
1010
1001
0220
0330
,
1001
0000
0000
0001
0100
0000
1000
0000
0100
0000
0001
0000
0010
0000
1000
0000
,
0010
0000
0000
0001
0100
0000
0010
0000
1100
0000
0011
0000
1100
0000
0001
0000
,
0100
0000
0000
0010
0100
0000
0001
0000
0010
0000
0001
0000
0100
0000
0010
0000
,
1000
0000
0000
0001
1000
0000
0010
0000
0100
0000
0001
0000
0011
0000
1100
0000
,
1001
0000
0000
0001
0100
0000
1000
0000
0100
0000
0001
0000
0010
0000
0001
0000
,
0100
0000
0000
0010
1000
0000
0100
0000
1000
0000
0001
0000
0100
0000
0001
0000
,
1001
0000
0000
0010
0100
0000
0001
0000
1000
0000
0100
0000
1000
0000
0010
0000
,
2M2M
3030
MM22
0033
0101
0110
2200
3300
,
1111
0000
0000
0000
;
