#TITLE:Cheese;
#SUBTITLE:;
#ARTIST:Stray Kids;
#TITLETRANSLIT:;
#SUBTITLETRANSLIT:;
#ARTISTTRANSLIT:;
#GENRE:;
#CREDIT:;
#BANNER:Cheese.png;
#BACKGROUND:Cheese-BG.png;
#LYRICSPATH:;
#CDTITLE:;
#MUSIC:Cheese.ogg;
#OFFSET:-0.159000;
#SAMPLESTART:55.576000;
#SAMPLELENGTH:20.052000;
#SELECTABLE:YES;
#BPMS:0.000000=120.000000
;
#STOPS:
;
#BGCHANGES:11.500=Cheese.avi=1.000=1=0=0=StretchNoLoop==CrossFade==,
292.500=Cheese-BG.png=1.000=1=0=1===CrossFade==,
99999=-nosongbg-=1.000=0=0=0 // don't automatically add -songbackground-
;
#KEYSOUNDS:;
#ATTACKS:;

//---------------dance-single - Alex----------------
#NOTES:
     dance-single:
     Alex:
     Beginner:
     1:
     0.085012,0.172776,0.074385,0.081147,0.000000,88.000000,77.000000,11.000000,12.000000,0.000000,0.000000,0.085012,0.172776,0.074385,0.081147,0.000000,88.000000,77.000000,11.000000,12.000000,0.000000,0.000000:
0000
0000
0000
0000
,
0000
0000
0000
0000
,
0000
0000
0000
0000
,
0000
0000
0000
0000
,
1001
0000
0000
0000
,
0001
0000
0000
0000
,
1000
0000
0000
0000
,
0100
0000
0000
0000
,
0010
0000
0000
0000
,
0100
0000
0000
0000
,
1000
0000
0000
0000
,
0001
0000
0000
0000
,
1001
0000
0000
0000
,
0010
0000
0000
0000
,
0100
0000
0000
0000
,
0001
0000
0000
0000
,
0001
0000
0000
0000
,
1000
0000
0000
0000
,
1000
0000
0000
0000
,
0010
0000
0000
0000
,
2002
0000
0000
0000
,
3003
0000
0000
0000
,
0220
0000
0000
0000
,
0330
0000
0000
0000
,
0001
0000
0001
0000
,
1000
0000
1000
0000
,
0001
0000
1000
0000
,
1001
0000
0000
0000
,
0010
0000
0000
0000
,
0100
0000
0000
0000
,
0001
0000
0000
0000
,
0001
0000
0000
0000
,
1000
0000
0000
0000
,
0010
0000
0000
0000
,
1000
0000
0000
0000
,
1000
0000
0000
0000
,
1001
0000
0000
0000
,
0001
0000
0000
0000
,
0100
0000
0000
0000
,
0010
0000
0000
0000
,
2002
0000
0000
3003
,
2000
0000
0000
3000
,
0020
0000
0000
0030
,
0100
0000
0100
0000
,
0100
0000
0000
0000
,
0001
0000
0000
0000
,
1000
0000
0000
0000
,
0001
0000
0000
0000
,
2002
0000
0000
0000
,
3003
0000
0000
0000
,
0220
0000
0000
0000
,
0330
0000
0000
0000
,
0010
0000
0010
0000
,
0100
0000
0100
0000
,
0001
0000
0001
0000
,
1000
0000
1000
0000
,
0010
0010
0010
0000
,
1001
0000
0000
0000
,
0001
0000
0000
0000
,
1000
0000
0000
0000
,
0010
0000
0000
0000
,
0100
0000
0000
0000
,
0001
0000
0000
0000
,
0100
0000
0000
0000
,
0001
0000
0001
0000
,
1000
0000
0000
0000
,
1000
0000
0000
0000
,
0010
0000
0000
0000
,
1000
0000
0000
0000
,
0001
0000
0000
0000
,
0100
0000
0000
0000
,
0010
0000
0000
0000
,
0010
0000
0000
0000
,
0110
0000
0000
0000
;

//---------------dance-single - Alex----------------
#NOTES:
     dance-single:
     Alex:
     Easy:
     3:
     0.195140,0.246823,0.209631,0.013525,0.000000,202.000000,171.000000,31.000000,2.000000,0.000000,0.000000,0.195140,0.246823,0.209631,0.013525,0.000000,202.000000,171.000000,31.000000,2.000000,0.000000,0.000000:
0000
0000
0000
0000
,
0000
0000
0000
0000
,
0000
0000
0000
0000
,
0000
0000
0000
0000
,
1000
0000
0001
0000
,
1000
0000
0001
0000
,
0100
0000
0010
0000
,
0100
0000
0010
0000
,
1000
0000
0001
0000
,
0010
0000
0001
0000
,
0100
0000
0010
0000
,
0100
0000
1001
0000
,
0001
1000
0001
0000
,
1000
0001
1000
0000
,
0010
0100
0010
0000
,
0100
0010
0100
0000
,
0001
0000
1000
0000
,
0001
0000
1001
0000
,
0010
0000
0100
0000
,
0010
0010
0010
0100
,
0110
0000
1001
0000
,
0110
0000
0000
0000
,
1001
0000
0110
0000
,
1001
0000
0000
0000
,
1000
0000
0001
0000
,
1000
0000
0001
0000
,
1000
1000
0010
0010
,
0100
0100
1001
0000
,
0000
0010
0100
0010
,
0000
1000
0001
1000
,
0000
0001
0001
0100
,
0000
1001
0000
0110
,
0000
0010
0010
0100
,
0000
0001
0001
1000
,
0000
1000
0010
1000
,
0000
1010
0000
0101
,
0001
0001
0001
0000
,
1000
1000
1000
0000
,
0010
0100
0010
0000
,
0101
0000
1010
0000
,
0000
0010
0100
0010
,
0000
1000
0001
1000
,
0000
0001
0100
0001
,
0000
1001
0000
1001
,
0001
0000
1000
0000
,
1000
0000
0010
0000
,
0100
0000
0100
0000
,
0001
0000
0010
0000
,
0011
0000
1100
0000
,
0011
0000
0000
0000
,
0101
0000
1010
0000
,
0101
0000
0000
0000
,
0100
0000
0001
0000
,
1000
0000
0010
0000
,
0100
0000
0001
0000
,
1000
0010
1010
0000
,
0010
0010
0010
0000
,
0000
1000
0001
1000
,
0000
0001
0100
0001
,
0000
0010
0100
0010
,
0000
0011
0000
1100
,
0000
0001
1000
1000
,
0000
0010
0100
0100
,
0000
0001
0010
0010
,
0000
0011
0000
0101
,
0100
0100
0100
0000
,
0010
0010
0010
0000
,
1000
0001
1000
0000
,
0010
0100
0010
0000
,
1000
0001
0010
0000
,
0001
1000
0100
0000
,
0010
0010
0001
0000
,
0101
0101
0000
2002
,
3003
0000
0000
0000
;

//---------------dance-single - Alex----------------
#NOTES:
     dance-single:
     Alex:
     Medium:
     5:
     0.271457,0.271506,0.243442,0.101434,0.000000,281.000000,245.000000,36.000000,15.000000,0.000000,0.000000,0.271457,0.271506,0.243442,0.101434,0.000000,281.000000,245.000000,36.000000,15.000000,0.000000,0.000000:
0000
0000
0000
0000
,
0000
0000
0000
0000
,
0000
0000
0000
0000
,
0000
0000
0000
0000
,
0001
1000
0001
1000
,
0010
0100
0010
0100
,
0001
0010
0100
1000
,
0001
0100
0010
1000
,
1001
0001
0100
0001
,
0001
1000
0010
0100
,
0100
0010
1000
0100
,
0010
0100
1000
1001
,
0001
0001
1000
1000
,
0010
0010
0100
0100
,
0001
0010
0010
0001
,
1000
1000
0010
0010
,
1010
0010
1000
1000
,
0100
0010
0001
1000
,
0010
0100
0100
0001
,
0001
0010
0100
1000
,
1001
0000
0110
0000
,
1001
0000
0001
1000
,
1001
0000
0110
0000
,
1001
0000
0001
1000
,
0001
0001
0100
0100
,
0010
0010
1000
1000
,
0100
0010
0100
1000
,
0001
0000
0101
0000
0000
0000
2002
3003
,
0001
0001
1000
0010
,
1000
0001
0100
0001
,
0010
0100
0010
0001
,
0100
0000
0110
0000
0000
0000
2020
3030
,
0010
0010
0100
0001
,
0010
0100
1000
0001
,
0100
0100
0001
0001
,
1000
0000
1001
0000
0000
0000
0220
0330
,
0010
0010
0100
0100
,
0001
0010
0100
0000
,
1000
0010
0100
0001
,
1000
1001
0000
0110
,
0010
0000
0010
0000
,
1000
0000
1000
0000
,
0001
0000
0001
0000
,
0100
0100
0110
0000
,
1001
0001
0010
0010
,
0001
0100
0010
0010
,
1000
0100
0010
0100
,
1000
0001
0100
0010
,
1001
0000
0110
0000
,
1001
0000
0010
0100
,
1001
0000
0110
0000
,
1001
0000
0001
1000
,
1001
0001
0001
1000
,
1000
0010
0010
0100
,
0100
0001
0010
0100
,
0010
0011
0000
1100
,
0200
0300
0020
0030
0002
0003
1001
0000
,
0010
0100
0100
0001
,
0010
0100
0010
0001
,
1000
0010
0100
0001
,
1000
0000
1001
0000
0000
0000
0220
0330
,
0010
0100
0010
0010
,
1000
0001
0001
0100
,
0001
1000
1000
0010
,
0100
0000
0101
0000
0000
0000
0022
0033
,
0010
0010
0001
0001
,
1000
0010
1000
0000
,
0001
0100
0100
0001
,
0001
0010
0110
0000
,
0010
0001
1000
1000
,
0010
0100
0001
0000
,
1000
0100
0010
0001
,
1000
1001
0000
0220
,
0330
0000
0000
0000
;

//---------------dance-single - Alex----------------
#NOTES:
     dance-single:
     Alex:
     Hard:
     8:
     0.457903,0.493647,0.223155,0.142008,0.601843,474.000000,441.000000,33.000000,21.000000,0.000000,0.000000,0.457903,0.493647,0.223155,0.142008,0.601843,474.000000,441.000000,33.000000,21.000000,0.000000,0.000000:
// measure 0
0000
0000
0000
0000
,  // measure 1
0000
0000
0000
0000
,  // measure 2
0000
0000
0000
0000
,  // measure 3
0000
0000
0000
0000
,  // measure 4
0001
0000
0000
1000
0010
1000
0001
0000
0000
0001
0100
0001
,  // measure 5
0010
0000
0000
0100
1000
0010
0100
0000
0000
0001
0000
0000
,  // measure 6
1000
0000
0000
0001
0100
0001
0100
0000
0000
0010
1000
0010
,  // measure 7
1000
0000
0000
0100
0000
0010
0001
0000
0001
0100
0000
0100
,  // measure 8
0010
0000
0000
0010
0000
1000
0000
0010
0000
1000
0000
0000
,  // measure 9
0001
0000
0100
0001
0000
0001
1000
0000
1000
0010
0000
0000
,  // measure 10
0110
0000
0000
0100
0000
0000
0001
0010
0001
0100
0000
0100
,  // measure 11
0010
0000
0010
0000
1000
0000
2002
3003
,  // measure 12
0001
0000
0001
0100
0000
0100
0001
0000
0001
1000
0000
0000
,  // measure 13
1000
0000
0010
1000
0000
1000
0100
0000
0100
0010
0000
0000
,  // measure 14
0001
0000
1000
0001
0000
0001
0100
0000
0100
0010
0000
0000
,  // measure 15
0010
0000
1000
0010
0000
0010
0100
0000
0100
0001
0010
0001
,  // measure 16
0100
0000
0000
0100
0000
0010
0100
0000
0100
0001
0000
0001
,  // measure 17
1000
0000
0000
1000
0000
0001
0100
0000
0100
0001
0000
0001
,  // measure 18
0010
0000
0000
0010
0000
0001
1000
0000
1000
0001
0000
0001
,  // measure 19
0100
0100
0010
0010
,  // measure 20
1001
0000
0000
0001
0000
1000
0001
0000
0000
0100
0000
0010
,  // measure 21
0100
0000
0000
0001
0000
1000
0100
0000
0100
1000
0000
1000
,  // measure 22
0010
0000
0000
0100
0000
0001
0010
0000
0000
0001
0000
1000
,  // measure 23
0001
0000
0000
0001
0000
0100
0001
0000
0001
0010
0000
0000
,  // measure 24
0001
0011
0001
0101
,  // measure 25
0100
0110
0010
1010
,  // measure 26
1000
0010
1000
0010
0000
0000
0010
0100
0010
0100
0010
0100
,  // measure 27
0010
0000
0110
0000
0000
0000
2002
3003
,  // measure 28
0001
0000
0000
1000
0001
1000
0001
1000
0001
1000
0000
0001
,  // measure 29
1000
0000
0000
0010
0100
0010
0100
0010
0100
0010
0000
0010
,  // measure 30
0100
0000
0000
0100
0001
0100
0001
0100
0001
0100
0000
0100
,  // measure 31
0001
0000
0000
0001
0000
0010
0001
0000
0000
1001
0000
0000
,  // measure 32
0001
0000
0000
1000
0010
1000
0010
1000
0010
1000
0000
1000
,  // measure 33
0010
0000
0000
0010
0100
0010
0100
0010
0100
0010
0000
0010
,  // measure 34
0100
0000
0000
0001
1000
0001
1000
0001
1000
0001
0000
0001
,  // measure 35
1000
0000
1001
0000
0000
0000
0220
0330
,  // measure 36
0010
0000
0000
0010
0000
0010
0100
0000
0100
0001
0000
0000
,  // measure 37
0001
0000
0000
1000
0000
0100
1000
0000
0000
1000
0010
1000
,  // measure 38
0001
0000
0000
0001
0000
1000
0010
0000
0010
0100
0000
0000
,  // measure 39
0001
0000
0010
0100
0000
0100
0010
0000
0000
0110
0000
0000
,  // measure 40
0010
0000
0000
0001
0000
1000
0000
0001
0000
0200
0000
0000
,  // measure 41
0300
0000
0000
0010
0000
0010
0000
1000
0000
2000
0000
0000
,  // measure 42
3000
0000
0000
0001
0000
0001
0000
0100
0000
0200
0000
0000
,  // measure 43
0310
0000
0000
0010
0000
0000
0010
0000
0100
0000
0010
0000
,  // measure 44
1001
0000
0000
0001
0000
1000
0001
0000
0001
0100
0000
0100
,  // measure 45
0010
0000
0000
0010
0000
1000
0100
0000
0100
1000
0000
0000
,  // measure 46
1000
0000
0000
0001
0000
0100
0001
0000
0001
1000
0000
0000
,  // measure 47
0001
0000
0010
0001
0000
0001
0100
0001
0100
0010
0000
0000
,  // measure 48
1000
1010
1000
1001
,  // measure 49
0001
0101
0110
1010
,  // measure 50
0010
0101
0010
1100
,  // measure 51
0001
0011
1100
1001
,  // measure 52
0001
0000
0001
0100
0000
0100
0001
0000
0001
0010
0000
0010
,  // measure 53
0100
0000
0100
1000
0000
1000
0010
0000
0010
0100
0000
0100
,  // measure 54
0001
0100
0001
0100
0000
0000
0010
1000
0010
1000
0010
1000
,  // measure 55
0010
0110
0000
1001
,  // measure 56
0002
0003
0200
0300
0020
0030
2002
3003
,  // measure 57
0001
0000
0000
1000
0010
1000
0010
1000
0010
1000
0000
1000
,  // measure 58
0010
0000
0000
0100
0001
0100
0001
0100
0001
0100
0000
0100
,  // measure 59
0001
0000
0000
0001
0010
0001
0010
0001
0010
0001
0000
0001
,  // measure 60
0100
0000
0110
0000
0000
0000
2002
3003
,  // measure 61
0001
0000
0000
1000
0001
1000
0001
1000
0001
1000
0000
1000
,  // measure 62
0001
0000
0000
0001
1000
0010
1000
0010
1000
0010
0000
0010
,  // measure 63
1000
0000
0000
1000
0100
1000
0100
1000
0100
1000
0000
1000
,  // measure 64
0100
0000
0011
0000
0000
0000
2200
3300
,  // measure 65
0010
0000
0000
0001
0000
0100
0001
0000
0001
1000
0000
0000
,  // measure 66
0010
0000
0000
0100
0000
0001
1000
0000
0000
1000
0100
1000
,  // measure 67
0100
0000
0000
1000
0000
0010
1000
0000
1000
0010
0000
0000
,  // measure 68
0100
0000
0000
0001
0000
0010
0001
0000
0000
0101
0000
0000
,  // measure 69
0100
0000
0000
0100
0000
0010
1000
0000
0001
0100
0000
0000
,  // measure 70
0100
0000
0000
0001
0000
0010
0100
0000
0000
1000
0010
0100
,  // measure 71
0001
0000
0000
0001
0000
1000
0100
0000
0100
1000
0000
0000
,  // measure 72
1000
0000
0000
0010
0000
0200
0000
0300
0000
2002
0000
0000
,  // measure 73
3003
0000
0000
0000
;
