#TITLE:Charmer;
#SUBTITLE:;
#ARTIST:Stray Kids;
#TITLETRANSLIT:;
#SUBTITLETRANSLIT:;
#ARTISTTRANSLIT:;
#GENRE:;
#CREDIT:;
#MUSIC:Charmer.ogg;
#BANNER:Charmer.png;
#BACKGROUND:Charmer-BG.png;
#CDTITLE:;
#SAMPLESTART:37.270;
#SAMPLELENGTH:22.527;
#SELECTABLE:YES;
#OFFSET:-0.070;
#BPMS:0.000=91.000
,42.000=45.500
,42.250=136.500
,43.000=91.000
,46.000=45.500
,46.250=136.500
,47.000=91.000
,50.000=45.500
,50.250=136.500
,51.000=91.000
,55.000=182.000
,56.000=91.000
,126.000=45.500
,126.250=136.500
,127.000=91.000
,130.000=45.500
,130.250=136.500
,131.000=91.000
,134.000=45.500
,134.250=136.500
,135.000=91.000
,139.000=182.000
,140.000=91.000
;
#STOPS:55.000=0.120
,55.333=0.121
,55.667=0.121
,139.000=0.120
,139.333=0.121
,139.667=0.121
;
#BGCHANGES:1.000=Charmer.avi=1.000=1=0=0=StretchNoLoop==CrossFade==,
191.500=Charmer-BG.png=1.000=1=0=1===CrossFade==,
99999.000=-nosongbg-=1.000=0=0=0=StretchNoLoop====
;
#FGCHANGES:;

//--------------- dance-single - Alex ----------------
#NOTES:
     dance-single:
     Alex:
     Beginner:
     1:
     0.065315,0.110427,0.069744,0,0,59,50,9,0,0,0,0.065315,0.110427,0.069744,0,0,59,50,9,0,0,0:
0000
0000
0000
0000
,
0000
0000
0000
0000
,
0000
0000
0010
0000
,
0000
0000
1000
0000
,
0000
0000
0001
0000
,
0000
0000
0100
0000
,
0000
0000
0001
0000
,
0000
0000
1000
0000
,
0000
0000
1000
0000
,
0000
0000
0100
0000
,
0000
0000
1001
0000
,
0000
0000
0110
0000
,
0000
0000
1001
0000
,
0000
0000
0110
0000
,
0000
0000
0100
0000
,
0000
0000
0010
0000
,
0000
0000
1000
0000
,
0000
0000
0001
0000
,
1000
0000
0001
0000
,
0000
0000
0100
0000
,
0000
0000
0010
0000
,
0000
0000
1000
0000
,
0010
0000
1000
0000
,
0000
0000
0001
0000
,
0000
0000
0100
0000
,
0000
0000
0010
0000
,
0000
0000
0010
0000
,
0000
0000
0100
0000
,
0000
0000
0001
0000
,
0000
0000
1000
0000
,
0000
0000
0001
0000
,
0000
0000
1001
0000
,
0000
0000
0110
0000
,
0000
0000
1001
0000
,
0000
0000
0110
0000
,
0000
0000
0010
0000
,
0000
0000
1000
0000
,
0000
0000
0001
0000
,
0000
0000
1000
0000
,
0001
0000
1000
0000
,
0000
0000
0001
0000
,
0000
0000
0100
0000
,
0000
0000
0010
0000
,
0100
0000
0010
0000
,
0000
0000
1000
0000
,
0000
0000
0001
0000
,
0000
0000
0100
0000
,
0000
0000
1001
0000
;

//--------------- dance-single - Alex ----------------
#NOTES:
     dance-single:
     Alex:
     Easy:
     2:
     0.137273,0.184046,0.131738,0,0,124,107,17,0,0,0,0.137273,0.184046,0.131738,0,0,124,107,17,0,0,0:
0000
0000
0000
0000
,
0000
0000
0000
0000
,
0000
0000
0010
0000
,
1000
0000
0001
0000
,
1000
0000
0010
0000
,
0010
0000
0100
0000
,
0100
0000
0001
0000
,
1000
0000
0001
0000
,
0100
0000
0010
0000
,
1000
0000
0100
0000
,
0010
0000
1001
0000
,
0010
0010
0110
0000
,
0100
0100
1001
0000
,
0001
1000
0001
0000
,
0000
0000
0010
0010
,
0010
0000
1000
1000
,
1000
0000
0001
0001
,
0001
0000
1001
0000
,
1001
0000
0010
0010
,
0100
0000
0001
0001
,
1000
0000
1000
1000
,
0100
0000
0011
0000
,
1100
0000
1001
0000
,
0000
0000
0010
0000
,
1000
0000
0001
0000
,
0001
0000
0100
0000
,
0100
0000
0010
0000
,
0010
0000
1000
0000
,
1000
0000
0001
0000
,
0001
0000
0100
0000
,
0001
0000
1000
0000
,
0010
0000
1001
0000
,
0100
0100
0110
0000
,
0010
0010
1010
0000
,
1000
1000
1001
0000
,
0000
0000
0001
0001
,
0001
0000
1000
1000
,
1000
0000
0010
0010
,
0010
0000
0110
0000
,
0110
0000
0010
1000
,
1000
0000
0001
0100
,
0100
0000
0010
1000
,
1000
0000
1001
0000
,
0110
0000
0010
0000
,
1000
0000
0001
0000
,
0100
0000
0100
0000
,
0010
0000
1000
0000
,
0001
0001
1001
0000
;

//--------------- dance-single - Alex ----------------
#NOTES:
     dance-single:
     Alex:
     Medium:
     5:
     0.236907,0.260376,0.209231,0.069744,0,214,187,27,9,0,0,0.236907,0.260376,0.209231,0.069744,0,214,187,27,9,0,0:
0000
0000
0000
0000
,
0000
0000
0000
0000
,
0000
0000
0001
0001
,
1000
1000
0010
0010
,
0100
0001
1000
0100
,
0010
0010
0001
1000
,
0010
0100
0001
1000
,
0001
0001
0100
0010
,
0010
1000
0100
1000
,
1000
0010
0100
0001
,
0011
0000
1001
0000
,
0001
1000
0001
1000
1001
0000
0000
0000
,
0010
0100
0010
0100
0110
0000
0000
0000
,
0010
1000
0010
1000
2002
0000
3003
0000
,
0000
0001
0100
0001
1000
0000
0010
0000
,
0100
0100
0001
1000
,
0100
0100
1000
1000
,
0010
0100
0101
1001
,
0220
0330
0010
0010
,
1000
1000
0001
0010
,
0001
0100
0010
1000
,
0100
1000
1010
0101
,
0011
1100
2002
0000
,
3003
0000
0001
0100
,
0001
0001
1000
0010
,
1000
1000
0010
0100
,
0001
0010
0100
1000
,
1001
1001
0001
0100
,
0010
0010
0100
0100
,
0001
0010
0100
1000
,
0001
0100
0010
1000
,
0100
0010
0011
0000
,
0001
1000
0001
1000
1001
0000
0000
0000
,
0001
0100
0001
0100
0110
0000
0000
0000
,
0010
1000
0010
1000
2020
0000
3030
0000
,
0000
0001
1000
0001
0100
0000
0010
0000
,
0100
0001
0001
0010
,
0100
1000
0010
1000
,
1000
0001
1001
0110
,
1001
0000
0110
0000
0010
0100
0010
0000
,
1000
0000
0001
0000
1000
0100
1000
0000
,
0001
0000
0100
0000
0010
0100
0010
0000
,
0100
0001
0011
1100
,
0011
0000
0101
0000
0010
0000
0000
0010
,
0100
0000
0000
0001
1000
0000
0000
1000
,
0100
0000
0000
0010
0001
0000
0000
0100
,
0010
0000
0000
1000
0001
0000
0000
0100
,
0010
1000
0001
0100
0020
0000
0000
0000
,
0030
0000
0000
0000
;

//--------------- dance-single - Alex ----------------
#NOTES:
     dance-single:
     Alex:
     Hard:
     7:
     0.337648,0.353368,0.340969,0.178234,0.073618,305,261,44,23,0,0,0.337648,0.353368,0.340969,0.178234,0.073618,305,261,44,23,0,0:
0000
0000
0000
0000
,
0000
0000
0000
0000
,
0000
0001
1000
0001
0100
0001
0000
1000
,
0010
0000
0100
0001
0010
0100
1000
0001
,
0100
0000
0110
0010
0010
0000
1000
0000
,
0001
0001
0001
0000
1000
0100
1000
0010
,
1000
0001
1001
0000
0001
0100
0010
0100
,
0100
0001
0001
0000
0010
0100
1000
0001
,
0100
0000
0110
0010
1000
0000
0001
0000
,
0001
1000
0001
0000
1000
0010
0100
0001
,
1000
0000
1001
0000
1001
0000
0000
0000
0220
0000
0000
0000
0330
0000
0000
0010
,
0000
0100
0000
0001
1000
0000
0000
0000
2200
0000
0000
0000
3300
0000
0000
1000
,
0000
0001
0000
0100
0010
0000
0000
0000
2002
0000
0000
0000
3003
0000
0000
0001
,
0000
1000
0000
0010
0100
0000
0010
0000
2002
0000
3003
0000
0000
0000
0000
0000
,
0000
0001
0100
0010
1000
0100
1000
0000
,
0001
0010
0001
0000
0100
0010
0010
0000
,
1000
0001
0010
0000
0001
1000
0010
0000
,
1000
0100
0010
0000
0011
0000
1100
0000
,
0101
0001
1000
0001
2000
0000
0000
3000
,
0010
0100
0001
1000
0200
0000
0000
0300
,
0010
0001
0100
0010
2000
0000
0000
3000
,
0001
1000
0001
0000
1001
0000
0011
0000
,
0101
1010
2002
0000
,
3003
0000
0000
0000
0000
0010
0100
0001
,
1000
0100
0010
0001
0000
0001
1000
0010
,
0100
0001
1000
0001
0000
1000
0010
1000
,
0001
0010
0001
0000
0100
0001
0100
0010
,
0010
0000
1001
0000
0001
0100
0001
0100
,
0001
0010
0100
0000
1000
0010
0100
0001
,
1000
0100
0010
0000
0001
0100
0010
0100
,
0001
0010
0100
0000
1000
0010
0100
0001
,
0010
0000
0100
0000
0100
0000
1000
0000
2002
0000
0000
0000
3003
0000
0000
0001
,
0000
0100
0000
0010
1000
0000
0000
0000
2020
0000
0000
0000
3030
0000
0000
0001
,
0000
0100
0000
0001
0100
0000
0000
0000
0202
0000
0000
0000
0303
0000
0000
0001
,
0000
0010
0000
0001
0100
0000
0010
0000
2002
0000
3003
0000
0000
0000
0000
0000
,
0000
0001
0010
0001
0100
0100
0010
0000
,
1000
0100
0010
0000
0001
0100
0010
1000
,
0001
0010
0001
0000
0100
0001
0100
0000
,
0010
1000
0010
0000
1010
0000
1100
0000
,
0101
0000
0011
0001
0100
0010
1000
1000
,
0001
0001
0001
0000
0100
0010
0010
1000
,
0100
0100
0100
0000
1000
0010
1000
0001
,
0010
0010
0001
0000
0011
0000
0101
0000
,
0110
0000
1010
0000
1001
0000
0000
0101
,
0110
0000
0000
1010
1100
0000
0000
0011
,
0101
0000
0000
0100
0000
0000
0110
0000
1001
0000
0000
0000
0000
0000
0101
0000
,
0110
0000
0000
1100
0110
0000
0000
0001
,
0100
0010
0010
1000
2002
0000
0000
0000
,
3003
0000
0000
0000
;

//--------------- dance-single - Alex ----------------
#NOTES:
     dance-single:
     Alex:
     Challenge:
     9:
     0.633228,0.613744,0.495955,0.147237,0.798177,572,508,64,19,0,6,0.633228,0.613744,0.495955,0.147237,0.798177,572,508,64,19,0,6:
0000
0000
0000
0000
,
0000
0000
0000
0000
,
0000
0000
0001
1000
0010
0100
0001
1000
0100
0000
0010
0000
0001
0100
0010
0000
,
1000
0000
0001
0100
0001
0010
0001
0100
0010
0000
1000
0100
0010
0001
0100
0010
,
1000
0000
0001
0000
0100
0010
0100
0010
0100
0000
0010
0000
1000
0001
0010
0000
,
0001
0100
0010
0100
0001
0000
0101
0000
0001
0000
0010
0100
1000
0000
0001
0000
,
1000
0010
1000
0010
0100
0000
0001
0010
0100
0000
1000
0010
0100
0000
0001
1000
,
0100
0010
0001
0000
0011
0000
0001
0010
0001
0000
0100
0001
0100
0010
0100
0000
,
0001
0000
1000
0010
0100
0000
0001
1000
0100
0000
0010
0001
0100
0000
0010
0000
,
0010
1000
0001
0010
0001
0000
0100
0000
0010
0100
0001
0010
0100
0000
1000
0001
,
0100
0010
0110
0000
1001
0000
0000
0000
2002
0000
0000
0000
0010
3003
0000
0001
,
0000
0100
0000
0010
1000
0000
1100
0000
2020
0000
0000
0000
0100
3030
0000
0001
,
0000
0100
0000
0001
0010
0100
1000
0000
2020
0000
0000
0000
0100
3030
0000
0010
,
0000
0000
0000
0100
0000
0000
0001
0000
0000
0000
0000
0000
1000
0000
0000
0000
0000
0000
0100
0000
0000
0000
0000
0000
1100
0000
0000
0000
0000
0000
1010
0000
0000
0000
0000
0000
1000
0000
0000
0000
0001
0000
0000
0000
1000
0000
0000
0000
,
1001
0000
0000
0000
0001
0000
0100
0000
0010
0000
0100
0000
0000
0000
0001
0000
1000
0000
0000
0000
0100
1000
0100
0000
0010
0000
0001
0000
0100
0000
0000
0000
,
0010
1000
0010
0000
0100
0000
0001
0000
0010
0000
0000
0000
0001
0000
0000
0000
0100
0000
0000
0000
0010
1000
0010
0000
0100
0000
0001
0000
0010
0000
0000
0000
,
0001
0000
0010
0000
0100
0000
1000
0000
0010
0000
0000
0000
0110
0000
0000
0000
1001
0000
0000
0000
0001
1000
0001
0000
0100
0000
0010
0000
1000
0000
0000
0000
,
0100
0000
0000
0010
0000
0000
0100
0000
0000
0000
0000
0000
1000
0000
0000
0000
0000
0000
0001
0000
0000
0000
0000
0000
0100
0000
0000
0000
0000
0000
0000
0000
0000
0000
0000
0000
0010
0000
0000
0000
0000
0000
0000
0000
0000
0000
0000
0000
1010
0000
0000
0000
0000
0000
0000
0000
1001
0000
0000
0000
0000
0000
0000
0000
0000
0000
0000
0000
0000
0000
0000
0000
0011
0000
0000
0000
0000
0000
0000
0000
1001
0000
0000
0000
0000
0000
0000
0000
0000
0000
0000
0000
0000
0000
0000
0000
,
0110
0000
0000
0000
0010
0000
0100
0000
0001
0000
0010
0000
0100
0000
1000
0000
0001
0000
0000
0000
0001
1000
0001
0000
1000
0000
0010
0000
0100
0000
0000
0000
,
0001
0100
0001
0000
0010
0000
0100
0000
1000
0000
0010
0000
0100
0000
0001
0000
1000
0000
0000
0000
1000
0001
1000
0000
0010
0000
0100
0000
0010
0000
0000
0000
,
1000
0000
0100
0000
0010
0000
0001
0000
0100
0000
0000
0000
0110
0000
0000
0000
0101
0000
0000
0000
0001
0010
0001
0000
0100
0000
0010
0000
1000
0000
0000
0000
,
1000
0000
0000
0100
0000
0000
1000
0000
0000
0000
0000
0000
0010
0000
0000
0000
0000
0000
0100
0000
0000
0000
0000
0000
0001
0000
0000
0000
0000
0000
0000
0000
0000
0000
0000
0000
0010
0000
0000
0000
0000
0000
0000
0000
0000
0000
0000
0000
0110
0000
0000
0000
0000
0000
0000
0000
1100
0000
0000
0000
0000
0000
0000
0000
0000
0000
0000
0000
0000
0000
0000
0000
0110
0000
0000
0000
0000
0000
0000
0000
0101
0000
0000
0000
0000
0000
0000
0000
0000
0000
0000
0000
0000
0000
0000
0000
,
0011
0101
0000
1010
1001
0000
0220
0000
0000
0000
0000
0000
,
0330
0000
0000
0000
0000
0000
0000
0000
0000
0000
0001
0100
0001
0010
0100
1000
,
0001
0000
0100
0000
0010
0000
1000
0000
0100
1000
0100
0000
0010
0001
0020
0000
0000
0000
0030
0000
0001
0000
0100
0000
0001
0000
0100
0000
0010
0000
1000
0000
,
0001
0000
0010
0000
0100
0000
1000
0000
0001
1000
0001
0000
1000
0001
2000
0000
0000
3000
0000
0000
0010
0000
0100
0000
0001
0000
0100
0000
0010
0000
1000
0000
,
0100
0010
0001
1000
0010
0100
0001
0000
1000
0001
1000
0000
0001
0100
0001
0000
,
0010
0001
0100
0010
0100
0001
2000
0000
0000
3000
0100
0010
0001
0100
0010
0000
,
1000
0001
0010
0001
0100
0010
1000
0000
1001
0000
0001
0100
0001
0010
0001
0000
,
0100
0100
0010
1000
0100
0010
0001
0000
0101
0000
0001
0100
0010
0000
0010
1000
,
0100
0000
1000
0010
0000
0100
0001
0000
0010
0000
0100
1000
0001
0000
0001
0100
,
0010
0000
0010
1000
0000
0001
0100
0000
0202
0000
0000
0000
0010
0303
0000
0001
,
0000
1000
0000
0010
0100
0000
0101
0000
2020
0000
0000
0000
0100
3030
0000
0001
,
0000
0100
0000
0010
1000
0100
0010
0000
2002
0000
0000
0000
0100
3003
0000
0001
,
0000
0000
0000
0100
0000
0000
0000
0000
0000
0010
0000
0000
1000
0000
0000
0000
0000
0000
0100
0000
0000
0000
0000
0000
1100
0000
0000
0000
0000
0000
0011
0000
0000
0000
0000
0000
0010
0000
0000
0000
0100
0000
0000
0000
0010
0000
0000
0000
,
0110
0000
0000
0000
0010
0000
0100
0000
0001
0000
1000
0000
0000
0000
1000
0000
0100
0000
0000
0000
0100
1000
0100
0000
0010
0000
0001
0000
0100
0000
0000
0000
,
0010
1000
0010
0000
0100
0000
0001
0000
1000
0000
0000
0000
0001
0000
0000
0000
0100
0000
0000
0000
0010
0100
0010
0000
0100
0000
0001
0000
0010
0000
0000
0000
,
0001
0000
0100
0000
0010
0000
1000
0000
0100
0000
0000
0000
1010
0000
0000
0000
0110
0000
0000
0000
0010
0100
0010
0000
0100
0000
0001
0000
1000
0000
0000
0000
,
0001
0000
0000
0010
0000
0000
0001
0000
0000
0000
0000
0000
0100
0000
0000
0000
0000
0000
0010
0000
0000
0000
0000
0000
1000
0000
0000
0000
0000
0000
0000
0000
0000
0000
0000
0000
0001
0000
0000
0000
0000
0000
0000
0000
0000
0000
0000
0000
0101
0000
0000
0000
0000
0000
0000
0000
0110
0000
0000
0000
0000
0000
0000
0000
0000
0000
0000
0000
0000
0000
0000
0000
1010
0000
0000
0000
0000
0000
0000
0000
1100
0000
0000
0000
0000
0000
0000
0000
0000
0000
0000
0000
0000
0000
0000
0000
,
0011
0000
0000
0000
0101
0000
0000
0000
0000
0000
0000
0000
0110
0000
0000
0000
0000
0000
1001
0000
0000
0000
0000
0000
0110
0000
0000
0000
0000
0000
0010
0000
0000
0100
0000
0000
0001
0000
0000
0100
0000
0000
0010
0000
0000
0000
0000
0000
,
0010
1000
0100
0010
0001
0000
0100
0000
0110
0000
0010
1000
0001
0010
0001
0000
,
0001
1000
0010
0100
0001
0000
1000
0000
1100
0000
0100
1000
0100
1000
0010
0000
,
0010
0000
0000
1000
0000
0000
0001
0000
0000
0100
0000
0000
0010
0000
0000
0000
0000
0000
0100
0000
0000
0000
0000
0000
0101
0000
0000
0000
1010
0000
0000
0000
0000
0000
0000
0000
1100
0000
0000
0000
0011
0000
0000
0000
0000
0000
0000
0000
,
0101
0000
0000
0000
0011
0000
0000
0000
0000
0000
0000
0000
1001
0000
0000
0000
1010
0000
0000
0000
0000
0000
0000
0000
0001
0000
0000
0000
0000
0000
0100
0000
0000
0010
0000
0000
0000
0000
0000
0010
0000
0000
0100
0000
0000
0000
0000
0000
,
0001
0000
1000
0100
0000
0100
1000
0000
0010
0000
0100
0001
0000
0001
0100
0000
,
0110
0000
0000
0101
0000
0000
0001
0000
0010
0000
0100
1000
0000
1000
0001
0000
,
1001
0000
0001
0100
0000
0100
0010
0000
0110
0000
0010
1000
0000
1000
0100
0010
,
0001
0000
0001
0100
0010
0000
1000
0000
2002
0000
0000
0000
0000
0000
0000
0000
,
3003
0000
0000
0000
;
