#TITLE:Ceremony;
#SUBTITLE:;
#ARTIST:Stray Kids;
#TITLETRANSLIT:;
#SUBTITLETRANSLIT:;
#ARTISTTRANSLIT:;
#GENRE:;
#CREDIT:;
#MUSIC:Ceremony.ogg;
#BANNER:Ceremony.png;
#BACKGROUND:Ceremony-BG.png;
#CDTITLE:;
#SAMPLESTART:85.790;
#SAMPLELENGTH:15.826;
#SELECTABLE:YES;
#OFFSET:-0.129;
#BPMS:0.000=121.000;
#STOPS:;
#BGCHANGES:;
#FGCHANGES:;

//--------------- dance-single - Alex ----------------
#NOTES:
     dance-single:
     Alex:
     Beginner:
     1:
     0,0,0,0,0:
0000
0000
0000
0000
,
0000
0000
0010
0000
,
0000
0000
1000
0000
,
0000
0000
0001
0000
,
0000
0000
1000
0000
,
0000
0000
0001
0000
,
0001
0000
0001
0000
,
0000
0000
1001
0000
,
0000
0000
1000
0000
,
0000
0000
0010
0000
,
0000
0000
0010
0000
,
0000
0000
1000
0000
,
0000
0000
0100
0000
,
0000
0000
1000
0000
,
0000
0000
1000
0000
,
0000
0000
1001
0000
,
0000
0000
0001
0000
,
0000
0000
0001
0000
,
0000
0000
1000
0000
,
0000
0000
0010
0000
,
0000
0000
0100
0000
,
0000
0000
0001
0000
,
0000
0000
0001
0000
,
0000
0000
1000
0000
,
0000
0000
1000
0000
,
0000
0000
0010
0000
,
0000
0000
0010
0000
,
0000
0000
1000
0000
,
0000
0000
0001
0000
,
0001
0000
0001
0000
,
0000
0000
1000
0000
,
0000
0000
1001
0000
,
0000
0000
0100
0000
,
0000
0000
0010
0000
,
0000
0000
1000
0000
,
0000
0000
0001
0000
,
0000
0000
1000
0000
,
1000
0000
1000
0000
,
0000
0000
1000
0000
,
0000
0000
0010
0000
,
0000
0000
0010
0000
,
0000
0000
0100
0000
,
0100
0000
0100
0000
,
0000
0000
1001
0000
,
0000
0000
0001
0000
,
0000
0000
0001
0000
,
0000
0000
1000
0000
,
0000
0000
1000
0000
,
0000
0000
0010
0000
,
0000
0000
0100
0000
,
0000
0000
0010
0000
,
0010
0000
1001
0000
,
0000
0000
0010
0000
,
0000
0000
1000
0000
,
0000
0000
0001
0000
,
0001
0000
0001
0000
,
0000
0000
1000
0000
,
0000
0000
1001
0000
;

//--------------- dance-single - Alex ----------------
#NOTES:
     dance-single:
     Alex:
     Easy:
     3:
     0,0,0,0,0:
0000
0000
0000
0000
,
0000
0000
1001
0000
,
0000
0000
0110
0000
,
0000
0000
1001
0000
,
1001
0000
0010
0010
,
0010
0010
0010
0000
,
0100
0000
0020
0000
,
0030
0000
1000
0000
,
1000
0000
0001
0001
,
0001
0000
0100
0000
,
0100
0000
0010
0010
,
0010
0000
1000
0000
,
1000
0000
0001
0001
,
0001
0000
2002
0000
,
3003
0000
0220
0000
,
0330
0000
0010
0000
,
0010
0000
0100
0000
,
0100
0000
0010
0000
,
1000
0000
1000
0000
,
0001
0000
1001
0000
,
0000
0000
0110
0000
,
0110
0000
0100
0001
,
0100
0000
0001
0000
,
1000
0000
0010
1000
,
0010
0000
1000
0000
,
0001
0000
1000
0100
,
1000
0000
0001
0000
,
0100
0000
0010
0100
,
0010
0000
0100
0100
,
0100
0000
1001
0000
,
0000
0000
0001
1000
,
0001
0000
1001
0000
,
0000
0000
1000
0001
,
1000
0001
1000
0000
,
0010
0000
0010
0000
,
1000
0000
2002
0000
,
3003
0000
0100
0100
,
0100
0100
0110
0000
,
0000
0000
1001
0000
,
0000
0000
1001
0000
,
1001
0000
0010
0010
,
0010
0010
0010
0000
,
0100
0000
0020
0000
,
0000
0030
0010
0000
,
0010
0000
1000
1000
,
1000
0000
0001
0000
,
0001
0000
0100
0100
,
0100
0000
0001
0000
,
0010
0000
1000
1000
,
1000
1000
2002
0000
,
0000
0000
3003
0000
,
0000
0000
0001
1000
,
0001
0000
1000
0001
,
1000
0000
0010
0100
,
0010
0000
0100
0000
,
0001
0000
1000
0001
,
1000
0000
0001
1000
,
0001
1000
0001
0000
;

//--------------- dance-single - Alex ----------------
#NOTES:
     dance-single:
     Alex:
     Medium:
     5:
     0,0,0,0,0:
0000
0000
0000
0000
,
0000
0000
0000
0000
1001
0000
0000
1001
,
0000
0000
0000
0000
0110
0000
0000
0110
,
0000
0000
1001
0000
,
1001
0000
0110
0110
,
0110
0110
2002
0000
,
0000
0000
3003
0000
,
0000
0000
0001
1000
0001
0000
1000
0000
,
0010
0100
0001
0010
,
0100
1000
0100
0000
1000
0000
0001
0000
,
0100
0010
0100
0100
,
0001
0000
1000
0001
1000
0000
0001
0000
,
0010
0001
0100
0010
,
1000
1010
0010
0010
,
1001
0000
0100
0001
,
2002
3003
0001
1000
,
0001
1000
0001
0000
1000
0000
0001
0000
,
1000
0100
1000
0000
0001
0000
0100
0000
,
0010
0100
0010
0000
0100
0000
0001
0000
,
0010
0100
1000
0000
1001
0000
0000
0000
,
1001
0000
0110
0110
,
0110
0110
0000
0100
,
0001
0010
0100
1000
,
0010
1000
0020
0000
0030
0000
1000
0000
,
0001
0100
0010
1000
,
0001
0010
0002
0000
0003
0000
0100
0000
,
0010
1000
0100
0010
,
0100
2000
3000
0001
,
1000
0001
0100
0010
,
1000
0001
2002
0000
,
3003
0000
0000
0000
0010
0100
0010
0100
,
0010
0000
1001
0000
,
0010
0100
0001
0010
,
0100
1000
1100
0000
,
1000
1000
0010
1000
,
0001
1000
0001
0000
2002
0000
0000
0000
,
3003
0000
1001
1001
,
1001
0000
1001
0000
0110
0000
0000
0110
,
0000
0000
0000
0000
1001
0000
0000
1001
,
0000
0000
0110
0000
,
0110
0000
1001
1001
,
1001
1001
0220
0000
,
0000
0000
0330
0000
,
0000
0000
0100
0001
0100
0000
0001
0000
,
0010
0100
1000
0001
,
1000
0000
0010
0100
0001
0000
1000
0000
,
0100
0010
0100
1000
,
0001
0000
0100
0010
0100
0000
0001
0000
,
0001
1000
0010
1000
,
0001
0010
0001
0000
2002
0000
0000
0000
,
0000
3003
1001
0000
,
0000
0000
0001
0001
,
0001
0001
1000
1000
,
1000
1000
0010
0010
,
0010
0010
0100
0100
,
0100
0100
1001
1001
,
1001
1001
0110
0110
,
0110
0000
0110
0000
0000
MMMM
M000
MMMM
,
000M
0000
MMMM
0000
0000
M00M
00M0
M000
0M00
M000
0M00
M0M0
0000
M00M
0000
0000
,
MMMM
000M
00M0
0M00
MMMM
0000
0000
0000
;

//--------------- dance-single - Alex ----------------
#NOTES:
     dance-single:
     Alex:
     Hard:
     8:
     0,0,0,0,0:
0000
0000
0000
0000
,
0000
0000
0000
0000
0000
0000
0000
0010
0100
0000
0000
0000
0000
0000
1MM1
0000
,
0000
0000
M00M
0000
0000
M00M
0000
0001
1000
0000
0000
0000
0000
0000
1MM1
0000
,
0000
0000
M00M
0000
0000
M00M
0000
0010
0100
0000
0000
M00M
0000
0000
M00M
0010
,
0100
0000
0000
M00M
0000
0000
M00M
0000
1001
0000
0000
0000
1001
0000
0000
0000
,
0110
0000
0000
0000
0110
0000
0000
0000
0010
0100
0010
0100
0010
0000
0000
0000
,
1000
0000
0001
0100
0001
1000
0020
0000
,
0030
0000
0000
0000
1000
0001
1000
0001
1000
0000
0001
0000
0100
0000
0000
0000
,
0010
1000
0001
0000
0010
0100
1000
0001
,
0100
0010
0110
0000
0010
1000
0100
1000
,
0010
0000
0010
0000
1000
0001
0100
0001
,
1000
0000
0000
0000
0001
1000
0001
1000
0001
0000
0001
0000
1000
0000
0010
0000
,
0100
0000
0100
0000
0001
0010
0100
1000
,
0001
0000
0100
0000
0010
0000
0000
0000
1000
0001
0000
0000
0001
1000
0000
0000
,
1000
0001
0000
0000
1001
0000
0000
0000
0001
0000
0000
0000
1000
0000
0010
0000
,
0100
0000
1001
0000
0001
0010
0100
1000
,
0001
0200
0300
0010
1000
0001
0010
0001
,
1000
0000
0010
0000
1000
0000
0100
1000
0100
0000
1000
0000
0010
0000
0100
0000
,
0001
0010
0001
0100
0010
0100
0001
1000
,
0010
0100
0001
1000
1001
0000
0000
0000
,
0110
0000
1001
0110
,
1001
0000
0110
0000
0010
0100
0001
0100
,
0010
0100
0001
0000
1000
0100
0010
0001
,
1000
0000
0010
0000
0100
0000
0001
0000
1001
0000
0001
0000
0000
0100
0000
0000
,
0010
1000
0100
0000
0100
0010
1000
0001
,
0010
0000
0001
0000
0010
0000
0001
0000
0101
0000
0100
0000
0000
0010
0000
0000
,
1000
0001
0100
0000
0001
1000
0100
1000
,
0001
0000
0100
0000
0010
0000
1000
0000
1001
0000
0001
0000
0000
1000
0000
0000
,
0010
0100
0001
0100
0010
0100
0001
1000
,
0100
0000
0010
0000
0001
0000
1000
0002
0000
0000
0000
0003
0100
0000
0010
0000
,
0100
0000
0001
0000
0000
0000
1000
0000
0100
0000
1000
0000
0010
0000
0100
0001
,
0100
0001
1000
0000
1001
0000
0001
0010
,
0001
0000
0010
0000
0000
0000
0001
0000
1000
0000
0010
0000
0100
0000
0001
0100
,
0001
0000
0100
0000
0010
0000
1000
0000
0001
0000
0000
0000
1000
0100
1000
0100
,
1000
0000
0010
0000
0000
0000
0100
0000
0001
0000
0010
0000
0100
0000
1000
0001
,
1000
0000
0001
0000
0000
0000
1001
0000
0000
0000
0000
0000
0001
0100
0001
0100
,
0001
0100
0000
0000
0110
0000
1001
0000
,
0110
0000
0000
0000
1001
0000
0000
0001
1000
0000
0000
0000
0000
0000
1001
0000
,
0000
0000
0000
M00M
0000
0000
M00M
0010
0100
0000
0000
0000
0000
0000
0110
0000
,
0000
0000
0000
M00M
0000
0000
M00M
0100
0010
0000
0000
M00M
0000
0000
M00M
0100
,
0010
0000
1001
1001
,
0110
0000
0000
0000
0110
0000
0000
0000
0010
0100
0010
0100
0010
0000
0000
0000
,
0100
0000
0001
1000
0100
0010
0002
0000
,
0003
0000
0000
0000
0100
0001
0100
0001
0100
0000
0001
0000
1000
0000
0000
0000
,
0010
1000
0001
0000
0010
0001
1000
0010
,
1000
0001
1001
0000
0001
1000
0100
0000
,
1000
0001
0100
0010
1000
0000
0001
0000
,
1000
0000
0001
0000
1000
0001
1000
0001
1000
0000
0001
0000
0100
0000
0000
0000
,
0001
0010
0001
0000
1000
0010
0100
0001
,
0010
0100
1100
0000
2002
0000
0000
0000
,
0000
0000
3003
0000
0001
1000
0001
0100
,
0001
0000
1000
0010
1000
0000
0001
0000
1001
0000
0000
0000
0010
0000
0000
0000
,
1001
0100
1001
0010
,
1000
0010
0100
0001
0011
0000
0100
0000
,
0011
0000
0100
0000
1000
0100
0100
1000
,
0010
0010
1000
0001
0011
0000
1000
0000
,
0011
1000
1010
0001
,
1010
0000
0000
0000
0001
1000
0001
1000
0001
0000
0000
0000
MMMM
0000
M000
0000
,
MMMM
0000
000M
0000
MMMM
0000
0000
M00M
00M0
M000
0M00
M000
0M00
M0M0
0000
M00M
,
0000
MMMM
000M
00M0
0M00
MMMM
0000
0000
;

//--------------- dance-single - Alex ----------------
#NOTES:
     dance-single:
     Alex:
     Challenge:
     10:
     0,0,0,0,0:
0000
0000
0000
0000
,
0000
0000
0000
0000
0000
0000
0000
0001
0100
0000
0000
0101
0000
0000
1010
0000
,
0000
1001
0000
0000
0001
0000
1000
0010
0110
0000
0000
0110
0000
0000
0101
0000
,
0000
0011
0000
0000
0001
0000
1000
0010
1010
0000
0000
0101
0000
0000
0001
1000
,
1001
0000
0000
0011
0000
0000
0001
0000
0101
0000
0010
0000
0101
0000
0010
0000
,
1100
0000
0010
0000
1100
0000
0010
0000
1000
0001
0100
0010
2000
0000
0000
3000
,
0002
0000
0000
0003
1000
0000
0010
0000
0100
0000
0001
0000
0022
0000
0000
0000
,
0000
0033
0000
0000
0001
0010
0100
1000
0001
0000
1000
0000
1001
0000
0001
0000
,
0100
0000
0010
0000
0110
0000
0010
0000
1000
0010
0000
1010
0000
1001
0000
0001
,
0000
0010
0100
0000
2002
0000
0000
3003
0010
0100
0010
0000
0100
0000
0001
0010
,
0001
0000
1000
0000
0100
0000
0010
0000
0001
1000
0001
1000
0010
0100
0010
0100
,
0010
1000
0001
1000
0001
0010
0001
1000
0001
0000
0001
0000
0101
0000
0010
0000
,
1000
0000
1000
0000
1001
0000
0001
0000
1000
0001
0000
0101
0000
0101
0000
1010
,
0000
0100
1000
0000
1001
0000
0010
0000
0100
0001
0000
0000
0100
1000
0000
0000
,
0100
0001
0000
0000
1001
0000
0000
0000
0001
0000
0010
0000
1000
0000
0010
0000
,
0001
0000
0100
0000
2002
0000
3003
0000
0001
0100
0001
0000
0100
0000
0010
1000
,
0010
0000
1010
0000
0000
0000
0100
0001
0100
0000
0010
0000
1000
0000
0001
0100
,
0000
0110
0000
0010
1000
0000
0100
0010
0001
0000
0100
0000
0010
1000
0001
0100
,
0000
0101
0000
0001
1000
0000
0010
0000
0100
0000
0001
0000
0010
0001
0100
0001
,
0000
0000
0000
0100
0000
0000
0000
0000
0000
0010
0000
0000
1000
0000
0000
0000
0001
0000
0000
0000
1000
0000
0000
0000
1001
0000
0000
0000
0000
0000
0000
0000
0000
0000
0000
0000
0000
0000
0000
0000
0000
0000
0000
0000
0000
0000
0000
0000
,
0110
0000
1100
0011
,
1100
0000
0000
0000
1111
0000
0000
0000
0001
0000
0100
0000
0001
0100
0000
0010
,
0000
0100
0000
0001
0100
0000
0010
0000
1010
0000
0010
0000
1000
0001
0000
1000
,
0000
0010
0000
0100
0001
0000
1000
0000
1001
0000
0001
0010
0000
0100
0000
1000
,
0010
0000
1010
0000
0001
0100
0001
0100
0000
0100
0010
1000
0001
0010
0000
0010
,
0000
0001
0000
1000
0001
1000
0010
0100
0000
0000
0101
0000
0000
1010
0000
0000
,
0010
0000
1000
0000
0001
1000
0100
0010
0000
0000
1001
0000
0001
1000
0000
1000
,
0001
0000
0001
0000
0100
0000
1000
0000
0100
0000
0001
0000
0010
1000
0000
1000
,
0010
0000
0010
0000
0100
0000
0001
0100
0010
0000
0100
0001
0100
0000
0010
1000
,
0010
0000
1000
0001
1000
0000
0001
2000
0000
0000
3000
0000
0010
0000
0100
0000
,
0001
0000
0100
0000
0000
0000
0010
0000
1000
0001
0100
0010
1000
0001
0010
0100
,
1000
0000
0001
0100
0010
0000
1000
0000
1001
0000
0000
0001
0100
0000
1000
0000
,
0100
0000
0001
0000
0010
0000
0001
0000
0100
0010
0100
0001
0010
0100
0010
0001
,
0100
0000
0010
1000
0001
0100
0001
0100
0010
0000
0000
0010
1000
0001
0100
0010
,
1000
0000
1001
0000
0000
0000
0001
0000
0100
0000
0010
0000
1000
0100
0010
0001
,
1000
0000
0001
0100
0010
0000
0100
0000
1001
0000
0000
0001
1000
0010
0100
0001
,
0010
0001
0100
0010
1010
0000
0011
0000
,
1100
0000
0000
0000
1111
0000
0000
0001
1000
0000
0000
1001
0000
0000
0101
0000
,
0000
0110
0000
0000
1010
0000
0010
1000
1001
0000
0000
0011
0000
0000
0101
0000
,
0000
0110
0000
0000
1010
0000
0010
1000
1001
0000
0000
1010
0000
0000
0010
0100
,
0101
0000
0000
0011
0000
0000
0001
0000
1001
0000
0100
0000
1010
0000
0100
0000
,
0011
0000
0100
0000
1010
0000
1001
0000
0001
1000
0010
0100
0001
0000
0000
0000
,
1001
0000
0001
1000
0010
0100
2002
0000
,
0000
0000
3003
0000
0001
1000
0100
0010
0001
0000
0100
0000
0110
0000
0010
0000
,
1000
0000
0001
0000
1001
0000
0001
0000
0100
0001
0000
0101
0000
0110
0000
1010
,
0000
0100
1000
0000
2020
0000
3030
0000
0010
1000
0010
0000
0100
0000
0001
0010
,
0001
0000
1000
0000
0100
0000
0010
0000
0001
1000
0100
0010
0001
1000
0100
0010
,
0001
1000
0010
0100
0001
0010
0001
0100
0010
0000
0100
0000
0101
0000
0001
0000
,
1000
0000
0010
0000
1010
0000
0010
0000
1000
0001
0000
0011
0000
0101
0000
0110
,
0000
1000
0001
0000
1001
0000
0000
0000
0220
0000
0000
0000
0000
0000
0000
0000
,
0000
0000
0330
0000
0010
1000
0001
0100
,
0010
0000
1000
0001
1000
0000
1001
0000
0001
0100
0001
0000
1000
0010
1000
0000
,
0001
0010
0001
0000
1000
0100
1000
0000
0001
0100
0001
0000
1000
0010
1000
0000
,
0001
0100
0001
0000
0100
0000
0010
1000
0001
0010
0100
0000
1000
0001
1000
0000
,
0010
0100
0010
0000
0100
0001
0100
0000
0001
0000
0100
0000
1000
0000
0100
0000
,
0001
0000
1000
0010
1000
0000
0001
0000
0010
0001
0010
0000
0001
0100
0001
0000
,
0100
0010
0100
0000
0001
0100
0001
0000
1000
0010
1000
0010
0100
0001
1000
0001
,
0100
0010
1000
0100
0010
0001
1000
0010
0100
0000
0000
0000
MMMM
0000
M000
0000
,
MMMM
0000
000M
0000
MMMM
0000
0000
M00M
00M0
M000
0M00
M000
0M00
M0M0
0000
M00M
,
0000
MMMM
000M
00M0
0M00
MMMM
0000
0000
;
