#TITLE:Case 143;
#SUBTITLE:;
#ARTIST:Stray Kids;
#TITLETRANSLIT:;
#SUBTITLETRANSLIT:;
#ARTISTTRANSLIT:;
#GENRE:;
#CREDIT:;
#MUSIC:Case 143.ogg;
#BANNER:Case 143.png;
#BACKGROUND:Case 143-BG.png;
#CDTITLE:;
#SAMPLESTART:19.663;
#SAMPLELENGTH:20.337;
#SELECTABLE:YES;
#OFFSET:0.102;
#BPMS:0.000=100.000
,31.000=50.000
,31.250=150.000
,32.000=100.000
,127.000=50.000
,127.250=150.000
,128.000=100.000
;
#STOPS:;
#BGCHANGES:1.000=Case 143.avi=1.000=1=0=0=StretchNoLoop==CrossFade==,
99999.000=-nosongbg-=1.000=0=0=0=StretchNoLoop====
;
#FGCHANGES:;

//--------------- dance-single - Alex ----------------
#NOTES:
     dance-single:
     Alex:
     Beginner:
     1:
     0.070055,0.122013,0.062271,0,0,63,55,8,0,0,0,0.070055,0.122013,0.062271,0,0,63,55,8,0,0,0:
0000
0000
0000
0000
,
0000
0000
0000
0000
,
0000
0000
0000
0000
,
0000
0000
0000
0000
,
0000
0010
0000
0000
,
0000
1000
0000
0000
,
0000
0001
0000
0000
,
0000
1000
0000
0000
,
0000
1001
0000
0000
,
0000
0001
0000
0000
,
0000
1000
0000
0000
,
0000
0010
0000
0000
,
0000
0100
0000
0000
,
0000
0100
0000
0000
,
0000
0010
0000
0000
,
0000
1000
0000
0001
,
0000
1000
0000
0000
,
0000
1001
0000
0000
,
0000
0110
0000
0000
,
0000
1001
0000
0000
,
0000
0001
0000
0000
,
0000
0100
0000
0000
,
0000
0001
0000
0000
,
0000
1000
0000
0000
,
0000
1001
0000
0000
,
0000
0010
0000
0000
,
0000
0100
0000
0000
,
0000
0001
0000
0000
,
0000
1000
0000
0000
,
0000
0001
0000
0000
,
0000
0100
0000
0000
,
0000
0010
0000
0000
,
0000
1001
0000
0000
,
0000
1000
0000
0000
,
0000
0001
0000
0000
,
0000
0100
0000
0000
,
0000
0010
0000
0000
,
0000
0010
0000
0000
,
0000
1000
0000
0000
,
0000
0001
0000
1000
,
0000
0001
0000
0000
,
0000
0100
0000
0000
,
0000
0010
0000
0000
,
0000
1000
0000
0000
,
0000
1001
0000
0001
,
0000
1000
0000
0000
,
0000
0001
0000
0100
,
0000
0001
0000
0000
,
0000
1000
0000
0010
,
0000
1000
0000
0000
,
0000
0001
0000
0000
,
0000
1000
0000
0001
,
0000
1001
0000
0000
;

//--------------- dance-single - Alex ----------------
#NOTES:
     dance-single:
     Alex:
     Easy:
     2:
     0.124543,0.183019,0.085623,0.031136,0,112,101,11,4,0,0,0.124543,0.183019,0.085623,0.031136,0,112,101,11,4,0,0:
0000
0000
0000
0000
,
0000
0000
0000
0000
,
0000
0001
0000
1000
,
0000
0001
0000
0000
,
0000
1000
0000
0010
,
0000
1000
0000
0000
,
0000
0010
0000
0010
,
0000
2002
0000
3003
,
0000
0001
0000
1000
,
0000
0001
0000
1000
,
0000
0010
0000
0100
,
0000
0010
0000
0110
,
0000
0100
0000
0001
,
0000
0100
0000
0010
,
0000
1000
0000
0001
,
0000
1000
1000
1000
,
0000
1001
0000
0000
,
0010
0100
0000
0000
,
0001
1000
0000
0000
,
1000
0001
0000
0000
,
0000
1000
0000
1000
,
0000
1000
0000
0000
,
0000
0001
0000
0001
,
0000
0001
0000
0000
,
0000
1000
0000
0010
,
0000
1000
0000
0000
,
0000
0001
0000
0010
,
0000
0001
0000
0000
,
0000
1001
0000
0001
,
0000
0100
0000
0010
,
0000
1000
0000
0001
,
0000
2002
0000
3003
,
0000
0010
0000
0100
,
0000
0010
0000
1000
,
0000
0001
0000
0100
,
0000
0001
0000
1000
,
0000
0010
0000
0010
,
0000
1000
0000
0001
,
0000
0100
0000
0010
,
0000
1000
1000
1000
,
0000
1001
0000
0001
,
0000
0100
0100
0100
,
0000
0010
0000
1000
,
0000
0001
0001
0001
,
0000
1001
0000
0110
,
0000
0010
0010
0010
,
0000
1010
0000
0101
,
0000
0001
1000
0001
,
1000
0001
0000
0000
,
0000
1000
1000
1000
,
0000
0010
0000
0100
,
0000
0010
0010
0010
,
0010
0110
0000
0000
;

//--------------- dance-single - Alex ----------------
#NOTES:
     dance-single:
     Alex:
     Medium:
     4:
     0.207942,0.264994,0.155678,0.03892,0,187,167,20,5,0,0,0.207942,0.264994,0.155678,0.03892,0,187,167,20,5,0,0:
0000
0000
0000
0000
,
0000
0000
0000
0000
,
0000
0001
0000
1000
,
0000
0010
0100
0001
,
1001
0001
1000
0001
,
0000
1000
0010
1000
,
0000
0010
0100
0001
,
1000
2002
0000
3003
,
0000
0010
0100
0001
,
0000
1000
0100
0010
,
0000
0001
0100
0001
,
0000
1000
1000
1010
,
0000
0010
0100
0001
,
0001
1000
0100
0010
,
0000
0001
1000
0001
,
0100
0100
0110
1001
,
0000
0001
0010
0001
,
0000
1000
0100
1000
,
0000
0010
0100
0010
,
0000
1000
0001
1001
,
0000
0000
0001
0010
0001
0000
0101
0000
,
0000
0000
0010
1000
0010
0000
1001
0000
,
0000
0000
0001
1000
0100
0000
1100
0000
,
0000
0010
0010
0010
,
0000
0001
1000
0010
,
0000
0100
0001
1000
,
0000
0100
0010
0001
,
0000
1000
0001
1001
,
0000
0001
0100
0100
,
0010
1000
0001
0010
,
0001
0100
0100
0010
,
0010
2002
0000
3003
,
0000
1000
0100
1000
,
0000
0010
0100
0010
,
0000
0100
0001
0100
,
0000
0010
1000
1001
,
0000
0001
0100
0010
,
0010
0100
0001
0001
,
0000
1000
0010
0010
,
1000
0100
1100
1010
,
0000
0010
0100
0001
,
0000
1000
0100
0010
,
0000
0001
0100
0010
,
1000
1001
1001
1001
,
0000
0000
0001
0100
0001
0000
1000
0010
,
1000
0010
0100
1001
,
0000
0000
0001
0010
0001
0000
0100
0001
,
0100
0010
1000
0001
,
0100
0110
0000
0100
,
0000
0010
1000
0001
,
0000
0100
0010
1000
,
0001
0010
0010
1001
,
0010
0200
0000
0300
0000
0000
0000
0000
;

//--------------- dance-single - Alex ----------------
#NOTES:
     dance-single:
     Alex:
     Hard:
     7:
     0.331373,0.346255,0.272437,0.070055,0.023352,298,263,35,9,20,0,0.331373,0.346255,0.272437,0.070055,0.023352,298,263,35,9,20,0:
0000
0000
0000
0000
,
0000
0000
0000
0000
,
0000
0000
0001
0100
0001
0000
1000
0010
,
1000
0000
0001
0010
0100
1000
1001
0000
,
0000
0000
0010
0000
0100
0001
0010
0000
,
0001
1000
0010
0000
0100
0001
1000
0000
,
1001
0000
0000
0001
0100
0001
1000
0010
,
0100
0001
1000
0100
0010
0001
0100
0000
,
0110
0000
0010
1000
0010
1000
1001
0000
,
0000
0000
0001
0100
0010
1000
1100
0000
,
0000
0000
0100
0010
0001
0100
0110
0000
,
0000
0010
0100
0010
,
1001
0000
0001
0010
0001
0100
0110
0000
,
0000
0000
0010
1000
0001
1000
1100
0000
,
0000
0000
0010
0001
0100
0010
1000
0000
,
1001
0001
0100
1000
,
0100
0000
0001
0010
0001
0000
0100
0010
,
0100
0000
0010
1000
0001
0010
0200
0000
,
0300
0000
1000
0100
1000
0000
0001
0100
,
0001
0000
0010
0100
1000
0001
0020
0000
,
0030
0000
0001
0100
0001
0000
0101
0000
,
1010
0000
0010
1000
0100
0010
0001
1000
,
0010
0010
0000
0000
1001
0000
0001
0001
,
1000
0000
1000
1000
0100
0000
0010
0000
,
0001
0000
0100
0000
0100
0010
0100
0000
,
0001
0000
1000
0000
0001
1000
0001
0000
,
1000
0000
0010
1000
0010
0000
1000
0100
,
1000
0110
0101
0022
,
0033
0000
0001
0010
0001
0000
0100
0010
,
0100
0000
0001
1000
0001
0000
1000
0100
,
1000
0000
0010
0100
0001
1000
0100
0010
,
0100
1000
2002
0000
0000
0000
3003
0000
,
1001
0000
0001
0100
0001
0010
0011
0000
,
0000
0000
0001
1000
0010
0100
0101
0000
,
0000
0000
0001
1000
0100
1000
1001
0000
,
0000
0000
0001
1000
0010
0100
0110
0000
,
0010
0000
0010
1000
0010
0100
0101
0000
,
0000
0000
0001
0010
0100
1000
1001
0000
,
0000
0000
0001
1000
1000
0100
1000
0000
,
0100
0110
0011
2002
,
3003
0000
0001
0100
0001
0100
0010
0000
,
0000
0000
0010
1000
0100
0010
0001
0000
,
0000
0000
1000
0010
1000
0000
0001
0010
,
0001
0000
0100
0100
0010
0010
1000
0001
,
0010
0100
1100
0000
0100
1000
0001
0000
,
0001
1000
0010
0000
0110
0000
1001
0000
,
0001
0100
0001
0000
0010
0100
0010
0000
,
0001
1000
0010
0100
0001
0000
0010
0000
,
0001
0000
0000
0000
0000
0000
1001
0000
0000
0MM0
0000
0MM0
0000
0MM0
0000
0000
M0M0
0000
MMM0
0000
00M0
0000
0MMM
0000
,
00MM
0000
0MMM
0000
0000
0000
0010
0000
0000
0100
0000
0000
0010
0000
0000
1000
0000
0000
0001
0000
0000
0000
0000
0000
,
0011
0000
0001
0100
0010
0000
1000
0100
,
0010
0011
1100
0101
,
0010
0000
0000
0020
0000
0000
0000
0000
0030
0000
0000
0000
0000
0000
0000
0000
0000
0000
0000
0000
0000
0000
0000
0000
;

//--------------- dance-single - Alex ----------------
#NOTES:
     dance-single:
     Alex:
     Challenge:
     9:
     0.584906,0.570075,0.435899,0.116759,0.7745,526,470,56,15,20,0,0.584906,0.570075,0.435899,0.116759,0.7745,526,470,56,15,20,0:
0000
0000
0000
0000
,
0000
0000
0000
0000
,
0000
0000
0000
0000
0001
0000
0100
0001
0000
0000
1000
0010
0100
0000
0100
0001
,
0000
0000
0001
1000
0010
0000
0100
0000
0001
0000
0010
0000
1000
0000
0010
0000
,
0011
0000
1100
0000
0001
0000
0001
0100
0000
1000
0000
0100
0000
0010
0001
0000
,
0100
0000
1000
0000
0010
0000
0001
0010
0000
1000
0000
0100
0000
0001
0000
0100
,
0010
0100
0010
0000
0010
1000
0010
1000
0001
1000
0001
0010
0001
0010
0001
0100
,
0001
0100
0010
1000
0004
4000
0000
0000
0000
0000
0000
0000
3003
0000
MMMM
0000
,
1MM1
0000
0000
0000
0001
0000
1000
0100
0000
0001
0000
0010
0000
0001
0000
0100
,
0010
0000
1010
0000
0101
0000
0001
0010
0000
0001
0000
0100
0000
1000
0100
0000
,
2002
0000
3003
0000
0010
0000
0010
1000
0000
0100
0000
0001
0000
0010
0000
0001
,
0100
0000
1000
0000
0010
0000
1000
0100
0000
1000
0000
0010
0000
0001
0010
0000
,
2002
0000
3003
0000
0101
0000
0010
0100
0000
0001
0000
0011
0000
1100
0000
0001
,
0100
0000
0010
0000
1010
0000
0100
0001
0000
1000
0000
1100
0000
0001
0100
0000
,
0220
0000
0330
0000
0001
0000
1000
0001
0000
0011
0000
0001
0000
0100
0000
1000
,
0010
0000
1010
0000
0010
0000
0100
0001
0010
0000
0100
1000
0001
0000
0100
0010
,
1000
0000
1001
0000
0001
0000
0100
0010
0000
0001
0000
0020
0000
0000
0100
0000
,
1030
0000
0100
0000
1000
0000
0010
0002
0000
1000
0000
0100
0003
0000
0100
0000
,
1001
0000
0000
0000
0001
0000
0100
0010
0000
1000
0000
0200
0000
0000
1000
0000
,
0310
0000
0001
0000
0100
0000
0010
0002
0000
0010
0000
0100
0003
0000
1000
0000
,
1010
0000
0000
0000
0010
0000
0010
0100
0001
1000
0100
0010
0001
0000
0001
1000
,
0010
0000
0010
0000
0100
0000
0100
0001
0010
0100
1000
0001
0100
0010
1000
0001
,
0100
0000
0010
0000
1001
0000
0000
1000
0001
0100
0010
1000
0001
0010
0001
0100
,
0010
0000
1000
0000
1100
0000
0100
0010
0000
0010
0000
0001
1000
0000
0010
0000
,
2002
0000
3003
0000
0001
0000
0100
0000
0010
0000
1000
0001
0000
0001
1000
0000
,
0010
0000
0100
0000
0001
0000
0010
0100
0000
0100
0010
0001
0000
0001
0100
0000
,
0010
0000
1000
0001
0100
0000
0100
0001
0000
0000
1000
0010
0100
0000
0100
0010
,
0000
0000
0010
1000
0001
0000
0100
0000
1000
0000
0100
0000
0001
0000
1000
0000
,
1001
0000
1001
0000
0001
0000
0100
0010
0000
1000
0000
0100
0000
0010
0001
0000
,
0011
0000
0100
0000
1010
0000
0100
0001
0000
1000
0000
0010
0000
0100
0000
1000
,
0100
0010
0001
0000
0001
1000
0001
0100
0001
1000
0010
1000
0001
0010
0100
1000
,
0010
0100
0001
1000
0400
0040
0000
0000
0000
0000
0000
0000
0330
0000
MMMM
0000
,
M11M
0000
0000
0000
0001
0000
0010
0001
0000
0100
0000
1000
0000
0100
0000
0001
,
1000
0000
0010
0000
1010
0000
0010
0100
0000
0001
0000
1000
0000
0100
1000
0000
,
2002
0000
3003
0000
0001
0000
0010
0001
0000
0100
0000
0010
0000
0001
0000
1000
,
0100
0000
1000
0000
1010
0000
0010
1000
0000
1000
0000
0001
0000
0100
0010
0000
,
2002
0000
3003
0000
0011
0000
0001
0100
0000
1000
0000
1100
0000
0011
0000
0001
,
0100
0000
0010
0000
1001
0000
0001
1000
0000
0100
0000
1100
0000
0100
0010
0000
,
0022
0000
0033
0000
0001
0000
0100
0001
0000
0010
0000
1100
0000
0011
0000
0001
,
0100
0000
0010
0000
1000
0000
0001
0010
0001
0000
1000
0010
1000
0000
0010
0100
,
0001
0000
0101
0000
0001
0000
1000
0010
0000
0200
0000
1000
0000
0010
0000
0301
,
0010
0000
0000
0000
0000
0000
0001
0000
0000
0000
0000
0000
0101
0000
0000
0000
0000
0000
0001
0000
0000
0020
0000
0000
0000
0000
0000
0001
0000
0000
0000
0000
0000
0100
0000
0000
0000
0000
0030
1000
0000
0000
0010
0000
0000
0000
0000
0000
,
1010
0000
0000
0000
0010
0000
0100
0001
0000
1000
0000
0100
0000
0010
0000
0001
,
0100
0000
0010
0000
1001
0000
0001
0100
0001
0000
0010
0001
0010
0000
0001
0000
,
0100
0010
0100
0001
0010
0000
0011
0000
0001
0100
0010
1000
0100
0000
1100
0000
,
0100
1000
0010
0100
0001
0000
0001
1000
0000
0010
0000
0200
0000
0000
0001
0000
,
0310
1000
0010
1000
0010
0000
0010
1000
0001
1000
0001
1000
0001
0000
0001
0000
,
0100
0000
0010
0100
0001
0000
1000
0100
0010
0000
0001
0100
0001
1000
0010
0100
,
0001
1001
M11M
0000
1MM1
0000
M11M
0000
,
1MM1
0000
0000
0000
0001
0000
1000
0010
0000
0100
0000
1000
0000
0100
0001
0000
,
0022
0000
0033
0000
0011
0000
0001
0100
0000
0110
0000
1010
0000
0010
0000
0100
,
0001
0000
1001
0000
0001
0000
0100
0010
0100
0000
0001
0010
0001
0000
1000
0100
,
1000
0000
2020
0000
0000
3030
0000
0000
0000
0000
0000
0000
0000
0000
0000
0000
;
