#TITLE:Brought The Heat Back;
#SUBTITLE:;
#ARTIST:Enhypen;
#TITLETRANSLIT:;
#SUBTITLETRANSLIT:;
#ARTISTTRANSLIT:;
#GENRE:;
#CREDIT:;
#MUSIC:Brought The Heat Back.ogg;
#BANNER:Brought The Heat Back.png;
#BACKGROUND:Brought The Heat Back-BG.png;
#CDTITLE:;
#SAMPLESTART:92.743;
#SAMPLELENGTH:19.488;
#SELECTABLE:YES;
#OFFSET:0.146;
#BPMS:0.000=122.000
,169.000=61.000
,169.250=183.000
,170.000=122.000
;
#STOPS:;
#BGCHANGES:;
#FGCHANGES:;

//--------------- dance-single - Alex ----------------
#NOTES:
     dance-single:
     Alex:
     Beginner:
     1:
     0,0,0,0,0:
0000
0000
0000
0000
,
0000
0000
0000
0000
,
0000
0000
0000
0000
,
0000
0000
0000
0000
,
0000
0010
0000
0000
,
0000
0010
0000
0000
,
0000
0001
0000
0000
,
0000
0100
0000
0000
,
0000
0001
0000
0000
,
0000
1000
0000
0000
,
0000
1000
0000
0000
,
0000
0010
0000
0000
,
0000
0100
0000
0000
,
0000
0100
0000
0000
,
0000
0001
0000
0000
,
0000
1000
0000
0000
,
0000
1001
0000
0000
,
0000
0010
0000
0000
,
0000
0100
0000
0000
,
0000
0010
0000
0000
,
0000
0010
0000
0000
,
0000
1000
0000
0000
,
0000
0001
0000
0000
,
0000
1000
0000
1000
,
0000
2000
3000
0000
,
0000
0000
0000
0000
,
0000
1001
0000
0000
,
0000
0010
0000
0000
,
0000
0100
0000
0000
,
0000
0001
0000
0000
,
0000
0100
0000
0000
,
0000
0010
0000
0000
,
0000
0010
0000
0000
,
0000
1000
0000
0000
,
0000
1000
0000
0000
,
0000
0001
0000
0000
,
0000
0001
0000
0000
,
0000
1000
0000
0000
,
0000
1001
0000
0000
,
0000
0010
0000
0000
,
0000
0010
0000
0000
,
0000
0100
0000
0000
,
0000
0001
0000
0000
,
0000
0001
0000
0000
,
0000
1000
0000
0000
,
0000
1000
0000
0000
,
0000
0020
0030
0000
,
0000
0000
0000
0000
,
0000
0110
0000
0000
,
0000
0010
0000
0000
,
0000
0010
0000
0000
,
0000
1000
0000
0000
,
0000
0001
0000
0000
,
0000
0001
0000
0000
,
0000
0100
0000
0000
,
0000
0100
0000
0000
,
0000
1001
0000
0000
,
0000
0001
0000
0001
,
0000
0001
0000
0000
,
0000
1000
0000
1000
,
0000
1000
0000
0000
,
0000
0010
0000
0010
,
0000
0010
0000
0000
,
0000
0100
0000
0100
,
0000
1001
0000
0000
;

//--------------- dance-single - Alex ----------------
#NOTES:
     dance-single:
     Alex:
     Easy:
     4:
     0,0,0,0,0:
0000
0000
0000
0000
,
0000
0000
0000
0000
,
0000
0000
0000
0000
,
0000
0000
0000
0000
,
0000
1000
0000
0001
,
0000
1000
0001
1000
,
0001
1000
0000
0010
,
0000
0100
0010
0100
,
0010
0100
0000
0001
,
0000
1000
0000
0010
,
0000
1000
0010
1000
,
0000
0001
0100
0001
,
0000
1001
0000
1001
,
0000
0001
1000
0001
,
1000
1001
0000
1001
,
0000
0001
0100
0001
,
0100
0002
0000
0003
,
0000
1000
0000
0010
,
0000
0100
0100
0100
,
0000
0001
0000
0010
,
0000
0001
0001
0001
,
0000
1000
0000
1000
,
0000
0010
0010
0010
,
0000
0100
0100
0010
,
0010
1001
0000
0000
,
0000
0001
1000
0001
,
1000
0001
0000
1000
,
0000
0001
0001
1000
,
1000
0010
0000
0100
,
0000
0001
0001
0100
,
0100
0010
0000
1000
,
0000
0001
0000
1000
,
0000
0100
0100
1000
,
0000
0001
0001
0010
,
0010
1001
0000
1001
,
0000
0001
1000
0001
,
1000
1001
0000
1001
,
0000
0010
0100
0010
,
0100
0220
0000
0330
,
0000
0010
0000
0010
,
0000
1000
0000
0001
,
0000
1000
0000
0100
,
0000
1000
0000
0001
,
0000
1000
0000
0010
,
0000
0100
0000
1001
,
0000
0010
0000
1001
,
0000
0110
0000
0000
,
0000
0010
0010
0100
,
0100
0010
0000
0010
,
0000
0001
0001
1000
,
1000
0010
0000
0010
,
0000
1000
1000
0100
,
0100
1000
0000
0001
,
0000
1000
0000
0010
,
0000
0100
0000
0001
,
0000
1000
0001
1000
,
0001
1000
0000
1001
,
0000
0001
0001
0100
,
0100
0010
0000
0110
,
0000
0010
0010
1000
,
1000
0100
0000
1100
,
0000
1000
1000
0001
,
0001
0100
0000
0101
,
0000
0100
0100
0001
,
0001
1001
0000
0000
;

//--------------- dance-single - Alex ----------------
#NOTES:
     dance-single:
     Alex:
     Medium:
     6:
     0,0,0,0,0:
0000
0000
0000
0000
,
0000
0000
0000
0000
,
0000
0000
0000
0000
,
0000
0000
0000
1000
,
0001
1000
0001
0000
0100
0010
0100
0000
,
0100
0001
0010
0100
,
1000
0010
1000
0000
0001
0010
0001
0000
,
0100
0001
1000
0100
,
0010
0001
0100
0000
0010
1000
0100
0000
,
1000
0001
1000
0000
0001
0000
0100
0000
,
0010
0000
0100
0000
0001
0010
0001
0000
,
0100
0010
0100
0000
0001
0000
1000
0000
,
0001
0000
1001
0000
0001
1000
0200
0000
,
1300
0010
0010
1000
,
0001
0010
0001
0000
1000
0010
2000
0000
,
3001
0100
0010
0100
,
0001
0000
0010
0000
0100
1000
0002
0000
,
0003
0100
0100
0001
,
1000
0000
0010
0000
1000
0001
0200
0000
,
0300
0001
0010
0100
,
0010
0000
0001
0000
0100
0010
0200
0000
,
0300
0010
0010
1000
,
0001
0000
1000
0000
0010
0100
0020
0000
,
0030
0000
0100
0001
0100
0001
0100
0001
,
0100
0001
0100
0000
0000
0000
M00M
0000
,
0000
0000
0001
1000
0001
1000
0001
0000
,
1000
0010
1000
0000
0001
0100
0001
0000
,
0001
1000
0100
0010
,
0001
0100
0010
0000
0100
0001
1000
0000
,
0001
1000
1000
0010
,
0010
1000
0010
0000
0100
0001
0100
0000
,
0001
0010
0001
0000
1000
0000
0010
0000
,
0100
0000
0001
0000
1000
0100
1000
0000
,
0001
0010
0001
0000
0100
0000
0010
0000
,
0100
0000
1001
0000
0001
1000
0020
0000
,
0130
0001
0010
0100
,
1000
0000
0001
0000
1000
0100
2000
0000
,
3001
0100
0010
0100
,
0001
0000
1001
0000
1000
0001
2000
0000
,
3000
0001
0100
0010
,
0100
0000
0001
0000
0010
0100
2000
0000
,
3000
0001
1000
0010
,
1000
0000
0001
0000
1000
0010
2000
0000
,
3000
0001
0010
0100
,
0010
0001
0001
1000
,
1000
0010
0010
0100
,
0001
1000
0000
M00M
,
0000
0000
0001
1000
0001
1000
0001
0000
,
1000
0001
1000
0000
0001
0100
0001
0000
,
0001
0100
0010
1000
,
0100
1000
0010
0000
0100
0001
0010
0000
,
0001
1000
1000
0010
,
0010
0100
0010
0000
0100
0001
0100
0000
,
0001
0010
0100
1000
,
0001
0000
1000
0000
0010
1000
0010
0000
,
1000
0001
1000
0000
0001
0000
0100
0000
,
0010
0000
0110
0000
0010
1000
0002
0000
,
1003
1000
0001
0010
,
0100
0000
0010
0000
0001
0100
0020
0000
,
0130
0001
1000
0100
,
1000
0000
0001
0000
1000
0010
2000
0000
,
3001
0100
0100
0001
,
0010
0000
0001
0000
0100
0010
0200
0000
,
0301
0010
0100
1000
,
0001
0000
0100
0000
0010
1000
0002
0000
,
0003
0000
0000
0000
;

//--------------- dance-single - Alex ----------------
#NOTES:
     dance-single:
     Alex:
     Hard:
     8:
     0,0,0,0,0:
0000
0000
0000
0000
,
0000
0000
0000
0000
,
0000
0000
0000
0000
,
0000
0000
0000
0000
0000
0000
2MM2
3003
,
0001
1000
0010
0000
0100
0001
1000
0000
,
1100
0000
0100
1000
0010
0100
0010
1000
,
0001
0010
0001
0000
0100
0010
0100
0000
,
1001
0000
0001
0010
0100
1000
0001
0100
,
0010
1000
0100
0100
1000
1000
0010
0010
,
0100
0000
0100
0000
0001
0000
0010
0000
0100
0000
1000
0002
0000
0003
0100
0000
,
0100
0010
1000
0001
0010
0001
0100
0010
,
0100
0000
0001
0000
0010
0000
0100
0000
1000
0000
0001
2000
0000
3000
0010
0000
,
0100
0001
0100
0000
0010
1000
0100
0000
,
1100
0000
0000
0000
0100
0000
1000
0000
0010
0000
1000
0020
0000
0030
1000
0000
,
1000
0001
0001
0000
0100
0010
0100
0000
,
1001
0000
0000
0000
0001
0000
0010
0000
0100
0000
0010
0002
0000
0003
0100
0000
,
0010
0100
0110
0000
M000
000M
0M00
0000
,
0000
0000
0001
0010
0100
1000
0001
0100
,
0010
1000
0100
0010
0001
0100
0020
0000
,
0030
0000
0100
0100
0001
0001
1000
1000
,
0001
0010
0100
1000
0001
0100
0020
0000
,
0030
0000
0100
0001
0010
0001
1000
0010
,
1000
0001
0100
0001
1000
0100
0020
0000
,
0030
0000
0000
0001
0100
0001
0100
0000
0010
0000
0100
0000
0001
0000
0010
0000
,
0100
1000
1001
0000
M000
0000
000M
0000
,
0M00
0000
0000
0000
0010
0100
0010
0000
0100
0000
0001
0000
1000
0000
0000
0000
,
0001
0010
0001
0000
0100
0010
1000
0000
,
1100
0000
0100
1000
0010
1000
0001
0010
,
0001
0000
0100
0000
0010
0000
0000
0000
0100
0000
0001
1000
0001
0000
0000
0000
,
1001
0000
0001
1000
0010
1000
0001
0010
,
0100
1000
0001
1000
1001
0001
0100
0010
,
0110
0000
0100
0000
0001
0000
0010
0000
0100
0000
1000
0200
0000
0300
1000
0000
,
0010
1000
0001
0010
0011
0001
0100
0010
,
0110
0000
0010
0000
0100
0000
0001
0000
1000
0000
0100
0020
0000
0030
0001
0000
,
0100
0001
1000
0000
0010
1000
0100
0000
,
1100
0000
0000
0000
1000
0000
0010
0000
1000
0000
0001
0200
0000
0300
0001
0000
,
0010
0100
1000
0000
0001
0100
0010
0000
,
0110
0000
0000
0000
0010
0000
1000
0000
0001
0000
0001
0020
0000
0030
0001
0000
,
0100
0010
0110
0000
000M
M000
0M00
0000
,
0000
0000
0001
1000
0010
1000
0001
0010
,
0100
1000
0001
0100
0010
1000
0200
0000
,
0300
0000
1000
1000
0001
0010
0001
0100
,
0010
0010
0100
M00M
0001
1000
0010
0000
,
1001
0000
0001
1000
0010
1000
0001
0010
,
0100
0000
1000
0000
0001
0000
0000
1000
0000
0010
0100
0000
0001
0000
0000
1000
,
0000
0100
0010
0000
0001
0000
0000
0100
0000
0001
0100
0000
0010
0000
0100
0000
,
0001
1000
0010
0000
M000
0000
000M
0000
,
0M00
0000
0000
0000
0010
0100
0010
0000
0100
0000
0001
0000
1000
0000
0010
0000
,
0100
0001
1000
0000
0001
1000
0001
0000
,
1001
0000
0001
1000
0010
1000
0001
0010
,
0100
0000
1000
0000
0001
0000
0000
0000
0100
0000
0010
0100
0010
0000
0000
0000
,
0110
0000
0100
0001
0010
0100
1000
0001
,
0100
0010
1000
0010
1010
0010
1000
0001
,
1001
0000
0001
0000
1000
0000
0010
0000
0100
0000
0100
0020
0000
0030
0100
0000
,
0001
0010
0100
1000
1001
0001
0100
0010
,
0110
0000
0100
0000
0001
0000
0010
0000
0100
0000
1000
0002
0000
0003
0100
0000
,
0010
0100
0001
0000
1000
0100
1000
0000
,
1100
0000
0000
0000
1000
0000
0001
0000
0010
0000
0001
0020
0000
0030
0001
0000
,
0100
0010
0100
0000
0001
0010
0100
0000
,
1001
0000
0000
0000
0001
0000
1000
0000
0010
0000
0100
0002
0000
0003
0100
0000
,
0010
0100
0001
0000
1000
0100
1000
0000
,
1010
0000
0000
0000
0010
0000
1000
0000
0001
0000
1000
0020
0000
0030
0100
0000
,
0001
1000
0100
0000
0010
0001
0100
0000
,
0110
0000
0000
0000
0010
0000
0100
0000
0001
0000
0001
0020
0000
0030
0001
0000
,
0100
0010
1001
0000
M000
000M
0M00
0000
;
