#TITLE:Boy With Luv;
#SUBTITLE:feat. Halsey;
#ARTIST:BTS;
#TITLETRANSLIT:;
#SUBTITLETRANSLIT:;
#ARTISTTRANSLIT:;
#GENRE:;
#CREDIT:;
#MUSIC:Boy With Luv.ogg;
#BANNER:Boy With Luv.png;
#BACKGROUND:Boy With Luv-BG.png;
#CDTITLE:;
#SAMPLESTART:55.129;
#SAMPLELENGTH:17.938;
#SELECTABLE:YES;
#OFFSET:0.121;
#BPMS:0.000=120.000;
#STOPS:;
#BGCHANGES:3.000=Boy With Luv.avi=1.000=1=0=0=StretchNoLoop==CrossFade==,
99999.000=-nosongbg-=1.000=0=0=0=StretchNoLoop====
;
#FGCHANGES:;

//--------------- dance-single - Alex ----------------
#NOTES:
     dance-single:
     Alex:
     Beginner:
     1:
     0.083742,0.147443,0.071487,0.05719,0,82,72,10,8,0,0,0.083742,0.147443,0.071487,0.05719,0,82,72,10,8,0,0:
0000
0000
0000
0000
,
0000
0000
0000
0000
,
0000
0000
0000
0000
,
0000
0000
0000
0000
,
0000
0000
0000
0100
,
0000
0000
0000
0010
,
0000
0000
0000
1000
,
0000
0000
0000
0001
,
0000
0000
0000
1000
,
0000
0000
0000
0010
,
0000
0000
0000
1000
,
0000
0000
0000
0100
,
0000
0000
0000
1000
,
0000
0000
0000
0001
,
0000
0000
0000
0100
,
0000
0000
0000
0001
,
0000
0000
0000
1000
,
0000
0000
0000
0010
,
0000
0000
0000
0010
,
0000
0000
0000
1000
,
0000
0000
0000
1001
,
0000
0000
0000
1001
,
0000
0000
0000
2002
,
0000
0000
0000
3003
,
0000
0000
0000
0110
,
0000
0000
0000
0110
,
0000
0000
0000
0220
,
0000
0000
0000
0330
,
0000
0000
0000
1001
,
0000
0000
0000
0010
,
0000
0000
0000
1000
,
0000
0000
0000
0001
,
0000
0000
0000
0100
,
0000
0000
0000
0001
,
0000
0000
0000
1000
,
0000
0000
0000
0010
,
0000
0000
0000
1010
,
0000
0000
0000
1000
,
0000
0010
0000
1000
,
0000
0000
0000
0001
,
0000
0100
0000
0001
,
0000
0000
0000
1000
,
0000
0001
0000
1000
,
0000
0000
0000
0010
,
0000
0100
0000
0020
,
0000
0030
0000
0200
,
0000
0300
0000
0002
,
0000
0003
0000
2000
,
0000
3000
0000
0001
,
0000
0001
0000
1000
,
0000
1000
0000
0010
,
0000
0010
0000
0100
,
0000
0100
0000
1001
,
0000
0000
0000
0001
,
0000
0000
0000
1000
,
0000
0000
0000
0010
,
0000
0000
0000
0100
,
0000
0000
0000
0010
,
0000
0000
0000
1000
,
0000
0000
0000
1000
,
0000
0001
0000
1000
,
0000
0000
0000
0010
,
0000
0000
0000
0100
,
0000
0000
0000
0010
,
0000
0000
0000
0100
,
0000
0000
0000
0001
,
0000
0000
0000
1000
,
0000
0000
0000
0001
,
0000
0000
0000
1001
;

//--------------- dance-single - Alex ----------------
#NOTES:
     dance-single:
     Alex:
     Easy:
     3:
     0.180761,0.270311,0.185867,0.164421,0,177,151,26,23,0,0,0.180761,0.270311,0.185867,0.164421,0,177,151,26,23,0,0:
0000
0000
0000
0000
,
0000
0000
0000
0000
,
0000
0000
0000
0000
,
0000
0000
0000
0000
,
0000
0000
0000
0010
,
0100
0010
0100
0020
,
0000
0030
0000
1001
,
0000
0010
0000
1001
,
0000
1001
0000
0100
,
0010
0100
0010
0200
,
0000
0300
0000
0011
,
0000
0010
0000
0011
,
0000
0011
0000
0001
,
0100
0001
0000
1000
,
0010
1000
0000
0001
,
0000
1000
0000
0020
,
0000
0030
0000
0100
,
0010
0100
0000
0001
,
0100
0001
0000
2000
,
0000
3000
0000
0000
,
1001
1001
1001
0010
,
0010
0010
0000
0100
,
0100
0100
0000
0002
,
0000
1003
0000
2000
,
0000
3010
0000
0010
,
0010
0010
0000
0100
,
0100
0100
0000
0002
,
0000
0013
0000
1000
,
1000
0001
0001
1001
,
0000
0001
0001
0000
,
0100
0100
0000
0010
,
0000
1000
0000
0001
,
0000
1000
1000
1001
,
0000
0010
0010
0000
,
1000
1000
0000
0001
,
0000
0010
0000
0001
,
0000
0100
0100
0220
,
0000
0330
0000
0010
,
0100
0010
0000
2002
,
0000
3003
0000
0001
,
1000
0001
0000
2200
,
0000
3300
0000
0010
,
0001
0010
0000
0022
,
0000
0033
0000
0001
,
0100
0001
0001
1001
,
0000
0000
0000
0010
,
0000
0100
0000
0010
,
0000
0010
0000
1000
,
0000
0001
0000
1000
,
0000
1001
0000
0010
,
0000
0110
0000
1000
,
0000
0101
0000
0010
,
0010
0010
0010
1001
,
0000
0001
0001
0000
,
1000
1000
0000
0010
,
0000
1000
0000
0001
,
0000
0100
0010
0110
,
0000
0100
0100
0000
,
0001
0001
0000
1000
,
0000
0001
0000
1000
,
0000
0010
0100
0220
,
0000
0330
0000
0001
,
1000
0001
0000
2002
,
0000
3003
0000
1000
,
0010
1000
0000
2020
,
0000
3030
0000
0010
,
0100
0010
0000
2002
,
0000
3003
0000
0001
,
1000
0001
1000
1001
;

//--------------- dance-single - Alex ----------------
#NOTES:
     dance-single:
     Alex:
     Medium:
     5:
     0.29514,0.39461,0.164421,0.142975,0.05719,289,266,23,20,0,0,0.29514,0.39461,0.164421,0.142975,0.05719,289,266,23,20,0,0:
0000
0000
0000
0000
,
0000
0000
0000
0000
,
0000
0000
0000
0000
,
0000
0000
0000
0000
,
0000
0000
0000
1000
,
0010
1000
0001
0200
,
0000
0300
0000
0000
0000
0000
0110
0000
,
0000
0010
1000
0010
1000
0001
1000
0001
,
0100
0001
0200
0000
0300
0000
0001
0000
,
0010
0100
0010
0002
,
0000
0003
0000
0000
0000
0000
1001
0000
,
0000
0001
1000
0001
1000
0010
1000
0010
,
1000
0010
2000
0000
3000
0000
0001
0000
,
0100
0010
0010
0100
,
0001
0000
0010
0000
0100
1000
0001
0200
,
0000
0000
0000
0300
0000
0000
0000
0000
,
0000
0000
0000
0001
,
1000
0010
0010
1000
,
0100
0000
0010
0000
0001
0100
0010
2000
,
0000
0000
0000
3000
0000
0000
0001
0100
,
0001
0100
0001
1000
0001
0000
1001
0000
,
0110
0000
1001
0000
0001
0100
0010
0000
,
1010
0000
0101
0000
0001
1000
0100
0020
,
0000
0000
0000
0030
0000
0000
0000
0000
,
0000
0000
0000
0011
,
0101
0000
0110
0000
0010
1000
0100
0000
,
1100
0000
0110
0000
0001
1000
0010
0200
,
0000
0000
0300
0000
0000
0010
0100
0000
,
0001
0000
0010
0001
0100
0001
0200
0000
,
0310
0000
0010
1000
0010
0000
1000
0000
,
0001
1000
0001
0000
1000
0000
0010
0000
,
0100
0100
0001
0010
,
0100
1000
1010
0020
,
1030
0000
1000
0001
1000
0000
0001
0000
,
0100
0001
0100
0000
0010
0000
1000
0000
,
1000
0001
0001
0010
,
0100
0000
0000
0000
1000
0000
0000
0000
0010
0000
0000
0000
0100
0000
0000
0100
,
0000
0000
0100
0000
0000
0200
0000
0000
0000
0000
0000
0000
0310
0000
0100
0000
,
0010
0000
0000
0000
1001
0000
0000
0000
0000
0000
0000
0000
0001
0000
0000
0001
,
0000
0000
0001
0000
0000
0002
0000
0000
0000
0000
0003
0000
0001
0000
0000
0000
,
1000
0000
0000
0000
0010
0000
0000
0000
1010
0000
0000
0000
1000
0000
0000
1000
,
0000
0000
1000
0000
0000
2000
0000
0000
0000
0000
3000
0000
0001
0000
1000
0000
,
0001
0000
0000
0000
1001
0000
0000
0000
0000
0000
0000
0000
0010
0000
0000
0010
,
0000
0000
0010
0000
0000
0020
0000
0000
0000
0030
0000
0000
0100
0000
0010
0000
,
0100
0000
0001
1000
0001
0000
1001
0000
,
0000
0001
0100
1000
,
0100
0001
1000
0010
,
0001
0010
1000
0001
,
0010
0001
0100
0110
,
0010
0010
1000
0001
,
1000
0100
0010
0100
,
1000
0010
0100
0100
,
0001
0000
1000
0001
1000
0001
1000
0000
,
0001
0100
0001
0000
1000
0000
0010
0000
,
1000
0010
1000
0000
0010
0000
0100
0000
,
0001
0010
0100
0010
,
0001
0100
0101
0001
,
1000
0010
1000
0000
0001
0000
1000
0000
,
0100
0010
0001
0000
0100
0000
0010
0000
,
0010
1000
0001
0010
,
0001
0000
0000
0000
0100
0000
0000
0000
0100
0000
0000
0000
0010
0000
0000
0010
,
0000
0000
0010
0000
0000
0020
0000
0000
0000
0030
0000
0000
0100
0000
0010
0000
,
0100
0000
0000
0000
1001
0000
0000
0000
0000
0000
0000
0000
1000
0000
0000
1000
,
0000
0000
1000
0000
0000
2000
0000
0000
0000
3000
0000
0000
0001
0000
1000
0000
,
0001
0000
0000
0000
1001
0000
0000
0000
0000
0000
0000
0000
0010
0000
0000
0010
,
0000
0000
0010
0000
0000
0020
0000
0000
0000
0000
0030
0000
0100
0000
0010
0000
,
0100
0000
0000
0000
0110
0000
0000
0000
0000
0000
0000
0000
0100
0000
0000
0100
,
0000
0000
0100
0000
0000
0200
0000
0000
0000
0300
0000
0000
0010
0000
0100
0000
,
0010
0000
1000
0001
1000
0000
2002
0000
,
3003
0000
0000
0000
;

//--------------- dance-single - Alex ----------------
#NOTES:
     dance-single:
     Alex:
     Hard:
     8:
     0.41769,0.468599,0.078636,0.207313,0.221611,409,398,11,29,0,0,0.41769,0.468599,0.078636,0.207313,0.221611,409,398,11,29,0,0:
0000
0000
0000
0000
,
0000
0000
0000
0000
,
0000
0000
0000
0000
,
0000
0000
0000
0000
,
0000
0000
0000
0000
0000
0000
0000
0000
0000
0001
1000
0001
,
1000
0000
0001
0000
1000
0000
0001
0000
0000
1000
0000
0000
0020
0000
0000
0000
0000
0000
0000
0000
0000
0000
0000
0000
,
0030
0000
0000
0000
0001
1000
0020
0000
,
0030
0100
0001
0100
0001
0010
0100
1000
,
0001
0000
0000
1000
0000
0000
0020
0000
0000
0000
0000
0000
0030
0000
0000
0000
0000
0000
1000
0000
0100
0000
1000
0000
,
0100
0000
1000
0000
0100
0000
1000
0000
0100
0000
1000
0000
0001
0000
0000
1000
0000
0000
0002
0000
0000
0000
0000
0000
,
0000
0000
0003
0000
1000
0010
0200
0000
,
0300
0001
1000
0100
0010
0100
1000
0001
,
0100
0010
2000
0000
3000
0000
0001
0100
,
0001
0000
0010
0000
0002
0000
0000
0103
0000
0000
0100
0000
0010
0000
1000
0000
,
0100
0000
0010
0001
0000
0000
0100
0000
0010
0000
0100
0002
0000
0000
1003
0000
,
0000
0010
0000
1010
0000
0101
0000
0001
,
1000
0100
0000
1000
0001
0100
0010
0100
,
0010
0000
1000
0000
0100
0000
0100
2000
0000
0000
3001
0000
0000
0000
0100
0000
,
0001
0000
0100
0020
0000
0000
0130
0000
0001
0000
0010
0002
0000
0000
1003
0000
,
0000
0010
0000
1100
0000
0011
0000
0001
,
0100
0000
0010
0000
0100
0000
0001
0000
1000
0000
0000
0000
0001
1000
0000
0000
,
0010
0100
0000
0000
0001
1000
0000
0000
0100
0000
0000
0000
0010
0001
0000
0000
,
0100
0010
0000
0000
0100
0001
0000
0000
0001
0000
1000
0010
0000
0010
2000
0000
,
0000
0000
0000
0000
0000
0000
0000
0000
0000
3000
0000
0000
0000
0000
0000
0000
0000
0000
0001
0000
1000
0000
0001
0000
,
1000
0000
0000
0000
0001
0000
0000
0000
1000
0000
0000
0000
0001
0000
0000
0000
1000
0000
0000
0000
0001
0000
0000
0000
1000
0000
0000
0000
0000
0000
0000
0000
0000
0000
0000
0000
0010
0000
0000
0100
0000
0000
0000
0000
0000
0000
0000
0000
,
0001
1000
0000
0000
0100
0010
0000
0000
0001
0000
0000
0100
0001
0000
0000
0000
,
0001
0100
0000
0000
0100
0010
0000
0000
0010
0000
1000
0000
0200
0000
0000
0000
,
0000
0000
0000
0300
0000
0010
0001
0100
,
0010
1000
0001
0010
0100
1000
1001
0000
,
0000
0001
0100
0010
0010
0010
0000
1000
,
0100
0010
0001
0200
0000
0310
0010
0000
,
1000
0000
0001
0010
0001
0100
0010
0100
,
0001
0000
1000
0000
0100
0000
0000
0100
0000
0000
1000
0000
0002
0000
0000
0000
,
0003
1000
0010
0010
0100
0100
0000
0001
,
0010
0001
0100
0100
0000
0010
0010
0000
,
1000
0000
0000
0000
0001
0000
0010
0000
0001
0000
0100
0000
0010
0000
0000
0010
,
0000
0000
1000
0000
0001
0000
0000
0000
0100
0000
0001
0000
1000
0000
0000
1000
,
0000
0000
0010
0000
0000
0010
0000
0000
0200
0000
0000
0000
0301
0000
0010
0000
,
0100
0000
1000
0000
2002
0000
0000
0000
3003
0000
0000
0000
0001
0000
0000
1000
,
0000
0000
0001
0000
0000
0100
0000
0000
0010
0000
0100
0000
0100
0000
0000
0010
,
0000
0000
1000
0010
1000
0000
0001
0000
0100
0000
0010
0000
1000
0000
0000
0001
,
0000
0000
1000
0000
0000
0010
0000
0000
0100
0000
0000
0000
0001
0000
0010
0000
,
0100
0000
1000
0000
2020
0000
0000
0000
3030
0000
0000
0000
0010
0000
0000
0010
,
0000
0000
1000
0000
0000
1000
0000
0000
0001
0000
1000
0000
0001
0000
0100
0000
,
0001
1000
0010
0100
0001
1000
1100
0000
,
0000
0000
0010
0000
0001
0000
0100
0010
,
0100
0000
0001
0000
0010
0000
0001
0200
0000
0000
0000
0000
0300
0000
0010
0000
,
1000
0100
1000
0010
1000
0001
1000
0010
,
0100
0000
0001
0000
0010
0000
0100
2000
0000
0000
0000
0000
3001
0000
0100
0000
,
0010
0100
0001
1000
0010
0000
0100
0001
,
0010
0100
1000
0001
0100
0000
0001
1000
,
0010
1000
0001
0010
0001
0100
0010
1000
,
0100
0010
0001
0100
0010
1000
1001
0000
,
0000
0001
1000
0010
0100
0010
0000
1000
,
0100
0010
0001
0200
0000
0310
0010
0000
,
1000
0000
0001
0100
0001
1000
0010
0000
,
0010
0000
1000
0000
0100
0000
0000
0100
0000
0000
0010
0000
0002
0000
0000
0000
,
0003
0100
0001
1000
1000
0001
0000
1000
,
0010
0010
1000
0002
0000
0103
0100
0000
,
0010
0000
0000
0000
1000
0000
0100
0000
0010
0000
0001
0000
1000
0000
0000
0010
,
0000
0000
1000
0000
0001
0000
0000
0000
0100
0000
0010
0000
0100
0000
0000
0100
,
0000
0000
0001
0000
0000
0001
0000
0000
2000
0000
0000
0000
3010
0000
0100
0000
,
0001
0000
0000
0000
1001
0000
0000
0000
0000
0000
0000
0000
0001
0000
0000
1000
,
0000
0000
0001
0000
0000
0100
0000
0000
0020
0000
0000
0000
0130
0000
0000
0000
,
0100
0000
0010
1000
0010
0000
0100
0000
0001
0000
1000
0000
0100
0000
0000
1000
,
0000
0000
1000
0000
0000
0010
0000
0000
0200
0000
0000
0000
0310
0000
0100
0000
,
0001
0000
1000
0000
1100
0000
0000
0000
0000
0000
0000
0000
0010
0000
0000
0010
,
0000
0000
0001
0000
0000
0100
0000
0000
0010
0000
1000
0000
0010
0000
0000
0000
,
1000
0000
0001
1000
0001
0000
1000
0000
0010
0000
0100
0000
0002
0000
0000
0000
,
0003
0000
0000
0000
;

//--------------- dance-single - Alex ----------------
#NOTES:
     dance-single:
     Alex:
     Challenge:
     10:
     0.641343,0.642403,0.357436,0.250206,0.536155,628,578,50,35,0,0,0.641343,0.642403,0.357436,0.250206,0.536155,628,578,50,35,0,0:
0000
0000
0000
0000
,
0000
0000
0000
0000
,
0000
0000
0000
0000
,
0000
0000
0000
0000
,
0000
0000
0000
0000
0000
0000
0000
0000
1000
0010
1000
0001
,
1000
0000
0000
0000
0010
0000
0000
0000
0100
0000
0000
0000
0001
0000
0000
0000
0000
0000
0010
0000
0000
0000
0000
0000
0100
0000
0000
0000
0000
0000
1000
0000
0000
0000
0000
0000
1001
0000
0000
0000
0000
0000
0000
0000
0000
0001
0000
0000
,
0100
0000
0010
0000
1000
0000
0100
0000
0010
0000
0001
1000
0010
0000
0100
0000
,
0001
0011
0100
0110
0001
1001
1000
1100
,
0010
0000
0000
0101
0000
0000
0010
0000
0000
1100
0000
0000
0010
0000
0000
0001
0000
0000
1000
0000
0001
0000
0100
0000
,
0001
0000
0000
0000
1000
0000
0000
0000
0010
0000
0000
0000
0100
0000
0000
0000
0000
0000
0001
0000
0000
0000
0000
0000
1000
0000
0000
0000
0000
0000
0100
0000
0000
0000
0000
0000
0010
0000
0000
0000
0000
0000
0000
0000
0000
0001
0000
0000
,
0100
0000
0010
0000
0100
0000
0001
0000
0010
0000
0001
0100
0001
0000
1000
0000
,
0010
1010
0100
0101
0001
1001
1000
1010
,
0001
0101
0010
0100
0001
0010
0110
0100
,
0010
0001
0000
0001
0100
0000
0010
1000
0000
0000
0001
0000
0100
0000
1000
0000
,
0100
0000
0001
0200
0000
0300
0010
0000
1000
0000
0001
1000
0000
1000
0020
0000
,
0030
0100
0001
1000
0100
0010
0001
0100
,
0010
0100
0001
0010
0001
1000
1000
0010
,
1000
0001
0000
0001
1000
0000
0010
0200
0000
0300
0001
0000
0010
0000
0001
0000
,
0100
0000
0010
0100
0000
0000
0001
0000
1000
0000
0010
1000
0000
1000
0002
0000
,
0000
0003
0100
0000
1000
0000
0100
0000
0010
0000
0001
0000
0100
0000
0010
0000
,
0100
0000
0001
0000
1000
0000
0010
0000
1010
0000
0000
0000
0010
1000
0020
0030
,
0100
0001
0200
0300
0001
0010
0002
0003
2000
3000
0020
0030
1000
0100
0020
0030
,
0001
1000
0020
0030
0100
0001
2000
3000
0100
0000
0010
0001
0000
0001
0200
0000
,
0000
0010
0000
0010
0000
0001
0000
1000
,
0000
0000
0010
0000
0000
0000
0310
0000
0000
0000
0001
0000
1000
0010
2000
3000
,
0001
0100
0020
0030
1000
0100
0020
0030
0001
0000
0100
0000
1000
0010
0200
0300
,
0001
0010
0002
0003
0100
0010
0200
0300
0001
0000
1000
0010
0000
0010
2000
0000
,
0000
0000
0001
0000
0000
0000
0010
0000
0000
0000
3001
0100
0001
0100
0001
0000
,
0100
0010
0100
0000
0001
1000
0001
0000
1000
0000
0010
0000
1020
0000
0000
0130
,
0001
1000
1100
1000
1001
0010
0100
0011
,
1100
0000
0110
0000
1001
0000
0001
0000
0100
0000
0010
1000
0100
0000
0010
0000
,
0001
0000
0000
0100
0001
0000
0100
0000
0010
0000
1000
0010
1000
0000
0010
1000
,
0000
1000
0001
0100
0001
0000
0010
0000
0100
0000
1000
0000
1010
0000
0010
0000
,
0100
0101
0010
1100
0010
0001
0100
0101
,
0110
0000
0011
0000
0101
0000
0001
0000
0010
0000
0100
1000
0001
0000
0100
0000
,
0010
0000
0000
0010
1000
0000
0001
0000
0100
0000
0010
0100
0010
0000
1000
0100
,
0000
0000
0100
1000
0010
0000
0000
0000
0110
0000
1001
0000
0001
1000
0000
1000
,
0010
0000
0010
0100
0000
0100
0001
0000
0020
0030
0200
0300
1000
0000
0010
1000
,
0000
1000
0001
0000
0001
0200
0000
0000
0300
0000
0000
0000
0010
0100
0000
0100
,
0001
0000
0001
0010
0000
0010
0001
0000
1000
0000
0010
1000
0010
0100
0000
0001
,
0100
0000
0010
1000
0100
0000
0010
0000
0001
0000
0100
0000
0010
0100
0000
0100
,
0001
0000
0001
1000
0000
1000
0100
0000
0010
0000
0001
0000
0100
0000
0010
0100
,
0000
0100
0001
0000
0001
2000
0000
0000
0000
3000
0000
0000
0001
0010
0000
0010
,
0001
0000
0001
1000
0000
1000
0100
0000
0010
0000
0001
1000
0010
0100
0000
0001
,
0000
0000
1000
0100
0010
0000
0001
0000
0100
0000
0110
0000
1001
0000
0001
1000
,
0010
0100
0001
1000
0100
0000
0020
0000
0000
0030
0001
0100
0001
0000
1000
0010
,
0000
0010
1000
0100
1000
0000
0001
0200
0000
0000
0010
0000
0310
0000
1000
0001
,
0010
0001
0100
0010
0100
0001
1000
0100
0010
0000
0001
0000
0100
0000
0010
0100
,
0010
0000
1000
0100
1000
0000
0001
0000
1001
0000
0000
0001
0100
0000
0010
0100
,
0010
0000
1000
0000
0001
0000
1000
0001
1000
0000
0010
0000
1000
0000
0001
0010
,
0001
0000
0100
0000
0010
0000
0100
0010
0100
0000
0001
0000
0010
0000
0001
0100
,
0001
0000
1000
0000
0010
0000
1000
0010
1000
0000
0010
0000
0100
0000
0001
0100
,
0001
0000
1000
0010
1000
0001
1000
0010
1000
0001
0010
0100
2000
0000
0000
0000
,
3010
0100
0101
0001
1001
1000
0100
0110
,
0011
0000
1001
0000
1010
0000
0010
0000
1000
0000
0100
0010
0001
0000
1000
0000
,
0010
0000
0000
1000
0010
0000
0100
0000
0001
0000
1000
0000
0100
0000
0010
0000
,
0001
0000
0100
0001
0100
0000
0001
0000
0010
0000
0001
0000
0201
0000
0000
0000
,
0310
1000
1010
1000
1001
0001
0100
1010
,
1100
0000
0110
0000
1001
0000
0001
0000
0100
0000
0010
1000
0100
0000
0010
0000
,
0001
0000
0000
1000
0001
0000
0100
0000
0010
0000
1000
0000
0001
0000
0000
0100
,
0000
0000
0010
0000
1000
0000
0100
0000
0001
0000
0100
0000
1000
0010
0000
0010
,
1000
0000
1000
0001
0000
0001
0100
0000
0210
0000
0000
0000
0310
0000
1000
0001
,
0000
0001
1000
0000
1000
0020
0000
0000
0000
0030
0000
0000
0100
0001
0000
0001
,
0100
0000
0010
0100
0000
0100
0001
0000
1000
0000
0100
0010
0001
0000
0000
1000
,
0000
0000
0010
1000
0100
0000
0010
0000
0001
0000
0101
0000
0100
0010
0000
0010
,
0100
0000
0100
0001
0000
0001
1000
0000
0020
0000
1030
0000
0100
0000
0010
0001
,
0000
0001
0100
0000
0100
0020
0000
0000
0000
0030
0000
0000
0010
1000
0000
1000
,
0001
0000
0001
0100
0000
0100
0010
0000
0100
0000
0001
0010
0100
1000
0000
0001
,
0000
0000
1000
0010
0100
0000
0001
0000
1000
0000
0110
0000
2002
0000
0000
0000
,
0000
3003
0000
0000
0000
0000
0000
0000
;
