#TITLE:Bouncy;
#SUBTITLE:;
#ARTIST:Ateez;
#TITLETRANSLIT:;
#SUBTITLETRANSLIT:;
#ARTISTTRANSLIT:;
#GENRE:;
#CREDIT:;
#BANNER:Bouncy.png;
#BACKGROUND:Bouncy-BG.png;
#LYRICSPATH:;
#CDTITLE:;
#MUSIC:Bouncy.ogg;
#OFFSET:-0.269000;
#SAMPLESTART:51.202000;
#SAMPLELENGTH:18.882999;
#SELECTABLE:YES;
#BPMS:0.000000=75.000000
;
#STOPS:
;
#BGCHANGES:1.000=Bouncy.avi=1.000=1=0=0=StretchNoLoop==CrossFade==,
165.000=Bouncy-BG.png=1.000=1=0=1===CrossFade==,
99999=-nosongbg-=1.000=0=0=0 // don't automatically add -songbackground-
;
#KEYSOUNDS:;
#ATTACKS:;

//---------------dance-single - Alex----------------
#NOTES:
     dance-single:
     Alex:
     Beginner:
     1:
     0.050627,0.076138,0.000000,0.000000,0.000000,48.000000,48.000000,0.000000,0.000000,0.000000,0.000000,0.050627,0.076138,0.000000,0.000000,0.000000,48.000000,48.000000,0.000000,0.000000,0.000000,0.000000:
0000
0000
0000
0000
,
0000
0000
0000
0000
,
0000
0000
0000
0000
,
0000
0000
0000
0000
,
0000
0010
0000
0000
,
0000
1000
0000
0000
,
0000
0001
0000
0000
,
0000
0100
0000
0000
,
0000
0001
0000
1000
,
0000
0001
0000
0000
,
0000
1000
0000
0010
,
0000
1000
0000
0001
,
0000
1000
0000
0000
,
0000
0001
0000
0000
,
0000
0100
0000
0000
,
0000
0010
0000
0010
,
0000
0001
0000
0000
,
0000
1000
0000
0000
,
0000
0010
0000
0000
,
0000
0100
0000
0100
,
0000
0100
0000
0000
,
0000
0010
0000
0000
,
0000
1000
0000
0000
,
0000
0001
0000
1000
,
0000
0001
0000
0000
,
0000
1000
0000
0000
,
0000
0001
0000
0000
,
0000
0100
0000
0000
,
0000
0010
0000
0000
,
0000
1000
0000
0010
,
0000
0010
0000
1000
,
0000
0001
0000
0000
,
0000
1000
0000
0000
,
0000
0001
0000
0000
,
0000
1000
0000
0000
,
0000
0100
0000
0000
,
0000
1000
0000
0001
,
0000
0010
0000
0000
,
0000
0001
0000
0000
,
0000
0100
0000
0000
,
0000
0010
0000
0010
,
0000
0010
0000
0000
;

//---------------dance-single - Alex----------------
#NOTES:
     dance-single:
     Alex:
     Easy:
     3:
     0.119185,0.182732,0.103364,0.000000,0.000000,113.000000,99.000000,14.000000,0.000000,0.000000,0.000000,0.119185,0.182732,0.103364,0.000000,0.000000,113.000000,99.000000,14.000000,0.000000,0.000000,0.000000:
0000
0000
0000
0000
,
0000
0000
0000
0000
,
0000
0000
0000
0000
,
0000
0000
0000
0000
,
0000
1000
0001
1000
,
0000
0001
1000
0001
,
0000
0100
0010
0100
,
0000
0001
0010
0001
,
0000
1001
0000
0100
,
0100
1001
0000
0010
,
0010
1001
0000
1000
,
0000
0001
0000
1000
,
0001
1000
0000
0010
,
0010
0010
0000
1000
,
1000
1000
0000
0001
,
0000
1000
0000
1001
,
0000
0001
0100
0001
,
0000
1000
0010
1000
,
0000
0110
0000
1001
,
0000
0001
0000
1000
,
0001
1000
1000
0001
,
0000
0100
0010
0010
,
0000
0110
0000
1001
,
0000
0000
0001
0001
0001
0000
1000
1000
,
1000
0110
0000
0000
,
0000
0001
0100
0001
,
0000
1000
0010
1000
,
0000
0001
1000
0001
,
0000
0100
0000
1001
,
0000
0010
0000
1000
,
0000
0001
0000
0100
,
0000
0001
0000
1000
,
0000
1000
0000
0010
,
0000
0100
0010
0100
,
0000
0001
1000
0001
,
0000
1000
0000
0001
,
0000
1000
0000
1001
,
0000
0010
0010
0010
,
0000
1000
0001
1000
,
0000
1001
0000
0110
,
0000
0100
0000
0010
,
0000
1001
0000
0000
;

//---------------dance-single - Alex----------------
#NOTES:
     dance-single:
     Alex:
     Medium:
     5:
     0.205673,0.213188,0.103364,0.051682,0.000000,195.000000,181.000000,14.000000,7.000000,0.000000,0.000000,0.205673,0.213188,0.103364,0.051682,0.000000,195.000000,181.000000,14.000000,7.000000,0.000000,0.000000:
0000
0000
0000
0000
,
0000
0000
0000
0000
,
0000
0000
0000
0000
,
0000
0000
0000
0000
0000
0000
0000
0100
,
0100
0000
0010
0100
0010
0000
1000
0001
,
1000
0000
0001
0100
0010
0000
1000
0100
,
0010
0000
0001
0001
1000
0000
0010
0100
,
0100
0000
0001
0010
0010
0000
0001
0000
,
1001
0000
1000
0000
1000
0000
0010
1000
,
0010
0000
0100
0000
0100
0000
0001
0010
,
0001
0100
0010
1000
,
0001
0100
0010
1000
,
1001
0000
0010
0000
0100
0000
0010
0100
,
0010
0000
1000
0000
0001
0000
1000
0001
,
1000
0000
0010
0100
0001
1000
0100
0100
,
0100
1000
0001
2002
,
3003
0000
0010
0000
1000
0000
0001
1000
,
0001
0000
1000
0000
0100
0000
1000
0100
,
1000
0010
1001
0100
,
1001
0000
0010
0100
0001
0000
1000
0001
,
1000
0000
0001
0000
0100
0000
0001
0100
,
0001
0000
0010
0000
0100
0000
1000
0010
,
1000
0010
1001
0100
,
1001
0000
0001
1000
0001
0000
1000
0001
,
1000
2002
0000
3003
,
0000
0000
0010
0100
0001
0000
0010
0100
,
1000
0001
1000
0001
,
1000
0001
1000
0000
0010
0000
1000
0000
,
0001
0100
0010
0100
,
0101
0000
0010
0010
0010
0000
1000
1000
,
1000
0000
0001
0000
1000
0000
0001
1000
,
0001
1000
0020
0000
0030
0000
0100
0000
,
0100
0000
0010
0010
0010
0000
1000
0000
,
0001
1001
0001
1000
,
1000
0001
0100
0001
,
1000
0000
0010
1000
0010
1000
0010
1000
,
0010
0100
0001
2002
,
3003
0000
0001
0000
1000
0000
0100
1000
,
0001
0000
0100
0000
0010
0000
0100
0010
,
0100
0001
0011
1000
,
1100
0000
0001
0000
1000
0000
0010
0100
,
0010
0110
0000
0000
;

//---------------dance-single - Alex----------------
#NOTES:
     dance-single:
     Alex:
     Hard:
     7:
     0.407127,0.428314,0.184578,0.177195,0.321166,386.000000,361.000000,25.000000,24.000000,0.000000,0.000000,0.407127,0.428314,0.184578,0.177195,0.321166,386.000000,361.000000,25.000000,24.000000,0.000000,0.000000:
// measure 0
0000
0000
0000
0000
,  // measure 1
0000
0000
0000
0000
,  // measure 2
0000
0000
0000
0000
,  // measure 3
0000
0000
0000
0000
0000
0000
0000
1001
,  // measure 4
1001
0000
0010
0000
0100
0000
0001
1000
0010
0000
0100
0000
0001
0000
1000
0100
,  // measure 5
0010
0000
0001
0000
0100
0000
0010
0100
0010
0000
1000
0000
0001
0000
1000
0001
,  // measure 6
1000
0002
0000
0000
1003
0000
0010
1000
0010
0000
0100
0000
0001
0000
1000
0100
,  // measure 7
0010
0000
0001
0000
0100
0000
0010
0100
0010
0000
1000
0000
0001
0000
0010
0001
,  // measure 8
0100
0020
0000
0000
0130
0000
0100
0000
0001
0000
0010
0100
1000
0000
0001
0000
,  // measure 9
0100
0000
1001
0000
0010
0000
0100
0000
0100
0000
0001
1000
0100
0000
0010
0000
,  // measure 10
0011
0000
1100
0000
1000
0010
0000
0010
1000
0000
0001
0100
0001
0000
1000
0100
,  // measure 11
0010
0001
0100
0000
0010
0000
0100
0000
0001
0000
1000
0000
0100
0000
1000
0000
,  // measure 12
1001
0000
1001
0000
0001
0000
0100
0000
0010
0000
0100
0000
0001
0000
0010
0100
,  // measure 13
1000
0002
0000
0000
1003
0000
0010
0000
1000
0000
0001
0000
0100
0000
0010
1000
,  // measure 14
0100
0020
0000
0000
0031
0100
0001
0100
0010
1000
0001
0010
0100
1000
0001
0000
,  // measure 15
1001
0000
0001
0100
1000
0100
1001
0000
,  // measure 16
0110
0000
0000
0000
1001
0000
0001
0100
0001
0000
0010
0000
0100
1000
0010
0100
,  // measure 17
0002
0000
0000
0000
1003
0000
0100
1000
0100
0000
1000
0000
1000
0010
1000
0010
,  // measure 18
1000
0000
0010
0100
0001
1000
0100
0000
0011
0000
0001
0100
0010
1000
0001
0000
,  // measure 19
1001
0000
0001
1000
0100
0000
0100
1000
0001
0000
0100
0000
0010
1000
0001
0010
,  // measure 20
0002
0000
0003
1001
0000
0000
0100
0100
0100
0000
0010
0000
1000
0001
0010
0001
,  // measure 21
2000
0000
0000
0000
3010
0000
0100
0001
0010
0000
0100
0000
1000
0001
0100
0001
,  // measure 22
1000
0000
0010
1000
0001
0100
0010
0000
0110
0000
0010
1000
0100
1000
0010
0000
,  // measure 23
1010
2000
3020
0032
0203
2300
3200
0302
,  // measure 24
0023
0000
0030
1001
0000
0000
0001
0100
0001
0000
1000
0000
0010
1000
0100
0010
,  // measure 25
0001
0100
0100
0000
0010
1000
0001
0100
0010
0020
0000
0000
0130
0001
0100
0001
,  // measure 26
0010
0200
0000
0000
1300
0000
1001
0000
0001
0000
0100
0000
0010
0000
0010
0000
,  // measure 27
1000
0100
1000
0000
0010
0000
0100
0000
0001
0000
0010
0000
0100
0010
0001
0100
,  // measure 28
0020
0130
0100
0010
1000
0001
0010
0001
,  // measure 29
1000
0010
1000
0010
0100
0000
0001
0000
1000
0000
0100
0000
0010
0000
0001
0000
,  // measure 30
0100
0010
0100
0100
0001
0001
1000
1000
,  // measure 31
0001
0010
0001
0000
0200
0000
0000
0000
0300
0000
0000
0000
0010
0000
0010
0000
,  // measure 32
1000
1000
0001
0100
0001
1000
0010
0010
,  // measure 33
0100
0000
0100
0000
0001
0000
1000
0000
0100
0000
1000
0000
0001
0000
0100
0010
,  // measure 34
1000
0002
0000
0000
1003
0000
1000
0000
0001
0000
0001
0000
0100
0000
0010
1000
,  // measure 35
0100
0020
0000
0000
0031
0000
0100
0000
0010
0000
0100
0000
0001
0000
1000
0000
,  // measure 36
1000
0001
0010
0100
1000
0001
1001
0000
,  // measure 37
0110
0000
0000
0000
1001
0000
0010
1000
0010
0000
0100
0000
0001
1000
0100
1000
,  // measure 38
0002
0000
0000
0000
0103
0000
0100
0010
0100
0000
0100
0000
0001
0010
0100
1000
,  // measure 39
0001
0000
0001
1000
0010
0100
0001
0000
1001
0000
0001
1000
0100
1000
0001
0000
,  // measure 40
1001
0000
0010
0100
0010
0000
0100
0001
1000
0000
1001
0000
0001
0010
0100
1000
,  // measure 41
0010
0000
0000
2002
0000
0000
0000
3003
0000
0000
0000
0000
0000
0000
0000
0000
;
