#TITLE:Bite Me;
#SUBTITLE:;
#ARTIST:Enhypen;
#TITLETRANSLIT:;
#SUBTITLETRANSLIT:;
#ARTISTTRANSLIT:;
#GENRE:;
#CREDIT:;
#MUSIC:Bite Me.ogg;
#BANNER:Bite Me.png;
#BACKGROUND:Bite Me-BG.png;
#CDTITLE:;
#SAMPLESTART:34.038;
#SAMPLELENGTH:22.500;
#SELECTABLE:YES;
#OFFSET:-0.395;
#BPMS:0.000=105.000;
#STOPS:;
#BGCHANGES:2.250=Bite Me.avi=1.000=1=0=0=StretchNoLoop==CrossFade==,
99999.000=-nosongbg-=1.000=0=0=0=StretchNoLoop====
;
#FGCHANGES:;

//--------------- dance-single - Alex ----------------
#NOTES:
     dance-single:
     Alex:
     Beginner:
     1:
     0.067725,0.105882,0.027887,0,0,68,64,4,0,0,0,0.067725,0.105882,0.027887,0,0,68,64,4,0,0,0:
0000
0000
0000
0000
,
0000
0000
0000
0000
,
0000
0000
0000
0000
,
0000
0000
0000
0000
,
0000
0000
0000
1001
,
0000
0000
0000
0010
,
0000
0000
0000
0100
,
0000
0000
0000
0001
,
0000
0000
0000
0001
,
0000
0000
0000
1000
,
0000
0000
0000
0001
,
0000
0000
0000
1000
,
0000
0000
0000
0010
,
0000
0010
0000
0010
,
0000
0000
0000
0100
,
0000
0100
0000
0100
,
0000
0000
0000
1001
,
0000
0000
0000
0001
,
0000
0000
0000
0010
,
0000
0000
0000
0001
,
0000
0000
0000
1000
,
0000
0000
0000
1000
,
0000
0000
0000
0100
,
0000
0000
0000
1000
,
0000
0000
0000
0010
,
0000
0000
0000
1000
,
0000
0000
0000
1000
,
0000
0000
0000
0001
,
0000
0000
0000
0100
,
0000
0000
0000
0001
,
0000
0000
0000
0100
,
0000
0000
0000
0100
,
0000
0000
0000
0010
,
0000
0000
0000
0010
,
0000
0010
0000
0010
,
0000
0000
0000
1000
,
0000
1000
0000
1000
,
0000
0000
0000
0010
,
0000
0010
0000
0010
,
0000
0000
0000
0100
,
0000
0000
0000
0001
,
0000
0001
0000
1000
,
0000
0000
0000
1000
,
0000
1000
0000
0001
,
0000
0000
0000
1001
,
0000
0000
0000
0010
,
0000
0000
0000
1000
,
0000
0000
0000
0001
,
0000
0000
0000
0100
,
0000
0000
0000
0001
,
0000
0000
0000
0001
,
0000
0000
0000
0100
,
0000
0000
0000
0010
,
0000
0000
0000
1000
,
0000
0000
0000
1000
,
0000
0000
0000
0100
,
0000
0000
0000
1000
,
0000
0000
0000
0001
,
0000
0000
0000
0001
,
0000
0000
0000
0100
,
0000
0000
0000
0110
;

//--------------- dance-single - Alex ----------------
#NOTES:
     dance-single:
     Alex:
     Easy:
     3:
     0.174291,0.217864,0.08366,0.062745,0,175,163,12,9,0,0,0.174291,0.217864,0.08366,0.062745,0,175,163,12,9,0,0:
0000
0000
0000
0000
,
0000
0000
0000
0000
,
0000
0000
0000
0000
,
0000
0000
0000
0000
,
0000
0000
0000
1000
,
0000
0001
0000
1000
,
0000
0001
0010
0001
,
0000
0100
0000
0010
,
0000
0100
0001
1000
,
0000
0001
0000
1000
,
0000
1000
0010
0100
,
0000
0001
0000
0010
,
0000
0100
0000
1000
,
1000
1000
0000
0001
,
0001
1001
0000
0010
,
0010
0010
0000
0100
,
0100
0220
0330
0010
,
0100
0010
0000
1000
,
0001
1000
0000
0001
,
0010
0001
0000
0100
,
0001
0100
0000
0010
,
1000
0010
0000
1000
,
0001
1000
0000
0001
,
0100
0001
0000
1000
,
0100
1000
0000
0010
,
0010
1001
0000
0100
,
0100
0001
0001
1000
,
1000
1001
0000
0010
,
0010
0010
1000
1000
,
0100
1100
0000
1000
,
0001
1000
1000
0001
,
0100
0101
0000
0001
,
0100
0010
0010
0200
,
0000
0300
0000
0010
,
0000
1000
0000
0002
,
0000
0003
0000
0100
,
0000
0001
0000
2000
,
0000
3000
0000
0100
,
0000
0010
0000
0002
,
0000
0003
0000
0100
,
0000
0010
0000
0100
,
0100
0100
0000
0010
,
0010
1001
0000
0001
,
0001
0001
0000
1000
,
1000
2002
3003
0001
,
0100
0001
0000
1000
,
0100
1000
0000
0010
,
1000
0010
0000
0100
,
0001
0100
0000
0001
,
1000
0001
0000
1000
,
0010
1000
0000
0001
,
0100
0010
0000
1000
,
0100
0010
0000
0001
,
0100
0101
0000
0001
,
0001
1000
1000
0001
,
1000
1001
0000
0010
,
0010
0100
0100
0001
,
1000
1100
0000
0100
,
0100
1000
1000
0010
,
1000
1001
0000
0001
,
0100
0010
0100
0001
,
0000
1000
0000
0010
,
0000
0200
0300
0000
;

//--------------- dance-single - Alex ----------------
#NOTES:
     dance-single:
     Alex:
     Medium:
     6:
     0.280858,0.30135,0.048802,0.244008,0.118518,282,275,7,35,0,0,0.280858,0.30135,0.048802,0.244008,0.118518,282,275,7,35,0,0:
0000
0000
0000
0000
,
0000
0000
0000
0000
,
0000
0000
0000
0000
0000
0000
1000
0010
,
1000
0010
2000
0000
3000
0000
0001
0100
,
0001
0100
0002
0000
0003
0000
0100
0000
,
0010
0100
0001
1000
,
0100
1000
1000
0010
,
0100
0001
0010
0100
,
0010
0001
0100
0010
,
0100
0100
0001
1000
,
0001
0001
0010
0001
,
0100
0000
0010
0100
0010
0000
1000
0010
,
1000
0000
0001
0100
0001
0000
0100
0000
,
0100
0000
0001
1000
0001
0000
1001
0000
,
1001
2002
3003
0010
,
0010
0000
0000
0000
0100
0000
0010
0000
0100
0000
0000
0000
0001
0000
0000
1000
,
0000
0000
0001
0000
0200
0000
0000
0000
0300
0000
0000
0000
0010
0000
0000
0010
,
0000
0000
0100
0000
0002
0000
0000
0000
0003
0000
0000
0000
1000
0000
0000
1000
,
0000
0000
0100
0000
0010
0000
0002
0000
0000
0000
0003
0000
0100
0000
0000
0100
,
0000
0000
0010
0000
2000
0000
0000
0000
3000
0000
0001
0000
1000
0000
0000
0010
,
0000
0000
0100
0000
0001
0000
2000
0000
0000
0000
3000
0000
0001
0000
0000
0001
,
0000
0000
0100
0000
0020
0000
0000
0000
0030
0000
0000
0000
0100
0000
0000
0100
,
0000
0000
0001
0000
1000
0000
0200
0000
0000
0000
0300
0000
1000
0000
0000
1000
,
0000
0000
0010
0000
0200
0000
0000
0000
0300
0000
0001
0000
1000
0000
0000
0001
,
0000
0000
0010
0000
0001
0000
0200
0000
0000
0000
0300
0000
0010
0000
0000
0010
,
0000
0000
0100
0000
0002
0000
0000
0000
0003
0000
0000
0000
1000
0000
0000
0010
,
0000
0000
1000
0000
0001
0000
0100
0000
0000
0000
0100
0000
0010
0000
0000
0010
,
0000
0000
1000
0000
0002
0000
0000
0000
0003
0000
1000
0000
0100
0000
0000
0100
,
0000
0000
1000
0000
0010
0000
1000
0000
0000
0000
1000
0000
0001
0000
0000
0001
,
0000
0000
1000
0000
0020
0000
0000
0000
0030
0000
0000
0000
0100
0000
0000
0001
,
0000
0000
0100
0000
0001
0000
0100
0000
0000
0000
0100
0000
0010
0000
0000
0010
,
0000
0000
0100
0000
0002
0000
0000
0000
0003
0000
1000
0000
0001
0000
0000
1000
,
0000
0010
1000
0002
0000
0003
1000
0001
,
1000
0000
0001
1000
0001
0000
1000
0000
,
0010
0000
1000
0000
0001
0000
0100
0010
,
0100
0000
0001
1000
0001
0000
0010
0000
,
0001
0100
0100
0001
,
1000
0100
0010
0001
,
0100
0000
0010
0100
0010
0000
1000
0000
,
0001
0010
0001
0100
,
0010
0000
1000
0000
0001
0000
1000
0001
,
1000
0000
0001
1000
0001
0000
1001
0000
,
1001
0000
2002
0000
3003
0000
0001
0100
,
0001
0000
0000
0000
0100
0000
0001
0000
0100
0000
0000
0000
0010
0000
0000
0010
,
0000
0000
0100
0000
0020
0000
0000
0000
0030
0000
0000
0000
1000
0000
0000
0001
,
0000
0000
0100
0000
0020
0000
0000
0000
0030
0000
0000
0000
0100
0000
0000
0001
,
0000
0000
1000
0000
0100
0000
2000
0000
0000
0000
3000
0000
1000
0000
0000
0010
,
0000
0000
0010
0000
2000
0000
0000
0000
3000
0000
0001
0000
0100
0000
0000
0001
,
0000
0000
0100
0000
0010
0000
0200
0000
0000
0000
0300
0000
0001
0000
0000
1000
,
0000
0000
0001
0000
0020
0000
0000
0000
0030
0000
0000
0000
0001
0000
0000
0001
,
0000
0000
0100
0000
0010
0000
0200
0000
0000
0000
0300
0000
0001
0000
0000
1000
,
0000
0000
0001
0000
2000
0000
0000
0000
3000
0000
0010
0000
0100
0000
0000
0100
,
0000
0000
0001
0000
1000
0000
0200
0000
0000
0000
0300
0000
1000
0000
0000
0010
,
0000
0000
0010
0000
0200
0000
0000
0000
0300
0000
0000
0000
0001
0000
0000
1000
,
0000
0000
0001
0000
0010
0000
0001
0000
0000
0000
0001
0000
0100
0000
0000
0100
,
0000
0000
0001
0000
2000
0000
0000
0000
3000
0000
0000
0000
0010
0000
0000
0010
,
0000
0000
1000
0000
0001
0000
0100
0000
0000
0000
0100
0000
0001
0000
0000
0001
,
0000
0000
1000
0000
0020
0000
0000
0000
0030
0000
0000
0000
0100
0000
0000
0001
,
0000
0000
0010
0000
0100
0000
0010
0000
0000
0000
0001
0000
0100
0000
0000
0001
,
0000
0000
1000
0000
2000
0000
0000
0000
3000
0000
0000
0000
0010
0000
0000
1000
,
0000
0001
0100
0010
0000
0000
0220
0000
,
0000
0000
0000
0330
;

//--------------- dance-single - Alex ----------------
#NOTES:
     dance-single:
     Alex:
     Hard:
     8:
     0.462121,0.4305,0.174291,0.16732,0.386927,464,439,25,24,0,0,0.462121,0.4305,0.174291,0.16732,0.386927,464,439,25,24,0,0:
0000
0000
0000
0000
,
0000
0000
0000
0000
,
0000
0000
0000
0000
0000
0000
0000
0000
0000
0000
0010
0000
1000
0000
0001
0100
,
0000
0100
0001
0000
2002
0000
0000
0000
3003
0000
0001
0000
0100
0000
0010
1000
,
0000
1000
0100
0000
1000
0000
2020
0000
0000
0000
3030
0000
0010
0000
0100
0000
,
0001
0100
0010
1000
0002
0003
0010
0100
,
1000
0001
0100
0010
2000
3000
0010
0010
,
0100
0001
1000
0100
2000
3000
0001
0100
,
0010
0100
0001
0010
0200
0300
0010
0001
,
0100
0010
0100
0001
1000
0020
0030
0100
,
0100
0001
1000
0100
0010
0002
0003
1000
,
0010
0000
1000
0000
0001
1000
0001
0000
1000
0000
0010
1000
0010
0000
0100
0000
,
0001
0000
1000
0001
1000
0000
0001
0000
0100
0000
0000
0000
1001
0000
0000
0000
,
1001
0000
0001
1000
1001
0000
0001
0100
,
0010
1000
0100
0010
0001
0000
0011
0000
,
1100
0000
0000
0000
0001
0000
0100
0000
0010
0000
1000
0000
0001
0000
0000
0001
,
0000
0000
0100
0000
0010
0000
0000
0000
1001
0000
0000
0000
0010
0000
0100
0010
,
0000
0010
0100
0000
0001
0000
0000
1000
0000
0000
0001
0000
1000
0000
0100
1000
,
0000
1000
0100
0000
1000
0000
1010
0000
0000
0000
0010
0000
0100
0000
0001
0100
,
0000
0100
0001
0000
1000
0000
0000
0001
0000
0000
0010
0000
0100
0000
1000
0010
,
0000
0010
0100
0000
0001
0000
0101
0000
0000
0000
0100
0000
0100
0000
0010
1000
,
0000
1000
0010
0000
1000
0000
0000
0001
0000
0000
1000
0000
0010
0000
0100
0001
,
0000
0001
0100
0000
0100
0000
0110
0000
0000
0000
0010
0000
0010
0000
0100
0001
,
0000
0001
0100
0000
0001
0000
0000
0001
0000
0000
1000
0000
0010
0000
1000
0010
,
0000
0010
1000
0000
0001
0000
1001
0000
0000
0000
0001
0000
0100
0000
0010
0100
,
0000
0100
0010
0000
0200
0000
0000
0010
0000
0000
0310
0000
0010
0000
1000
0001
,
0000
0001
1000
0000
0001
0000
0100
0000
0000
0000
0100
0000
0001
0000
1000
0010
,
0000
0010
1000
0000
0002
0000
0000
0010
0000
0000
0013
0000
0001
0000
0010
0001
,
0000
0001
0010
0000
0001
0000
0100
0000
0000
0000
0100
0000
0010
0000
1000
0001
,
0000
0001
0100
0000
0020
0000
0000
1000
0000
0000
0130
0000
1000
0000
0001
1000
,
0000
1000
0001
0000
0100
0000
0100
0000
0000
0000
0001
0000
1000
0000
0010
1000
,
0000
1000
0001
0000
0200
0000
0000
0001
0000
0000
0310
0000
0010
0000
0100
0010
,
0000
0010
0100
0000
0100
0000
1001
0000
0000
0000
0001
1000
0010
0000
0000
0100
,
0000
0000
0001
1000
0100
0000
0000
0010
0000
0000
0001
0100
0001
0000
0000
0101
,
0000
0000
0001
0100
0010
0000
1000
0000
0100
0000
0010
0000
0001
0000
0000
0100
,
0000
0000
0010
1000
0001
0000
0000
1000
0000
0000
0001
1000
0100
0000
0000
0010
,
0000
0000
0001
0100
0010
0000
0100
0000
1000
0000
0000
2002
0000
3003
0000
0000
,
0000
0000
0001
0100
0010
0000
0000
0100
0000
0000
0001
1000
0100
0000
0000
0010
,
0000
0000
0001
1000
0010
0000
0100
0000
0001
0000
1000
0000
1100
0000
0000
0100
,
0000
0000
1000
0000
0010
0000
0100
0000
0001
0000
1000
0000
0100
0000
0000
0010
,
0000
0001
0100
0010
0200
0300
1001
0000
,
1001
0000
0001
1000
1001
0000
0001
0100
,
0010
0100
0001
0010
0100
1000
1010
0000
,
0101
0000
0000
0000
0001
0000
1000
0000
1100
0000
0000
0000
0010
0000
0000
0001
,
0000
0000
0100
0000
0010
0000
0000
0000
0220
0000
0330
0000
0010
0000
0100
0001
,
0000
0001
0100
0000
0001
0000
0000
1000
0000
0000
0010
0000
1000
0000
0001
1000
,
0000
1000
0100
0000
0010
0000
0001
0000
0000
0000
0001
0000
0100
0000
0010
0100
,
0000
0100
0010
0000
1000
0000
0000
1000
0000
0000
0001
0000
1000
0000
0010
1000
,
0000
1000
0001
0000
0100
0000
0101
0000
0000
0000
0001
0000
1000
0000
0010
0100
,
0000
0100
0010
0000
1000
0000
0000
1000
0000
0000
0001
0000
0001
0000
0010
0001
,
0000
0001
0010
0000
0001
0000
0100
0000
0000
0000
0100
0000
0001
0000
1000
0001
,
0000
0001
0100
0000
0010
0000
0000
0010
0000
0000
0100
0000
0001
0000
1000
0100
,
0000
0100
1000
0000
0010
0000
1010
0000
0000
0000
0010
0000
1000
0000
0001
0100
,
0000
0100
0001
0000
2000
0000
0000
0010
0000
0000
3010
0000
0010
0000
0100
0001
,
0000
0001
0100
0000
0010
0000
0010
0000
0000
0000
1000
0000
0001
0000
0010
0001
,
0000
0001
0010
0000
0002
0000
0000
0100
0000
0000
1003
0000
1000
0000
0010
1000
,
0000
1000
0010
0000
0100
0000
0100
0000
0000
0000
0001
0000
1000
0000
0100
1000
,
0000
1000
0100
0000
0020
0000
0000
0001
0000
0000
0031
0000
0001
0000
0100
0010
,
0000
0010
0100
0000
0001
0000
0001
0000
0000
0000
1000
0000
0001
0000
0100
0010
,
0000
0010
0100
0000
0002
0000
0000
1000
0000
0000
0103
0000
0100
0000
0010
0100
,
0000
0100
0010
0000
1000
0000
0001
0000
0000
0000
1000
0010
0200
0000
0000
0000
,
0000
0000
0000
0300
;
