#TITLE:Badvillain;
#SUBTITLE:;
#ARTIST:Badvillain;
#TITLETRANSLIT:;
#SUBTITLETRANSLIT:;
#ARTISTTRANSLIT:;
#GENRE:;
#CREDIT:;
#MUSIC:Badvillain.ogg;
#BANNER:Badvillain.png;
#BACKGROUND:Badvillain-BG.png;
#CDTITLE:;
#SAMPLESTART:12.526;
#SAMPLELENGTH:15.905;
#SELECTABLE:YES;
#OFFSET:-0.057;
#BPMS:0.000=134.000;
#STOPS:;
#BGCHANGES:0.000=Badvillain.avi=1.000=1=0=0=StretchNoLoop==CrossFade==,
99999.000=-nosongbg-=1.000=0=0=0=StretchNoLoop====
;
#FGCHANGES:;

//--------------- dance-single - Alex ----------------
#NOTES:
     dance-single:
     Alex:
     Beginner:
     1:
     0.078624,0.10931,0.061152,0,0,72,64,8,0,0,0,0.078624,0.10931,0.061152,0,0,72,64,8,0,0,0:
0000
0000
0000
0000
,
0000
0000
0000
0000
,
0000
0000
0000
0000
,
0000
0000
0000
0000
,
0010
0000
0000
0000
,
0100
0000
0000
0000
,
0001
0000
0000
0000
,
1000
0000
0000
0000
,
0001
0000
0000
0000
,
0010
0000
0000
0000
,
0001
0000
0000
0000
,
0100
0000
0000
0000
,
0010
0000
0000
0000
,
1000
0000
0000
0000
,
1000
0000
0000
0000
,
0001
0000
0000
0000
,
1001
0000
0000
0000
,
0010
0000
0000
0000
,
0100
0000
0000
0000
,
0001
0000
0000
0000
,
1000
0000
0000
0000
,
1000
0000
0000
0000
,
0010
0000
0000
0000
,
0010
0000
0000
0000
,
1000
0000
0000
0000
,
1000
0000
0000
0000
,
0001
0000
0000
0000
,
0001
0000
0000
0000
,
1000
0000
0000
0000
,
0100
0000
0000
0000
,
1000
0000
0000
0000
,
0010
0000
0000
0000
,
0100
0000
0000
0000
,
0100
0000
0000
0000
,
0010
0000
0000
0000
,
0010
0000
0000
0000
,
1000
0000
0000
0000
,
0001
0000
0000
0000
,
0001
0000
0000
0000
,
0100
0000
0000
0000
,
1001
0000
0000
0000
,
0001
0000
0000
0000
,
1000
0000
0000
0000
,
1000
0000
0000
0000
,
0010
0000
0000
0000
,
0010
0000
0000
0000
,
1000
0000
0000
0000
,
0001
0000
0000
0000
,
1001
0000
0000
0000
,
0000
0000
0000
0000
,
1001
0000
0000
0000
,
0000
0000
0000
0000
,
0110
0000
0000
0000
,
0000
0000
0000
0000
,
0110
0000
0000
0000
,
0000
0000
0000
0000
,
0100
0000
0000
0000
,
0100
0000
0000
0000
,
0010
0000
0000
0000
,
0010
0000
0000
0000
,
1000
0000
0000
0000
,
1000
0000
0000
0000
,
0001
0000
0000
0000
,
0001
0000
0000
0000
,
1001
0000
0000
0000
,
0001
0000
0000
0000
,
0100
0000
0000
0000
,
0100
0000
0000
0000
,
0010
0000
0000
0000
,
0010
0000
0000
0000
,
1000
0000
0000
0000
,
0000
0000
1001
0000
;

//--------------- dance-single - Alex ----------------
#NOTES:
     dance-single:
     Alex:
     Easy:
     3:
     0.171445,0.189954,0.053508,0.03822,0,157,150,7,5,0,0,0.171445,0.189954,0.053508,0.03822,0,157,150,7,5,0,0:
0000
0000
0000
0000
,
0000
0000
0000
0000
,
0000
0000
0000
0000
,
0000
0000
0000
0000
,
1000
0000
0001
0000
,
1000
0000
1000
0000
,
0010
0000
0010
0000
,
0100
0100
0100
0000
,
1001
0000
0001
0000
,
0010
0000
0001
0001
,
0001
0000
1000
0000
,
0010
0000
1000
1000
,
1000
0000
0001
0000
,
1000
0000
0100
0000
,
1001
0000
0010
0010
,
0020
0000
0030
0000
,
0000
0100
0100
0100
,
0000
0001
0001
0001
,
0000
1000
1000
1000
,
0000
0010
0010
0010
,
0010
0000
1000
0000
,
0001
0000
0100
0000
,
0001
0000
1000
0000
,
0001
0000
0010
0000
,
0001
1000
0001
0000
,
1000
0000
0001
0000
,
1000
0010
1000
0000
,
0001
0000
0100
0000
,
0010
0100
0010
0000
,
1000
0000
0001
0000
,
0010
0001
0010
0001
,
2000
0000
3000
0000
,
0010
0000
0010
0000
,
0100
0000
0100
0000
,
0001
0000
0001
0000
,
1000
0000
1000
0000
,
0010
1000
0010
0000
,
1000
0001
1000
0000
,
0001
0000
1000
0000
,
2002
0000
0000
0000
0000
3003
0000
0000
,
0010
0000
0100
0000
,
0001
0000
1000
0100
,
1000
0000
0001
0000
,
0100
0000
0010
0100
,
0010
0000
1000
0000
,
0001
0000
1000
0000
,
0001
0000
1000
0010
,
0110
0000
0000
0000
,
0100
0000
0100
0000
,
0100
0000
0000
0000
,
0001
0000
0001
0000
,
0001
0000
0000
0000
,
1000
0000
1000
0000
,
1000
0000
0000
0000
,
0010
0010
0010
0010
,
1001
0000
0000
0000
,
0001
0000
1000
0000
,
0001
0000
1000
0000
,
0010
0000
0100
0000
,
0010
0100
0010
0000
,
1000
0000
0001
0000
,
1000
0000
0001
0000
,
1001
0000
0100
0100
,
0200
0000
0000
0000
0000
0300
0000
0000
,
0010
0000
0001
0000
,
0010
0000
0001
0000
,
1000
0000
0010
0000
,
1000
1000
1000
0000
,
0001
0000
1000
0000
,
0100
0000
1000
0000
,
1001
0000
0010
0010
,
0010
0000
0000
0000
;

//--------------- dance-single - Alex ----------------
#NOTES:
     dance-single:
     Alex:
     Medium:
     6:
     0.302485,0.355256,0.137593,0.068796,0,277,259,18,9,2,0,0.302485,0.355256,0.137593,0.068796,0,277,259,18,9,2,0:
0000
0000
0000
0000
,
0000
0000
0000
0000
,
0000
0000
0000
0000
,
0000
0000
0000
0000
,
0001
0100
0010
0100
,
0001
1000
0100
0010
,
0001
0001
1000
1000
,
0010
0100
0001
1001
,
1001
0000
0001
0100
0001
0000
0100
0000
,
0010
0000
1000
0010
1000
0000
0001
0000
,
1000
0000
0100
1000
0100
0000
0010
0000
,
0001
0000
0100
0010
0100
0000
0001
0000
,
1000
1000
0010
0100
,
0001
0000
0010
0000
0100
1000
0001
0000
,
1001
0000
0000
0000
0001
1000
0001
1000
,
0002
0000
0000
0003
0000
0000
0000
0000
,
1001
0001
1000
0010
,
1000
0001
0010
0100
,
1000
0001
0100
0010
,
1000
0000
0001
1000
0001
1000
0001
0000
,
1000
1000
0010
0010
,
0100
0001
0010
0010
,
0001
0100
0010
0010
,
1000
0000
0100
0000
1000
0100
1000
0000
,
0001
0100
0010
0100
,
0001
0000
1000
0001
0200
0000
0300
0000
,
0001
0010
0100
0010
,
0001
0000
1000
0010
2000
0000
3000
0000
,
0001
1000
0001
0001
,
0100
0000
0010
1000
0002
0000
0003
0000
,
1000
0001
0100
0010
,
0100
0000
0001
1000
0020
0000
0030
0000
,
0100
0100
1001
0000
,
0010
0100
0101
0000
,
0010
1000
0100
0010
,
0100
1000
1001
0000
,
0001
0100
0001
0001
,
1000
0010
1000
1000
,
0001
0010
0100
1000
,
0001
0001
1000
1000
,
1001
0000
0001
0100
0001
0000
1000
0000
,
0100
0000
1000
0100
1000
0000
1000
0000
,
0010
0000
0100
0001
0100
0000
0001
0000
,
0010
0000
0100
1000
0001
0000
1000
0000
,
0010
0010
1000
1000
,
0001
0010
0100
1000
,
1001
0000
0000
0000
0010
0100
0010
0100
,
0020
0000
0000
0000
0000
0030
0000
0000
,
0100
0000
1001
0000
,
0010
0000
0101
0000
,
1000
0000
1100
0000
,
0001
0000
0011
0000
,
0100
0000
0110
0000
,
0001
0000
1010
0000
,
1000
0001
0100
0010
,
2002
0000
0000
0000
0000
3003
0000
0000
,
0001
0001
1000
1000
,
0010
0100
0001
0000
,
1000
0100
0010
0100
,
1000
0001
0100
0000
,
0010
0100
0001
0010
,
0100
1000
0001
0100
,
1001
0000
0000
0000
0010
0100
0010
0100
,
0020
0000
0030
0000
,
1000
0001
0010
0001
,
1000
0000
0010
0000
1000
0010
1000
0000
,
0001
0100
0010
0100
,
0001
0000
0010
0000
0100
1000
0100
0000
,
1000
1000
0001
0100
,
0010
0000
0100
0000
0001
1000
0001
0000
,
1001
0000
0000
0000
0010
0100
0010
0100
,
0010
0000
M00M
0000
;

//--------------- dance-single - Alex ----------------
#NOTES:
     dance-single:
     Alex:
     Hard:
     8:
     0.442262,0.464566,0.107016,0.07644,0.152881,405,391,14,10,2,0,0.442262,0.464566,0.107016,0.07644,0.152881,405,391,14,10,2,0:
0000
0000
0000
0000
,
0000
0000
0000
0000
,
0000
0000
0000
0000
,
0000
0000
0000
0000
,
0001
0100
0010
0100
0001
0000
1000
0000
,
0100
0010
0001
1000
0010
0000
0100
0001
,
1000
1001
0110
1001
,
0001
0100
0000
0000
0100
0010
0000
0000
0010
1000
0000
0000
0002
0000
0000
0000
,
1003
0000
0000
0010
1000
0010
1000
0000
0000
0001
0000
0000
,
0100
0000
0000
0010
0100
0010
0100
0000
0000
0001
0000
0000
,
1000
0000
0000
0100
0010
0100
0010
0000
0000
0001
0000
0000
,
1000
0000
0000
0000
0000
0000
0010
0000
1000
0000
0010
0000
1000
0000
0000
0010
0000
0000
1000
0000
0000
0000
0000
0000
,
0001
0100
0001
0100
0001
0100
0010
0100
,
0001
0000
1000
0000
0001
0010
0001
0000
,
1001
0000
0000
0000
0001
1000
0010
0100
,
0001
0000
1000
0000
,
0001
0000
0100
0001
0100
0001
0100
0000
,
0010
0000
1000
0010
1000
0010
1000
0000
,
0001
0000
1000
0100
1000
0100
1000
0000
,
0001
0000
0100
0010
0100
0010
0100
0000
,
0001
0010
0100
1000
0001
1000
0001
0000
,
1000
0010
1000
0001
1000
0010
1000
0000
,
0001
0010
0001
0100
0001
0010
0100
0000
,
1000
0001
0100
0010
0100
0001
1000
0001
,
0010
0100
1000
0010
2000
0000
3001
0100
,
0010
0000
0010
1000
0002
0000
0003
0000
,
0100
0010
0100
0001
0010
0000
0100
1000
,
0001
1000
1000
0010
2000
0000
3000
0000
,
0001
0100
0001
0100
0001
0000
0010
0001
,
0100
0010
0100
0001
0020
0000
0030
0000
,
0001
0100
0010
1000
0100
0010
0001
1000
,
0001
0000
1001
0000
,
0001
1000
0001
1000
0001
0000
1000
0000
,
0010
1000
0010
1000
0010
0000
1000
0000
,
0100
1000
0100
1000
0100
0000
1000
0001
,
0100
0010
0100
0001
2000
0000
3000
0000
,
0001
0010
0100
1000
0001
0000
0100
0000
,
0010
0100
0001
0010
0001
0000
1000
0010
,
1000
1010
1001
0101
,
0010
0100
0000
0000
0100
0001
0000
0000
0001
1000
0000
0000
0002
0000
0000
0000
,
0103
0000
0000
0010
0100
0010
0100
0000
0000
0001
0000
0000
,
1000
0000
0000
0100
1000
0100
1000
0000
0000
0001
0000
0000
,
1000
0000
0000
0001
0100
0001
0100
0000
0000
0001
0000
0000
,
0010
0000
0000
0000
0000
0000
0001
0000
0010
0000
0001
0000
0010
0000
0000
0001
0000
0000
0010
0000
0000
0000
0000
0000
,
0001
0100
0001
0100
0001
0100
0010
0100
,
0010
1000
0100
1000
0010
0010
0100
0000
,
1001
0000
0000
0000
0001
1000
0010
0100
,
0002
0000
1003
0000
,
1000
0000
0000
0010
0000
0000
1000
0000
0001
0000
0000
0100
0000
0000
0001
0000
,
1000
0000
0000
0100
0000
0000
0010
0000
0001
0000
0000
0100
0000
0000
0010
0000
,
0100
0000
0000
0001
0000
0000
1000
0000
0100
0000
0000
1000
0000
0000
0001
0000
,
1000
0000
0000
0010
0000
0000
1000
0000
0001
0000
0000
0010
0000
0000
0001
0000
,
0001
0000
0000
0100
0000
0000
0010
0000
1000
0000
0000
0001
0000
0000
1000
0000
,
0100
0000
0000
0100
0000
0000
1000
0000
0010
0000
0000
0100
0000
0000
0001
0000
,
1000
0010
0100
0001
,
2002
0000
3003
0000
,
0001
0000
0100
0001
0100
0000
0010
1000
,
0010
1000
0001
0100
,
0010
0000
0100
0001
0000
0001
0100
0010
,
0100
0000
0001
1000
0100
0000
0010
0000
,
0001
0000
0100
0010
0100
0000
0001
0010
,
0001
1000
0010
1000
,
1001
0000
0000
0000
0001
0100
0010
1000
,
0100
0110
0110
0000
,
0010
0000
0000
0001
0010
0000
0001
0000
0100
0000
0000
0010
0100
0000
0001
0000
,
1000
0000
0100
0000
0010
0001
0100
0010
,
0100
0000
0000
0001
1000
0000
0001
0000
1000
0000
0000
0100
0010
0000
0001
0000
,
0100
0000
0010
0000
0100
0001
0100
0010
,
0010
0000
0000
0010
1000
0000
0001
0000
0100
0000
0000
0001
0010
0000
0001
0000
,
0100
0000
0010
0000
1000
0100
0010
0001
,
1000
0000
0000
0000
0001
0100
0010
1000
,
0001
0000
1MM1
0000
;

//--------------- dance-single - Alex ----------------
#NOTES:
     dance-single:
     Alex:
     Challenge:
     10:
     0.632271,0.710513,0.504506,0.298117,0.386024,579,511,66,39,0,1,0.632271,0.710513,0.504506,0.298117,0.386024,579,511,66,39,0,1:
0000
0000
0000
0000
,
0000
0000
0000
0000
,
0000
0000
0000
0000
,
0000
0000
0000
0000
,
0001
1000
0010
0100
0001
0010
0100
0010
,
0001
0100
0010
0100
0001
0010
0100
1000
,
0001
1000
0001
0100
0001
1000
0010
1000
0001
0010
0100
1000
0001
0100
0010
1000
,
0100
0010
0000
0000
0001
0100
0000
0000
1000
0010
0000
0000
0011
0000
0000
0000
,
1100
0000
0000
0001
0100
0010
0110
0000
0000
1001
0000
0000
,
0011
0000
0000
0000
0000
0000
0001
0000
0100
0000
0010
0000
0100
0000
0000
0001
0000
0000
1000
0000
0000
0010
0000
0000
,
1001
0000
0000
0001
1000
0010
1010
0000
0000
1100
0000
0000
,
0110
0000
0000
0000
0000
0000
0010
0000
0001
0000
0100
0000
0010
0000
0000
0100
0000
0000
1001
0000
0000
0000
0000
0000
,
0001
0010
1000
0010
0001
0100
1000
0100
,
0001
1000
0010
1000
1001
0110
1001
0000
,
1001
0000
0000
0000
0001
0010
0100
1000
,
0001
0000
0100
0010
0100
0001
1000
0000
,
1100
0000
0000
0100
0010
0001
0100
0010
1000
0001
0000
0000
,
1001
0000
0000
0000
0001
0000
0100
0000
0010
0100
0010
0000
1000
0000
0000
0000
,
1100
0000
0000
0000
0100
0000
0010
0000
0001
0100
0010
0000
0110
0000
0000
0000
,
1001
0000
0000
0000
0001
0010
0001
0100
0001
0100
0001
0000
0010
0000
0000
0000
,
0001
0000
0100
0001
0000
0001
0100
0001
0100
0000
0010
0000
1000
0000
0001
0000
,
1000
0000
0100
0010
0000
0010
0001
0100
0010
0000
0100
0000
0001
0000
1000
0000
,
0100
0000
1000
0100
0000
0100
1000
0100
1000
0000
0010
0000
0100
0000
0001
0000
,
1000
0000
0001
0010
0000
0010
0001
0100
0010
0000
0100
0000
0001
0000
1000
0000
,
1010
0010
1000
0001
0101
0000
0001
0010
,
0100
1000
0001
0100
0020
2030
3200
0320
,
0031
0100
0010
0100
0101
0000
0001
1000
,
0010
0100
0001
1000
0002
0023
0230
2300
,
3001
0100
0010
0100
0101
0000
0001
1000
,
0100
1000
0010
1000
0002
0023
0032
0203
,
0310
1000
0001
0100
0001
1000
0010
1000
,
1010
0110
0101
0011
,
0001
0100
0010
0100
0202
0303
2020
3030
,
0010
1000
0100
1000
2200
3300
0022
0033
,
0001
0100
0010
0100
0202
0303
2002
3003
,
0001
1000
0010
1000
2002
3003
0022
0033
,
0001
0100
0010
0100
0001
0001
1000
1000
,
0001
0010
0100
1000
0001
0100
0010
1000
,
0100
0010
0001
0100
0010
0100
0001
0010
0001
1000
0010
1000
0001
0100
0001
1000
,
0100
0001
0000
0000
1000
0010
0000
0000
0001
0010
0000
0000
0101
0000
0000
0000
,
0110
0000
0000
0010
1000
0100
1100
0000
0000
0011
0000
0000
,
1001
0000
0000
0000
0000
0000
0001
0000
1000
0000
0010
0000
0100
0000
0000
0001
0000
0000
1000
0000
0000
0100
0000
0000
,
1100
0000
0000
0100
0010
0001
0101
0000
0000
0110
0000
0000
,
1010
0000
0000
0000
0000
0000
0010
0000
1000
0000
0001
0000
0100
0000
0000
0010
0000
0000
0200
0000
0000
0300
0000
0000
,
0001
0010
1000
0010
0001
0100
1000
0100
,
0001
1000
0010
1000
0001
0010
0001
0100
,
0110
0000
0000
0000
0010
1000
0001
0100
,
0010
0000
1000
0001
0100
0000
1001
0000
,
0001
0000
0000
0100
0000
0000
0010
0000
0110
0000
0000
0010
0000
0000
1000
0000
,
1001
0000
0000
0001
0000
0000
0100
0000
0101
0000
0000
0001
0000
0000
0010
0000
,
0011
0000
0000
0001
0000
0000
1000
0000
1010
0000
0000
0010
0000
0000
1000
0000
,
1001
0000
0000
0001
0000
0000
0100
0000
0110
0000
0000
0010
0000
0000
1000
0000
,
1100
0000
0000
0100
0000
0000
0100
0000
1100
0000
0000
1000
0000
0000
0010
0000
,
1010
0000
0000
0010
0000
0000
0100
0000
0101
0000
0000
0001
0000
0000
1000
0000
,
2002
3003
0022
0033
0202
0303
0220
0330
,
2200
0000
0000
0000
0000
3300
0000
0000
,
0100
0000
1000
0100
1000
0000
0010
0000
0100
0000
0001
0100
0001
0000
0010
0000
,
0100
0000
0000
0000
0000
0000
1000
0000
0000
0001
0000
0000
0100
0000
0000
0000
0000
0000
0010
0000
0000
0000
0000
0000
1000
0000
0000
0000
0000
0000
0001
0000
0000
0000
0000
0000
0100
0000
0000
0000
0001
0000
0000
0000
0100
0000
0000
0000
,
0001
0000
1000
0010
1000
0000
0001
0000
0010
0000
0001
0010
0001
0000
0100
0000
,
0010
0000
0000
0000
0000
0000
0100
0000
0000
0010
0000
0000
0100
0000
0000
0000
0000
0000
0001
0000
0000
0000
0000
0000
1000
0000
0000
0000
0000
0000
0100
0000
0000
0000
0000
0000
1000
0000
0000
0000
0001
0000
0000
0000
1000
0000
0000
0000
,
0001
0000
0001
1000
0010
0000
0100
0000
0001
0000
0010
0100
1000
0000
0001
0000
,
0100
0000
0000
0000
0000
0000
0010
0000
0000
0100
0000
0000
0001
0000
0000
0000
0000
0000
1000
0000
0000
0000
0000
0000
0100
0000
0000
0000
0000
0000
1000
0000
0000
0000
0000
0000
0001
0000
0000
0000
0100
0000
0000
0000
0001
0000
0000
0000
,
0101
0000
0000
0000
0010
0010
0100
0100
,
0001
0000
1001
0000
,
0001
0000
0100
0001
0100
0000
0001
0000
0010
0000
0100
1000
0001
0000
0100
0000
,
0010
0000
0000
0000
0000
0000
0100
0000
0000
0001
0000
0000
1000
0000
0000
0000
0000
0000
0100
0000
0000
0000
0000
0000
0010
0000
0000
0000
0000
0000
0001
0000
0000
0000
0000
0000
0100
0000
0000
0000
0010
0000
0000
0000
0100
0000
0000
0000
,
0001
0000
1000
0100
1000
0000
0001
0000
1000
0000
0010
1000
0010
0000
0100
0000
,
0001
0000
0000
0000
0000
0000
1000
0000
0000
0001
0000
0000
1000
0000
0000
0000
0000
0000
0001
0000
0000
0000
0000
0000
0010
0000
0000
0000
0000
0000
0100
0000
0000
0000
0000
0000
1000
0000
0000
0000
0001
0000
0000
0000
0100
0000
0000
0000
,
0010
0000
0100
0001
0100
0000
0001
0000
0010
0000
0100
1000
0010
0000
0100
0000
,
0001
0000
0000
0000
0000
0000
0010
0000
0000
0001
0000
0000
0010
0000
0000
0000
0000
0000
0001
0000
0000
0000
0000
0000
0100
0000
0000
0000
0000
0000
0010
0000
0000
0000
0000
0000
1000
0000
0000
0000
0001
0000
0000
0000
0100
0000
0000
0000
,
1001
0000
0000
0000
0001
1000
0010
0100
,
0001
0000
1111
0000
;
