#TITLE:Back Door;
#SUBTITLE:;
#ARTIST:Stray Kids;
#TITLETRANSLIT:;
#SUBTITLETRANSLIT:;
#ARTISTTRANSLIT:;
#GENRE:;
#CREDIT:;
#BANNER:Back Door.png;
#BACKGROUND:Back Door-BG.png;
#LYRICSPATH:;
#CDTITLE:;
#MUSIC:Back Door.ogg;
#OFFSET:0.322000;
#SAMPLESTART:42.859001;
#SAMPLELENGTH:21.736000;
#SELECTABLE:YES;
#BPMS:0.000000=108.000000
,85.500000=162.000000
,85.875000=54.000000
,86.000000=108.000000
,89.500000=162.000000
,89.875000=54.000000
,90.000000=108.000000
,93.500000=162.000000
,93.875000=54.000000
,94.000000=108.000000
,111.000000=162.000000
,111.750000=54.000000
,112.000000=162.000000
,112.750000=54.000000
,113.000000=108.000000
,181.500000=162.000000
,181.875000=54.000000
,182.000000=108.000000
,185.500000=162.000000
,185.875000=54.000000
,186.000000=108.000000
,189.500000=162.000000
,189.875000=54.000000
,190.000000=108.000000
;
#STOPS:
;
#BGCHANGES:2.000=Back Door.avi=1.000=1=0=0=StretchNoLoop==CrossFade==,
256.500=Back Door-BG.png=1.000=1=0=1===CrossFade==,
99999=-nosongbg-=1.000=0=0=0 // don't automatically add -songbackground-
;
#KEYSOUNDS:;
#ATTACKS:;

//---------------dance-single - Alex----------------
#NOTES:
     dance-single:
     Alex:
     Beginner:
     1:
     0.082574,0.132665,0.083568,0.000000,0.000000,83.000000,71.000000,12.000000,0.000000,0.000000,0.000000,0.082574,0.132665,0.083568,0.000000,0.000000,83.000000,71.000000,12.000000,0.000000,0.000000,0.000000:
0000
0000
0000
0000
,
0000
0000
0000
0000
,
0000
0000
0000
0000
,
0000
0000
1001
0000
,
0000
0000
1000
0000
,
0000
0000
0010
0000
,
0000
0000
0100
0000
,
0000
0000
0001
0000
,
0000
0000
1000
0000
,
0000
0000
1000
0000
,
0000
0000
0001
0000
,
0000
0000
0001
0000
,
0000
0000
0101
0000
,
0000
0000
0100
0000
,
0000
0000
0010
0000
,
0000
0000
0010
0000
,
0000
0000
1000
0000
,
0000
0000
0001
0000
,
0000
0000
1000
0000
,
0000
0000
1001
0000
,
0000
0000
0100
0000
,
0000
0000
0100
0000
,
0000
0000
0010
0000
,
0000
0000
1000
0000
,
0000
0000
0001
0000
,
0001
0000
1000
0000
,
1000
0000
0001
0000
,
0001
0000
1001
0000
,
0000
0000
0100
0000
,
0000
0000
0010
0000
,
0000
0000
0010
0000
,
0000
0000
1000
0000
,
0000
0000
0001
0000
,
0000
0000
1000
0000
,
0000
0000
0010
0000
,
0000
0000
1000
0000
,
0000
0000
1001
0000
,
0000
0000
0001
0000
,
0000
0000
0100
0000
,
0000
0000
0100
0000
,
0000
0000
0110
0000
,
0000
0000
0010
0000
,
0000
0000
1000
0000
,
0000
0000
0001
0000
,
0000
0000
1001
0000
,
0000
0000
0001
0000
,
0000
0000
1000
0000
,
0000
0000
0010
0000
,
0000
0000
0100
0000
,
0100
0000
0010
0000
,
0010
0000
1000
0000
,
1000
0000
0001
0000
,
0000
0000
1001
0000
,
1000
0000
1000
0000
,
0000
0000
0001
0000
,
0001
0000
0001
0000
,
0000
0000
0100
0000
,
0100
0000
0100
0000
,
0000
0000
0010
0000
,
0010
0000
0010
0000
,
0000
0000
1001
0000
,
0000
0000
0110
0000
,
0000
0000
1001
0000
,
0000
0000
0110
0000
;

//---------------dance-single - Alex----------------
#NOTES:
     dance-single:
     Alex:
     Easy:
     3:
     0.146245,0.200172,0.160173,0.041784,0.000000,147.000000,124.000000,23.000000,6.000000,0.000000,0.000000,0.146245,0.200172,0.160173,0.041784,0.000000,147.000000,124.000000,23.000000,6.000000,0.000000,0.000000:
0000
0000
0000
0000
,
0000
0000
0000
0000
,
0000
0000
0000
0000
,
0000
0000
1001
0000
,
0000
0000
0001
0000
,
0001
0000
1000
0000
,
1000
0000
0010
0000
,
0010
0000
0100
0000
,
0100
0000
0001
0000
,
1001
0000
1000
0000
,
1001
0000
0001
0001
,
0001
0000
1000
1000
,
1000
0000
0010
0000
,
0010
0000
0010
0000
,
0000
0000
1000
0000
,
1000
0000
1000
0000
,
0000
0000
1001
0000
,
0000
0000
0110
0000
,
0000
0000
0100
0100
,
0100
0000
2002
0000
,
3003
0000
0001
1000
,
0001
0000
1000
0001
,
1000
0000
0010
0100
,
0010
0000
1000
0001
,
1000
0000
0010
0000
,
1000
0000
0001
0000
,
0100
0000
0001
0000
,
1000
0000
0010
0010
,
0010
0000
0100
0000
,
0001
0000
1000
0000
,
1000
0000
0010
0000
,
0100
0000
0001
0000
,
1000
0000
1001
0000
,
0010
0000
1000
0000
,
0100
0000
1000
0000
,
0001
0000
0001
0000
,
0100
0100
0010
0000
,
0010
0000
0010
0000
,
0000
0000
1000
0000
,
0001
0000
1000
0000
,
0000
0000
0011
0000
,
0000
0000
1100
0000
,
0000
0000
0100
0100
,
0100
0000
0220
0000
,
0330
0000
0001
0001
,
0001
0000
1000
1000
,
0010
0000
0100
0100
,
0001
0000
0010
0010
,
0100
0000
1000
0000
,
0010
0000
1000
0000
,
0001
0000
0100
0000
,
0001
0000
1000
0001
,
1000
0000
1001
0000
,
0110
0000
1001
0000
,
0000
0000
0011
0000
,
0101
0000
0110
0000
,
0000
0000
1010
0000
,
1100
0000
1001
0000
,
0000
0000
0101
0000
,
0110
0000
1010
0000
,
0000
0000
0010
1000
,
0010
0000
1000
0001
,
1000
0000
0001
0100
,
0001
0000
0000
0000
2002
0000
0000
3003
;

//---------------dance-single - Alex----------------
#NOTES:
     dance-single:
     Alex:
     Medium:
     5:
     0.277566,0.290835,0.222849,0.181065,0.000000,279.000000,247.000000,32.000000,26.000000,0.000000,0.000000,0.277566,0.290835,0.222849,0.181065,0.000000,279.000000,247.000000,32.000000,26.000000,0.000000,0.000000:
0000
0000
0000
0000
,
0000
0000
0000
0000
,
0000
0000
0000
0000
,
0000
0000
2002
0000
,
3003
0001
1000
1000
,
0010
0100
0001
0001
,
0010
0100
1000
1000
,
0010
0100
0001
0001
,
1001
0000
0001
1000
0001
0000
1000
0000
,
0010
0100
0001
0001
,
1000
1000
0100
0010
,
0001
0011
0001
0100
,
0010
1000
2002
3003
,
0202
0000
0303
0000
0010
1000
0010
1000
,
0020
0030
0220
0330
,
2020
0000
3030
0000
1000
0100
1000
0000
,
0010
0100
0010
0100
0010
0000
1000
0000
,
0001
1000
0010
0010
,
0100
0100
0001
1000
,
0100
0020
0000
0030
1001
0000
0110
0000
,
2002
3003
0001
0100
,
0001
0100
0001
0000
1000
0000
1000
0000
,
0010
1000
0010
0000
0100
0000
0010
0000
,
0100
0001
1000
0000
0100
0000
0010
0000
,
0001
0100
0001
0000
1000
0000
1000
0000
,
0001
1001
0010
0100
,
0010
0110
0100
0001
,
0010
0011
0001
1001
,
2002
3003
0001
1000
,
1000
0010
0100
0001
,
1000
1000
0100
0010
,
0001
0100
0100
0010
,
1000
0001
1000
0001
1000
0000
0010
0000
,
0100
0001
0010
0100
,
0010
0001
1000
1000
,
0010
0010
0100
0001
,
1000
0100
1000
0100
2000
0000
3000
0000
,
0020
0000
0030
0000
0100
0001
0100
0001
,
0100
0000
0020
0030
,
2000
0000
3000
0000
0001
1000
0001
0000
,
1000
0010
1000
0010
1000
0000
0001
0000
,
0100
0010
0010
1000
,
0001
0010
0100
1000
,
0001
0200
0000
0300
0110
0000
1001
0000
,
0220
0330
0010
0100
,
0001
1000
0100
1000
,
0010
0100
0001
0010
,
0100
1000
0001
1000
,
0010
0000
0100
0010
0100
0000
0001
0000
,
1000
1001
1000
0010
,
0100
0101
0001
0010
,
0100
0000
1100
0000
2002
0000
0000
3003
,
0000
0001
0100
0001
1000
0000
1010
0000
,
0010
0110
0100
0001
,
0010
0000
0100
1000
0001
0000
1001
0000
,
1000
1010
0010
0100
,
0001
0000
0010
0001
0010
0000
0011
0000
,
0001
0101
0100
0010
,
1000
0000
0001
0010
0001
0000
0101
0000
,
0100
0110
1001
0000
,
0110
0000
0010
0010
,
0010
0000
1000
1000
,
1000
0000
0001
1000
,
0001
0000
1000
0000
0001
0000
1000
0020
,
0000
0030
0000
0000
;

//---------------dance-single - Alex----------------
#NOTES:
     dance-single:
     Alex:
     Hard:
     7:
     0.396950,0.402695,0.215885,0.167137,0.017410,399.000000,368.000000,31.000000,24.000000,0.000000,0.000000,0.396950,0.402695,0.215885,0.167137,0.017410,399.000000,368.000000,31.000000,24.000000,0.000000,0.000000:
// measure 0
0000
0000
0000
0000
,  // measure 1
0000
0000
0000
0000
,  // measure 2
0000
0000
0000
0000
,  // measure 3
0000
0000
2002
0000
,  // measure 4
3003
0001
0100
0010
0100
0000
0100
0000
,  // measure 5
0010
1000
0001
0100
0010
0000
1000
0000
,  // measure 6
0100
0010
0001
0100
0010
0000
1000
0000
,  // measure 7
0001
0100
0001
0010
0001
0000
0100
0000
,  // measure 8
0110
0000
0010
0100
0010
1000
0000
0001
,  // measure 9
0100
0001
1000
0000
0010
0100
0001
1000
,  // measure 10
0100
0010
0001
0000
0001
1000
0001
1000
,  // measure 11
0001
0000
0000
1000
0000
0000
0001
0000
0001
0000
1000
0000
0001
0000
0010
0000
,  // measure 12
0001
0000
0000
0100
0000
0000
0220
0000
0000
0000
0330
0000
0010
0000
0100
0000
,  // measure 13
0001
0000
1000
0100
0010
0001
0100
0010
,  // measure 14
1000
0002
0000
0000
0003
0000
1000
0010
,  // measure 15
1000
0000
0001
0100
0001
0010
0100
0000
,  // measure 16
1000
0010
0100
0001
1000
0000
1001
0000
,  // measure 17
0011
0101
0110
1010
,  // measure 18
1100
0000
0110
0000
0010
0001
0100
0010
,  // measure 19
0100
0100
0001
0001
1000
1000
1000
0000
,  // measure 20
2002
0000
3003
0000
0001
0000
0001
0100
,  // measure 21
0001
0010
0100
2000
3010
0000
0010
0100
,  // measure 22
0010
1000
0001
0020
0031
0000
0001
0100
,  // measure 23
0001
1000
0010
0200
0310
0000
1000
0100
,  // measure 24
1000
0010
0100
0001
0001
1000
0001
0000
,  // measure 25
1000
0010
1000
0000
0001
0010
0100
0000
,  // measure 26
1000
0010
0100
0000
0001
0100
0001
0000
,  // measure 27
1000
0100
1000
0000
0010
0000
0010
0000
,  // measure 28
2002
0000
3003
0001
0100
0001
0010
0100
,  // measure 29
2000
0000
3000
0010
1000
0100
1000
0010
,  // measure 30
0020
0000
0030
0100
0001
1000
0010
0100
,  // measure 31
0002
0000
0003
1000
0100
1000
0001
0010
,  // measure 32
0001
0100
0110
0000
0010
1000
0001
0000
,  // measure 33
0010
0001
1000
0000
0010
1000
0100
1000
,  // measure 34
0010
0100
0001
0000
0010
0100
1000
0000
,  // measure 35
0001
0100
0010
0100
0000
0100
0100
0001
,  // measure 36
0001
1000
0010
0100
0001
0000
1000
0100
,  // measure 37
1000
0000
0010
0100
0001
0100
0010
1000
,  // measure 38
0100
0020
0000
0000
0030
0000
0001
0100
,  // measure 39
0001
0000
1000
0010
0100
0001
1000
0000
,  // measure 40
0100
0010
0001
0100
0110
0000
1010
0000
,  // measure 41
1100
0011
0101
0110
,  // measure 42
1001
0000
0101
0000
0001
1000
0010
0100
,  // measure 43
0001
1000
0100
0010
0001
0001
0001
0000
,  // measure 44
2002
0000
3003
0000
0001
0000
0001
1000
,  // measure 45
0010
1000
0001
0200
0310
0000
0010
1000
,  // measure 46
0100
1000
0001
0020
0130
0000
1000
0010
,  // measure 47
0100
0001
1000
2000
3001
0000
0001
0100
,  // measure 48
0001
0010
0100
1000
0001
0100
0010
0000
,  // measure 49
1000
0100
0010
0000
0001
0100
0001
0000
,  // measure 50
0010
0001
0010
0000
0001
1000
0010
0000
,  // measure 51
0100
0001
1000
0000
1000
0100
0010
0001
,  // measure 52
0100
0010
0010
1000
0001
0000
1001
0000
,  // measure 53
0001
0000
0101
0000
0001
0010
0100
1000
,  // measure 54
0001
1000
0010
0010
1000
0000
1100
0000
,  // measure 55
1000
0000
1010
0000
0010
0100
0010
1000
,  // measure 56
0001
0100
0010
1000
0001
0000
1001
0000
,  // measure 57
1000
0000
1100
0000
0100
0010
0001
0100
,  // measure 58
0010
0010
1000
1000
1001
0000
0001
0000
,  // measure 59
0101
0000
0100
0000
0010
0100
0010
0000
,  // measure 60
2002
0000
3003
0000
0001
0000
0001
1000
,  // measure 61
0010
0100
0001
1000
0100
0000
0010
0001
,  // measure 62
0100
0010
0100
0001
0010
0000
0100
1000
,  // measure 63
0001
0000
0100
0000
0010
0000
1000
0000
0100
0000
0000
0010
0100
0010
0100
0020
,  // measure 64
0000
0030
0000
0000
;

//---------------dance-single - Alex----------------
#NOTES:
     dance-single:
     Alex:
     Challenge:
     9:
     0.639696,0.671158,0.250705,0.132317,0.727741,643.000000,599.000000,36.000000,19.000000,32.000000,4.000000,0.639696,0.671158,0.250705,0.132317,0.727741,643.000000,599.000000,36.000000,19.000000,32.000000,4.000000:
0000
0000
0000
0000
,
0000
0000
0000
0000
,
0000
0000
0000
0000
,
0000
0000
0000
0000
0000
0000
0000
0000
1001
0000
0000
0001
0100
0010
1000
0200
,
0000
0300
1000
0000
0010
0100
0000
0100
0001
0000
1000
0100
1000
0000
0001
0000
,
0010
0000
0001
0000
0100
0010
1000
0000
0001
0000
0010
0001
0010
0000
0001
0000
,
0100
0000
0010
0000
1000
0100
0010
0001
1000
0000
0010
0100
0001
0000
1000
0000
,
0100
0000
1000
0010
1000
0000
0010
0000
0100
0000
0001
0010
0100
0000
1000
0000
,
0001
0000
0100
0000
0100
0010
0100
0001
0010
0000
0200
0000
0000
0300
1000
0000
,
0010
1000
0010
2000
0000
0000
3001
0100
0001
0000
1000
0000
0010
0000
0100
0000
,
0001
0000
0000
0000
0000
0000
1000
0000
0000
0200
0000
0000
0000
0000
0000
0000
0000
0000
0310
0000
0000
0000
0000
0000
0001
0000
0000
0000
0100
0000
0000
0000
0010
0000
0000
0000
1000
0000
0000
0000
0100
0000
0000
0000
0010
0000
0000
0000
,
0001
0000
0000
0101
0000
0000
0010
1000
0100
0000
0010
0000
0001
0000
0100
0001
,
0100
0000
0000
0000
0000
0000
0000
0000
0000
0110
0000
0000
0000
0000
0000
0000
0000
0000
2020
0000
0000
0000
0000
0000
0000
0000
0000
0000
0000
0000
3030
0000
0000
0000
0000
0000
0010
0000
0000
0000
0100
0000
0000
0000
0010
0000
0000
0000
,
1000
0000
0000
0001
0000
0000
1000
0000
0001
0000
0100
0000
0001
0000
1000
0000
0010
0000
0100
0000
0001
0000
1000
0000
,
0100
0020
0000
0000
0000
0030
0000
0000
0001
0010
0001
0100
,
0010
0000
0000
0000
0000
0000
0000
0000
0000
0000
0000
0000
0010
0000
0000
0000
0100
0000
0000
0000
0001
0000
0000
0000
1000
0000
0000
0000
0100
0000
0000
0000
0010
0000
0000
0000
0001
0000
0000
0000
0000
0000
0000
0000
0000
1000
0000
0000
,
0001
0000
0100
0000
0010
0000
1000
0000
1100
0000
0100
1000
0100
0000
0010
0000
,
0001
0000
0100
0001
0100
0000
0010
0000
1000
0000
0001
1000
0001
0000
1000
0000
,
0010
0000
1000
0010
1000
0000
0010
0000
0100
0000
0001
0100
0001
0000
0001
0010
,
0100
0000
0000
1000
0000
0000
0020
0000
0000
0000
0000
0000
0000
0000
0000
0000
0000
0000
0030
0000
0000
0000
0000
0000
1010
0000
0000
0000
0110
0000
0000
0000
0101
0000
0000
0000
0011
0000
0000
0000
0000
0000
0000
0000
0000
0000
0000
0000
,
1111
0000
0000
M000
00M0
0000
0M00
0000
000M
0000
M000
0000
00M0
0000
0M00
0000
000M
0000
M000
0000
000M
0000
0000
0000
1000
0000
0000
0000
0000
0000
0010
0000
0000
1000
0000
0000
0010
0000
0000
0000
0000
0000
0100
0000
0000
0000
0000
0000
,
0001
0000
0010
0100
1000
0000
0002
0000
0103
0000
0010
1000
0100
0000
0010
0000
,
0001
0000
1000
0010
0100
0001
0020
0000
0130
0000
1000
0010
1000
0000
0001
0000
,
0001
0000
0100
0001
0100
0000
0020
0000
1030
0000
1000
0100
1000
0000
0010
0000
,
0100
0000
0001
0010
0100
1000
0001
0100
0010
0000
0010
0100
0001
0000
0001
1000
,
0010
0000
0010
1000
0100
1000
0010
0100
0001
0000
0010
0100
1000
0000
0001
0100
,
0010
0000
1000
0100
0010
0100
1000
0001
0100
0000
0001
0100
0001
0000
0010
0001
,
0010
0000
0001
0100
0010
0100
0001
0010
0100
0000
0000
0000
1001
0000
0000
0000
,
1111
0000
0000
0000
MMMM
0000
0001
1000
0001
0000
1000
0010
1000
0000
0010
0000
,
0100
0000
0101
0000
0011
0000
0001
0010
0100
0000
1000
0010
0100
0000
0001
0000
,
1000
0000
1100
0000
0011
0000
0001
0100
0001
1000
0010
0100
0001
1000
0100
0010
,
0001
0000
0011
0000
1100
0000
0001
0100
0001
0000
1000
0010
1000
0000
0001
0010
,
0100
1000
0001
0100
0020
0000
1030
0000
1000
0000
0100
1000
0100
0000
0010
0000
,
0001
0000
0100
0001
0100
0000
0010
0000
1000
0000
0001
1000
0001
0000
1000
0000
,
0010
0000
0010
0100
0010
0000
1000
0000
0001
0000
0010
0001
0010
0000
0001
0100
,
0001
0000
1000
0010
1000
0000
1010
0000
0010
0000
0010
0100
0001
0000
1000
0100
,
0010
0000
0000
0000
0000
0000
0001
0000
0000
0100
0000
0000
0010
0000
0000
0000
0000
0000
1000
0000
0000
0000
0000
0000
2002
0000
0000
0000
0000
0000
3003
0000
0000
0000
0000
0000
0001
0000
0000
0000
1000
0000
0000
0000
0001
0000
0000
0000
,
1000
0000
0000
0001
0000
0000
1000
0000
0010
0000
0100
0000
0001
0000
1000
0000
0001
0000
0010
0000
0001
0000
0100
0000
,
0010
0000
0000
1000
0000
0000
0001
0000
0000
0010
0000
0000
0001
0000
0000
0100
0000
0000
0010
0000
0100
0000
0001
0000
,
0100
0000
0000
0000
0000
0000
0010
0000
0000
0000
0000
0000
1000
0000
0000
0000
0001
0000
0000
0000
0100
0000
0000
0000
0001
0000
0000
0000
1000
0000
0000
0000
0010
0000
0000
0000
0100
0000
0000
0000
0000
0000
0000
0000
0000
0010
0000
0000
,
0100
0000
0010
0000
1000
0000
1001
0000
0001
0000
0100
0001
0100
0000
0010
0000
,
1000
0000
0010
1000
0010
0000
1000
0000
0001
0000
0010
0100
1000
0000
0001
0000
,
0100
0000
0010
0100
0010
0000
1000
0000
0001
0010
0000
0010
0001
0000
0001
0100
,
0010
0000
0000
1000
0000
0000
0200
0000
0000
0000
0000
0000
0000
0000
0000
0000
0000
0000
0300
0000
0000
0000
0000
0000
0011
0000
0000
0000
0101
0000
0000
0000
0110
0000
0000
0000
1010
0000
0000
0000
0000
0000
0000
0000
0000
0000
0000
0000
,
1111
0000
0000
0000
00M0
0000
0M00
0000
000M
0000
M000
0000
0000
0000
00MM
0000
0M00
0000
M000
0000
0M00
0000
0000
0000
0001
0000
0000
0000
0000
0000
1000
0000
0000
0001
0000
0000
1000
0000
0000
0000
0000
0000
0010
0000
0000
0000
0000
0000
,
0100
0000
0001
0010
0100
1000
0020
0000
1030
0000
1000
0100
1000
0000
0010
0000
,
0100
0000
0001
0010
0001
0100
0020
0000
0130
0000
0001
1000
0100
0000
0010
0000
,
0001
0000
1000
0010
0100
0001
2000
0000
3100
0000
0100
1000
0100
0000
0100
0000
,
0010
0000
0001
0100
0010
0100
0001
0010
0100
0000
0100
0010
0001
0000
0001
1000
,
0010
0000
0010
1000
0001
0100
0001
1000
0100
0000
0100
1000
0010
0000
0010
0100
,
0001
0000
0001
0010
0001
0100
0010
0100
0001
0000
0001
1000
0100
0000
0100
1000
,
0001
0000
0001
1000
0010
0100
0001
4000
0400
0000
0000
0000
0000
0000
0000
0000
,
3300
0000
1000
0000
0010
0000
0100
0000
0001
0000
1000
0001
1000
0000
0001
0000
,
0011
0000
0001
0100
0001
0000
0100
0000
0010
1000
0010
1000
0010
0100
0000
0101
,
0000
0000
0001
0000
0010
0000
0100
0000
1000
0000
0001
0100
0001
0000
1000
0000
,
0010
0000
0100
0010
0100
0000
0001
0000
1000
0010
1000
0010
1000
0010
0000
1010
,
0000
0000
0010
0000
0100
0000
0001
0000
0010
0000
0100
1000
0001
0000
0100
0000
,
0010
0000
1000
0100
1000
0000
0010
0000
0100
0001
0100
0001
0100
0001
0000
0101
,
0000
0000
0001
0000
0001
0000
0010
0000
0100
0000
1000
0010
1000
0000
0010
0000
,
0100
0000
0000
0000
0000
0000
0001
0000
0000
0100
0000
0000
0001
0000
0000
0000
0000
0000
0010
0000
0000
0000
0000
0000
0110
0000
0000
0000
1100
0000
0000
0000
1010
0000
0000
0000
0110
0000
0000
0000
0000
0000
0000
0000
0000
0000
0000
0000
,
1111
0000
0000
0000
000M
0000
M000
0000
00M0
0000
0M00
0000
000M
0000
00M0
0000
0M00
0000
M000
0000
000M
0000
0000
0000
1000
0000
0000
0000
0000
0000
0010
0000
0000
1000
0000
0000
0000
0000
0000
1000
0000
0000
0010
0000
0000
1000
0000
0000
,
0010
0000
0100
0000
0001
0000
0010
0000
0100
0000
0010
0001
0000
0001
0100
0010
,
0100
0000
0001
0000
0010
0000
0100
0000
1000
0000
0001
1000
0000
1000
0001
1000
,
0001
0000
0100
0000
0010
0000
1000
0000
1001
0000
0000
0001
0100
0001
0010
0200
,
0000
0300
0000
0000
;
