#TITLE:Answer;
#SUBTITLE:;
#ARTIST:Ateez;
#TITLETRANSLIT:;
#SUBTITLETRANSLIT:;
#ARTISTTRANSLIT:;
#GENRE:;
#CREDIT:;
#BANNER:Answer.png;
#BACKGROUND:Answer-BG.png;
#LYRICSPATH:;
#CDTITLE:;
#MUSIC:Answer.ogg;
#OFFSET:-0.342000;
#SAMPLESTART:41.903000;
#SAMPLELENGTH:28.202000;
#SELECTABLE:YES;
#BPMS:0.000000=98.000000
;
#STOPS:
;
#BGCHANGES:4.000=Answer.avi=1.000=1=0=0=StretchNoLoop==CrossFade==,
99999=-nosongbg-=1.000=0=0=0 // don't automatically add -songbackground-
;
#KEYSOUNDS:;
#ATTACKS:;

//---------------dance-single - Alex----------------
#NOTES:
     dance-single:
     Alex:
     Beginner:
     1:
     0.084826,0.119454,0.062871,0.041914,0.000000,85.000000,76.000000,9.000000,6.000000,0.000000,0.000000,0.084826,0.119454,0.062871,0.041914,0.000000,85.000000,76.000000,9.000000,6.000000,0.000000,0.000000:
0000
0000
0000
0000
,
0001
0000
0000
0000
,
1000
0000
0000
0000
,
0010
0000
0000
0000
,
0100
0000
0000
0000
,
0001
0000
0001
0000
,
1000
0000
0000
0000
,
1000
0000
1000
0000
,
0001
0000
0000
0000
,
1001
0000
0000
0000
0000
0000
0000
0020
,
0000
0030
0000
0000
0000
0000
0000
0200
,
0000
0300
0000
0000
0000
0000
0000
0002
,
0000
0003
0000
0000
0000
0000
0000
0000
,
0101
0000
0100
0000
,
0010
0000
0010
0000
,
1000
0000
1000
0000
,
1001
0000
0000
0000
,
0001
0000
0001
0000
,
0001
0000
0000
0000
,
1000
0000
1000
0000
,
1000
0000
0000
0000
,
0010
0000
0010
0000
,
0010
0000
0000
0000
,
0100
0000
0100
0000
,
0100
0000
0000
0000
,
0011
0000
0000
0000
,
0001
0000
0000
0000
,
1000
0000
0000
0000
,
1000
0000
0000
0000
,
0001
0000
0000
0000
,
0100
0000
0000
0000
,
0010
0000
0000
0000
,
0010
0000
0010
0000
,
0110
0000
0000
0000
,
0100
0000
0000
0000
,
0001
0000
0000
0000
,
1000
0000
0000
0000
,
0100
0000
0000
0000
,
0010
0000
0000
0000
,
0001
0000
1000
0000
,
0001
0000
1000
0000
,
1001
0000
0000
0000
0000
0000
0000
0002
,
0000
0003
0000
0000
0000
0000
0000
2000
,
0000
3000
0000
0000
0000
0000
0000
0020
,
0000
0030
0000
0000
0000
0000
0000
0000
,
0110
0000
0010
0000
,
1000
0000
0001
0000
,
1000
0000
1000
0000
,
1001
0000
0000
0000
,
0010
0000
0010
0000
,
0010
0000
0000
0000
,
1000
0000
1000
0000
,
1000
0000
0000
0000
,
0001
0000
0001
0000
,
0001
0000
0000
0000
,
0100
0000
0100
0000
,
0100
0000
0000
0000
,
0110
0000
0000
0000
;

//---------------dance-single - Alex----------------
#NOTES:
     dance-single:
     Alex:
     Easy:
     4:
     0.218550,0.238909,0.069856,0.181626,0.000000,219.000000,209.000000,10.000000,26.000000,0.000000,0.000000,0.218550,0.238909,0.069856,0.181626,0.000000,219.000000,209.000000,10.000000,26.000000,0.000000,0.000000:
0000
0000
0000
0000
,
0010
0010
0010
0000
,
1000
1000
1000
0000
,
0001
0001
0001
0000
,
0100
0100
0100
0000
,
0001
1000
0001
0000
,
1000
0001
1000
0000
,
0010
0100
0010
0000
,
1000
0001
0010
0100
,
2100
0000
0000
0000
0000
0000
3000
0020
,
0030
0200
0000
0000
0000
0000
0300
0002
,
0003
2000
0000
0000
0000
0000
3000
0002
,
0003
0020
0030
0200
0300
2000
3000
0001
,
0100
0010
1000
0001
,
0010
0001
0100
0100
,
0010
1000
0100
0010
,
0001
1000
0001
1000
2002
0000
3003
0000
,
0001
0100
0010
1000
,
0100
0010
0100
1000
,
0001
0100
0100
0010
,
1000
0001
0010
0100
,
1100
1000
0001
0010
,
0001
0100
0010
1000
,
0100
1000
0001
0001
,
0100
0000
0010
1000
0001
0000
1001
0000
,
0001
0001
1000
1000
,
0010
0000
0010
0000
0100
0010
0100
0000
,
0001
0001
0010
0010
,
0100
0000
1000
0000
0001
0000
0100
0010
,
1000
0001
0010
0100
,
1000
0000
1000
0000
0001
0000
0001
1000
,
0001
0100
0100
0010
,
1000
0000
0001
0000
0010
0000
0100
1000
,
0002
0003
2000
3000
,
0020
0030
0200
0300
,
0101
0000
1010
0000
,
1001
0000
0110
0000
,
0010
1000
0010
0010
,
1000
0001
1000
1000
,
0001
0010
0100
1000
,
0001
0000
0100
0000
0100
0000
0010
0100
,
0002
0000
0000
0000
0000
0000
0003
2000
,
3000
0020
0000
0000
0000
0000
0030
0200
,
0300
0002
0000
0000
0000
0000
0003
0020
,
0030
0200
0300
2000
3000
0002
0003
0100
,
0010
1000
0001
0010
,
0010
0001
0100
0100
,
0010
1000
0100
0010
,
0001
1000
0001
1000
2002
0000
3003
0000
,
0001
0100
0001
0001
,
0010
0000
0100
0000
1000
0000
0010
1000
,
0001
0001
0100
0100
,
0010
0000
1000
0000
0100
0000
0010
0001
,
0100
0010
1000
0001
,
0010
0000
0001
0000
0100
0000
0010
1000
,
0100
1000
0010
0100
,
0100
0001
0010
0100
,
1100
0000
0000
0000
;

//---------------dance-single - Alex----------------
#NOTES:
     dance-single:
     Alex:
     Medium:
     6:
     0.265454,0.278727,0.076842,0.125741,0.000000,266.000000,255.000000,11.000000,18.000000,0.000000,0.000000,0.265454,0.278727,0.076842,0.125741,0.000000,266.000000,255.000000,11.000000,18.000000,0.000000,0.000000:
0000
0000
0000
0000
,
0001
1000
0001
0001
,
1000
0010
1000
1000
,
0001
0010
0100
0100
,
1000
0001
0100
0100
,
0001
0010
0001
0000
0100
0000
0010
0000
,
1000
0100
1000
0000
0010
0000
0100
0000
,
0001
1000
0001
0000
0100
0000
0010
0000
,
1000
0100
1000
0001
1000
0000
1001
0000
,
0020
0000
0000
0000
0000
0000
0030
2000
,
3000
0002
0000
0000
0000
0000
0003
0200
,
0300
0020
0000
0000
0000
0000
0030
2000
,
3000
0200
0300
0020
0030
0002
0003
0100
,
0010
0000
1000
0000
0001
0000
0010
0001
,
0010
0000
0001
0000
0100
0000
0010
1000
,
0010
0000
1000
0000
0100
0000
0010
0001
,
0100
0000
0010
1000
0100
0010
0001
0000
,
0101
0000
0001
0000
0100
0000
0010
1000
,
0010
0000
1000
0000
0001
0000
0100
0010
,
0100
0000
0001
0000
0010
0000
0100
1000
,
0001
0000
0100
0000
0100
0000
0010
1000
,
0001
0000
0010
0000
0001
0000
0100
0010
,
1000
0000
0100
0000
0010
0000
0001
0100
,
0001
0000
1000
0000
1000
0000
0010
1000
,
0010
0000
1000
0100
1100
0000
0011
0000
,
0001
0001
1000
1000
,
0010
0100
0010
0000
1000
0001
1000
0001
,
0100
0010
1000
0001
,
0010
0000
0100
0000
1000
0001
0100
0010
,
1000
1000
0001
0001
,
0100
0010
0100
0000
0001
0010
0001
0100
,
0010
1000
1000
0001
,
0001
0000
0100
0010
0100
0010
0100
0010
,
0100
0000
0110
0000
,
0010
0000
1001
0000
,
0001
0000
0101
0000
,
0010
0000
1010
0000
,
1000
0010
1000
0000
0010
1000
0010
0000
,
0100
0001
0100
0000
0001
0010
0001
0000
,
0100
0010
1000
1000
,
0001
0010
0001
0010
0001
0000
0011
0000
,
0002
0000
0000
0000
0000
0000
0003
2000
,
3000
0200
0000
0000
0000
0000
0300
0020
,
0030
0002
0000
0000
0000
0000
0003
0200
,
0300
0020
0030
2000
3000
0002
0003
0100
,
0010
0000
1000
0000
0001
0010
0001
0000
,
1000
0000
0100
0000
1000
0100
1000
0000
,
0010
0000
0100
0000
0001
1000
0001
0000
,
1000
0010
1000
0010
1000
0000
1010
0000
,
0010
0000
0100
0000
0001
1000
0001
0000
,
1000
0000
0010
0000
1000
0010
1000
0000
,
0010
0000
0100
0000
0001
0010
0001
0000
,
0100
0000
0010
0000
1000
0100
0010
0000
,
0011
0000
0001
0000
0100
0000
0001
1000
,
0001
0000
1000
0000
0010
0000
1000
0010
,
1000
0000
0010
0000
0100
0000
0001
0010
,
0001
0000
1000
0001
1000
0001
1000
0001
,
0100
0000
0000
0000
;

//---------------dance-single - Alex----------------
#NOTES:
     dance-single:
     Alex:
     Hard:
     7:
     0.364251,0.338454,0.111770,0.041914,0.000000,365.000000,349.000000,16.000000,6.000000,0.000000,0.000000,0.364251,0.338454,0.111770,0.041914,0.000000,365.000000,349.000000,16.000000,6.000000,0.000000,0.000000:
0000
0000
0000
0000
,
0001
0100
0001
0000
0010
0100
0010
0001
,
0000
1000
0010
0000
0100
0001
1000
0100
,
0000
0100
1000
0000
0010
0100
0001
0010
,
0000
0001
0100
0000
0010
1000
0001
0010
,
0001
0100
0001
0000
1000
0010
1000
0000
,
0010
0100
0001
1000
0100
0000
0100
0000
,
1000
0010
1000
0000
0001
0100
0001
0000
,
0010
0100
1000
0001
0100
0010
0010
1000
,
1002
0000
0003
1000
0010
0100
0001
0010
,
0000
0110
0000
0100
1000
0001
0100
0001
,
0000
0010
0000
0001
0100
0010
1000
0100
,
0000
1000
0000
1010
0000
1001
0000
0001
,
0100
0001
0010
0100
1000
0001
0100
0010
,
0000
0010
1000
0010
0100
0100
0001
0001
,
0000
1000
0100
1000
0010
0100
0001
2000
,
0000
3000
0001
0100
0010
1000
1001
0000
,
0001
0000
0010
0100
1000
0000
0001
0100
,
0001
0000
1000
0010
0100
0000
0001
0010
,
0001
0000
1000
0100
1000
0000
0010
0100
,
0010
0000
0100
0001
1000
0000
1001
0000
,
0110
0000
0010
1000
0001
0000
0010
0001
,
0100
0000
0010
1000
0100
0000
0010
0100
,
0010
0000
0001
0100
0001
0000
1000
0010
,
1000
0000
0001
0100
0101
0000
1010
0000
,
0010
0000
1000
0100
0010
0000
0001
0100
,
0010
0100
0100
0000
0010
1000
0001
0001
,
1000
0000
0010
1000
0001
0000
0100
0001
,
1000
0000
0001
0010
0100
1000
0001
0100
,
0101
0000
0001
0100
0001
0000
1000
0010
,
1000
0000
0010
0100
0001
1000
0100
0010
,
0001
0000
0001
0100
0010
0000
0100
0010
,
1000
0000
0001
0010
0100
1000
0010
0100
,
0102
0000
1000
0000
1000
0000
0103
0100
,
0020
0000
1000
0000
0100
0000
1030
1000
,
0002
0000
0010
0000
0100
0000
0013
0010
,
0100
0000
0000
1000
0010
0100
0001
1000
,
1001
0000
0001
0100
0001
0000
1000
0010
,
1000
0000
0001
0100
0010
0000
1000
0100
,
0010
0000
0010
0001
0100
0100
0010
0010
,
1000
0001
0010
0100
1000
0001
0100
0010
,
2000
0000
3000
0010
0100
0001
1000
0100
,
0000
0100
0000
1000
0010
0100
0001
0010
,
0000
0010
0000
0001
0100
0001
0010
0100
,
0000
1000
0000
1001
0000
0110
0000
0010
,
0100
0001
0001
1000
1000
0100
0010
0001
,
0000
0100
0010
1000
0001
0010
0001
1000
,
0000
1000
0010
0100
0001
1000
0100
0010
,
0001
0001
0100
0010
1000
0001
1001
0000
,
0001
0000
0001
1000
0010
0000
0100
0001
,
0010
0000
0100
1000
0100
0000
1000
0010
,
1000
0000
0001
0100
0001
0000
0010
0100
,
0010
0000
0001
0100
0010
1000
0001
0010
,
0100
0000
1000
0001
1000
0000
0010
1000
,
0010
0000
1000
0100
0010
0000
0001
0100
,
0001
0000
0010
0100
1000
0001
0100
0010
,
1000
0000
0001
0100
0100
0010
1000
0001
,
1001
0000
0000
0000
;

//---------------dance-single - Alex----------------
#NOTES:
     dance-single:
     Alex:
     Challenge:
     10:
     0.623717,0.696817,0.405167,0.426123,0.674113,625.000000,565.000000,58.000000,61.000000,0.000000,2.000000,0.623717,0.696817,0.405167,0.426123,0.674113,625.000000,565.000000,58.000000,61.000000,0.000000,2.000000:
// measure 0
0000
0000
0000
0000
,  // measure 1
1000
0010
0100
0001
0010
0000
0000
0001
0100
0010
0100
0001
0010
0100
0110
0000
,  // measure 2
0010
0001
0100
0010
1000
0000
0000
0001
1000
0100
1000
0001
0100
0010
0110
0000
,  // measure 3
0010
1000
0001
0010
0001
0000
0000
0001
0100
0010
0100
0001
0010
0100
1100
0000
,  // measure 4
1000
0010
1000
0100
1000
0000
0010
0100
0001
0010
0100
0010
0001
0100
0010
0000
,  // measure 5
1000
0000
0001
0100
0001
0000
1000
0010
0000
0010
1000
0100
1000
1000
0010
0100
,  // measure 6
0000
0100
0001
0010
0100
1000
0001
0100
0010
0000
1010
0000
0101
0000
0000
0000
,  // measure 7
0001
0000
0010
0100
1000
0001
0100
0010
0000
1000
0010
0100
0001
1000
0001
0000
,  // measure 8
0001
1000
0010
0100
0001
0010
0001
0100
0100
0010
0010
1000
0001
1000
1001
0000
,  // measure 9
0102
0000
0000
0000
0000
0003
0020
0000
2030
0000
3200
0000
0302
0000
0023
0000
,  // measure 10
0000
0230
0000
2300
3020
0032
0203
2300
,  // measure 11
0000
3020
0000
0230
0302
0023
0230
0302
,  // measure 12
0000
0000
0023
0000
0000
0000
2030
0000
0000
0000
3200
0000
0000
0000
0310
0001
,  // measure 13
0100
0000
0010
1000
0100
0000
1000
0000
1010
0000
0101
0000
0011
0000
0101
0000
,  // measure 14
0010
0000
1000
0001
0100
0000
0010
0000
1010
0000
0110
0000
0101
0000
0011
0000
,  // measure 15
0001
0010
0001
0100
0001
0010
0100
0010
0001
0100
0010
1000
0100
0010
0100
1000
,  // measure 16
0004
4000
0000
0000
0000
0000
0000
0000
0000
0000
0000
0000
3003
0000
0000
0000
,  // measure 17
0001
0000
0100
0001
0100
0000
0010
1000
0010
0000
1000
0100
1000
0000
0100
0000
,  // measure 18
0010
0000
0001
0100
0010
0000
1000
0001
0100
0000
0010
1000
0001
0010
0001
0100
,  // measure 19
0010
0000
0010
1000
0100
0000
0100
1000
0010
0000
0100
0001
0010
0000
0001
0000
,  // measure 20
0100
0000
0100
0001
0010
0000
0010
0100
1000
0000
1000
0001
0100
0000
0010
0000
,  // measure 21
0100
0000
0001
0010
0001
0000
1000
0010
1000
0000
0001
0100
0001
0000
0010
0000
,  // measure 22
0100
0000
1000
0010
0100
0000
0001
0010
0001
0000
1000
0010
0100
0001
1000
0100
,  // measure 23
0000
0100
0010
0001
0000
0011
0000
0101
0000
0110
0000
1010
0000
1100
0000
0011
,  // measure 24
0001
0000
0001
0100
0110
0000
0110
0000
1001
0000
0000
0000
1111
0000
0000
0000
,  // measure 25
0001
0000
0100
0001
0100
0000
0010
1000
0010
0000
1000
0100
1000
0000
0001
0100
,  // measure 26
0001
0000
0001
0100
0010
0100
0001
0000
0001
1000
0010
0100
0101
0000
1010
0000
,  // measure 27
0010
0000
1000
0100
1000
0000
0001
0010
0001
0000
0100
0001
0100
0000
0010
1000
,  // measure 28
0001
0000
0001
2000
0000
3020
0000
0230
0000
0302
0000
0023
0000
2030
0000
3010
,  // measure 29
0001
0000
0100
0001
0100
0000
0001
0010
0001
0000
1000
0010
1000
0000
0001
0100
,  // measure 30
0001
0000
0010
0100
1000
0001
0100
0000
0010
1000
0001
0010
0001
0100
0010
1000
,  // measure 31
0000
0001
0100
0101
0000
0110
0000
1010
0000
1100
0000
0110
0000
0011
0000
0101
,  // measure 32
0001
0000
0010
0100
2000
0000
3002
0000
0023
0000
2030
0000
3020
0000
0032
0000
,  // measure 33
1103
0000
1000
0010
0110
0000
0101
0011
,  // measure 34
0000
0001
0100
0010
1010
0000
1001
0110
,  // measure 35
0000
0010
0100
0001
0010
0000
0011
1100
,  // measure 36
0000
0000
0001
0000
0100
0000
0010
1000
0100
0000
0100
0010
0001
0000
0001
2000
,  // measure 37
0000
3000
0010
0100
0001
0000
1000
0100
0010
0000
0001
0100
0001
1000
0010
0000
,  // measure 38
0110
0000
0010
0100
0001
0000
0001
1000
0100
0000
1000
0010
0100
0001
0010
0000
,  // measure 39
0011
0000
0001
0100
0001
0010
0100
0000
0100
0010
0001
0100
0110
0000
1010
0000
,  // measure 40
0010
0000
1000
0000
0100
0000
1000
0000
0010
0000
0100
0000
0001
0000
0010
0000
0100
0000
1000
0000
0001
0000
0100
0001
0100
0000
0110
0000
1001
0000
0000
0000
,  // measure 41
1020
0000
0000
2030
3200
0302
0203
2300
,  // measure 42
0000
3020
0000
0230
0302
0023
2030
3020
,  // measure 43
0000
0032
0000
0203
2300
3200
0320
2030
,  // measure 44
0000
3020
0000
0032
0000
0203
0000
1300
,  // measure 45
0010
0000
1000
0001
0100
0000
0001
0010
0001
0000
0100
0010
0100
0000
0010
0000
,  // measure 46
1000
0000
0001
0010
0001
0000
0100
0001
0100
0000
0010
1000
0010
0000
1000
0000
,  // measure 47
0100
0010
0001
0100
0010
1000
0001
0010
0001
0100
0010
1000
0100
0100
1000
1000
,  // measure 48
0004
0040
0000
0000
0000
0000
0000
0000
0000
0000
0000
0000
0033
0000
0000
0000
,  // measure 49
0001
0000
0010
0001
0100
0000
0010
1000
0100
0000
0100
1000
0010
0000
0100
0000
,  // measure 50
0001
0000
0010
0001
0010
0000
0001
0100
0001
0000
1000
0010
1000
0000
0010
0000
,  // measure 51
0100
0000
0001
0100
0010
0000
1000
0100
0010
0000
0010
0100
1000
0000
0001
0000
,  // measure 52
1000
0000
1000
0010
1000
0000
0001
0010
0001
0000
0100
0001
0100
0000
0110
0000
,  // measure 53
1001
0000
0001
0100
0001
0000
0010
0100
0010
0000
0001
1000
0001
0000
1000
0000
,  // measure 54
1000
0000
0010
0100
0010
0000
1000
0100
1000
0000
0001
0010
0001
0000
0100
0010
,  // measure 55
0100
0000
0001
0020
0000
2030
0000
3200
0000
0302
0000
0023
0000
0032
0000
0103
,  // measure 56
1000
0000
0100
1000
0010
0000
0110
0000
0101
0000
0011
0000
1001
0000
1010
0000
,  // measure 57
1001
0000
0000
0000
;
