#TITLE:All In;
#SUBTITLE:(Japanese Ver.);
#ARTIST:Stray Kids;
#TITLETRANSLIT:;
#SUBTITLETRANSLIT:;
#ARTISTTRANSLIT:;
#GENRE:;
#CREDIT:;
#MUSIC:All In.ogg;
#BANNER:All In.png;
#BACKGROUND:All In-BG.png;
#CDTITLE:;
#SAMPLESTART:55.773;
#SAMPLELENGTH:20.706;
#SELECTABLE:YES;
#OFFSET:-0.039;
#BPMS:0.000=140.000
,130.000=210.000
,131.750=70.000
,132.000=140.000
,264.000=210.000
,265.750=70.000
,266.000=140.000
;
#STOPS:130.000=2.679
,264.000=2.698
;
#BGCHANGES:2.000=All In.avi=1.000=1=0=0=StretchNoLoop==CrossFade==,
298.500=All In-BG.png=1.000=1=0=1===CrossFade==,
99999.000=-nosongbg-=1.000=0=0=0=StretchNoLoop====
;
#FGCHANGES:;

//--------------- dance-single - Alex ----------------
#NOTES:
     dance-single:
     Alex:
     Beginner:
     1:
     0.074957,0.110041,0.072875,0.014575,0,72,62,10,2,0,0,0.074957,0.110041,0.072875,0.014575,0,72,62,10,2,0,0:
0000
0000
0000
0000
,
0000
0000
0000
0000
,
0000
0000
0000
0000
,
0000
0000
0000
0000
,
0000
0000
0110
0000
,
0000
0000
0010
0000
,
0000
0000
1000
0000
,
0000
0000
1000
0000
,
0000
0000
0001
0000
,
0000
0000
1000
0000
,
0000
0000
0001
0000
,
0000
0000
1000
0000
,
0000
0000
0010
0000
,
0000
0000
0100
0000
,
0000
0000
0100
0000
,
0000
0000
0001
0000
,
0000
0000
1001
0000
,
0000
0000
1000
0000
,
0000
0000
0010
0000
,
0000
0000
1000
0000
,
0000
0000
0001
0000
,
0000
0000
0001
0000
,
0000
0000
0100
0000
,
0000
0000
0100
0000
,
0000
0000
0110
0000
,
0000
0000
0000
0000
,
0000
0000
1001
0000
,
0000
0000
0000
0000
,
0000
0000
1010
0000
,
0000
0000
0000
0000
,
0000
0000
0101
0000
,
0000
0000
0000
0000
,
0000
0000
0000
0000
,
0001
0000
0000
0000
,
1000
0000
0000
0000
,
0100
0000
0000
0000
,
1000
0000
0000
0000
,
0010
0000
0000
0000
,
0100
0000
0000
0000
,
0001
0000
0000
0000
,
0001
0000
0000
0000
,
1000
0000
0000
0000
,
0001
0000
0000
0000
,
0100
0000
0000
0000
,
0001
0000
0000
0000
,
0010
0000
0000
0000
,
0001
0000
0000
0000
,
1000
0000
0000
0000
,
1000
0000
0000
0000
,
0010
0000
0000
0000
,
2000
0000
0000
0000
,
3000
0000
0000
0000
,
0002
0000
0000
0000
,
0003
0000
0000
0000
,
0001
0000
0000
0000
,
1000
0000
0000
0000
,
1000
0000
0000
0000
,
0010
0000
0000
0000
,
1001
0000
0000
0000
,
0000
0000
0000
0000
,
0110
0000
0000
0000
,
0000
0000
0000
0000
,
0011
0000
0000
0000
,
0000
0000
0000
0000
,
1100
0000
0000
0000
,
0000
0000
0000
0000
,
0000
0000
1000
0000
,
0000
0000
1000
0000
,
0000
0000
0001
0000
,
0000
0000
0001
0000
,
0000
0000
0100
0000
,
0000
0000
0001
0000
,
0000
0000
1000
0000
,
0000
0000
0010
0000
,
0000
0000
0100
0000
,
0100
0000
0100
0000
;

//--------------- dance-single - Alex ----------------
#NOTES:
     dance-single:
     Alex:
     Easy:
     3:
     0.179065,0.220083,0.1166,0.02915,0,172,156,16,4,0,0,0.179065,0.220083,0.1166,0.02915,0,172,156,16,4,0,0:
0000
0000
0000
0000
,
0000
0000
0000
0000
,
0000
0000
0000
0000
,
0000
0000
0000
0000
,
0000
0000
0001
0000
,
0001
0000
0100
0000
,
0100
0000
0010
0000
,
1000
0000
0010
0000
,
1000
0000
1001
0000
,
0001
0000
0100
0100
,
0100
0000
0010
0000
,
1000
0000
0001
0001
,
0001
0000
1000
0000
,
0100
0000
1000
1000
,
1000
0000
0010
0000
,
0100
0000
1001
0000
,
0000
0000
0010
0100
,
0010
0000
1000
0000
,
0001
0000
0010
0001
,
0010
0000
0001
0000
,
1000
0000
0100
1000
,
0100
0000
1000
0000
,
1000
0000
0010
1000
,
0010
0000
1010
0000
,
1001
0000
0000
0000
,
0100
0100
0000
0000
,
0010
0010
0000
0000
,
0100
0100
0100
0000
,
0001
0000
1000
0000
,
0001
0001
0000
0000
,
1000
1000
0010
0000
,
0100
0000
0001
0000
,
1000
0000
0000
0000
,
0001
0000
1000
0000
,
0001
0000
1000
1000
,
1000
0000
0010
0000
,
0100
0000
0001
0001
,
1000
0000
1001
0000
,
0010
0000
0110
0000
,
0100
0000
0001
0000
,
0001
0000
1000
0000
,
1001
0000
0000
0000
,
0001
0000
1000
0000
,
0001
1000
0001
0000
,
1000
0000
0001
0000
,
1000
0100
1000
0000
,
0010
0000
0100
0000
,
0001
0000
0001
0000
,
0010
0000
0100
0000
,
1000
0000
0001
0000
,
2002
0000
3003
0000
,
0010
0010
0100
0100
,
2002
0000
3003
0000
,
0001
1000
0001
1000
,
1001
0000
0000
0000
,
0110
0000
0000
0000
,
1001
0000
0100
0000
,
1001
0000
0010
0000
,
0000
0000
0100
0100
,
0000
0000
0001
0001
,
0000
0000
1000
1000
,
1000
0000
0010
0000
,
0100
0000
0001
0001
,
0000
0000
1000
1000
,
0010
0000
0100
0000
,
0001
0000
1000
0000
,
0000
0000
0010
0000
,
0100
0000
0001
0000
,
1000
1000
0001
0000
,
1000
0000
0010
0000
,
0100
0100
0001
0000
,
1001
0000
1000
0000
,
1100
0000
0100
0000
,
1000
0000
0010
0000
,
0100
0000
0001
0001
,
0001
1000
1001
0000
;

//--------------- dance-single - Alex ----------------
#NOTES:
     dance-single:
     Alex:
     Medium:
     5:
     0.285254,0.332311,0.109313,0.072875,0.014575,274,259,15,10,8,0,0.285254,0.332311,0.109313,0.072875,0.014575,274,259,15,10,8,0:
0000
0000
0000
0000
,
0000
0000
0000
0000
,
0000
0000
0000
0000
,
0000
0000
0000
0000
,
0000
0000
1000
0010
,
1000
0000
0001
0100
,
0001
0000
0010
0100
,
1000
0010
0100
0000
,
1001
0000
0001
1000
,
0001
0000
1000
0010
,
1000
0000
0100
0010
,
0001
0100
0010
1000
,
0001
0000
0100
0010
,
0010
0000
1000
0001
,
1000
0000
0001
0100
,
0001
0000
0010
0100
,
1000
0001
1001
0001
,
1000
0010
0100
0100
,
0001
0000
0010
0100
,
1000
0001
0100
0001
,
0001
0000
1000
0010
,
1000
0010
0100
0001
,
0011
0000
0001
0001
,
0010
0100
1000
0001
,
1000
0010
0110
0000
,
0010
0100
0010
0100
0000
0000
0000
0000
,
0001
1000
0001
1000
0000
0000
0000
0000
,
0001
0100
0001
0010
,
0100
1000
1010
0000
,
0010
1000
0010
1000
0000
0000
0000
0000
,
0100
1000
0100
1000
0100
0000
1000
0000
,
0010
0100
0001
0010
,
0100
1000
MMMM
0000
,
0010
0010
0100
0001
,
0010
0100
1000
0000
,
0001
0100
0001
1000
,
0010
0100
0001
0000
,
1000
0000
0000
1000
0000
0000
1000
0000
2000
0000
0000
0000
3000
0000
0000
0000
,
0001
0000
0000
0001
0000
0000
0001
0000
0002
0000
0000
0000
0003
0000
0000
0000
,
0100
0010
1000
0001
,
0010
0001
0000
1000
0000
0010
0000
0000
,
1001
0000
0000
0000
0001
0100
0001
0100
,
0001
0000
1000
0010
,
0100
0000
0100
0000
0001
1000
0001
1000
,
0001
0000
1000
0100
,
1000
0000
1000
0000
0010
0100
0010
0100
,
0020
0000
0030
1000
,
0001
0100
0010
1000
,
0001
0010
0001
1000
,
0010
0010
0100
0100
,
2002
0000
0000
0000
0000
3003
0000
0000
,
0001
0100
0010
1000
,
2200
0000
0000
0000
0000
3300
0000
0000
,
0100
1000
0001
0100
,
0110
0000
0010
1000
,
1001
0000
0001
0100
,
0110
0000
0000
0000
0010
1000
0010
1000
,
0010
1000
0001
0100
,
0110
0000
0000
0000
0010
0100
0010
0100
,
0000
0000
0000
0000
0001
1000
0001
1000
,
0000
0000
0001
0010
,
0100
1000
0001
0100
,
0101
0000
0000
0000
0001
0100
0001
0100
,
0000
0000
0000
0000
0010
1000
0010
1000
,
0010
1000
0001
0100
,
0010
1000
0001
0100
,
MMMM
0000
0001
0001
,
0010
0100
1000
0001
,
0101
0000
0001
1000
,
0010
1000
0100
0010
,
0011
0000
0000
0000
0000
0000
0000
0000
0001
0000
0000
0001
0000
0000
0001
0000
,
0002
0000
0000
0000
0003
0000
0000
0000
0100
0000
0000
0100
0000
0000
0100
0000
,
0200
0300
0010
1000
,
0001
0000
0100
0000
0010
1000
0000
0001
,
0000
0100
0000
0000
0001
0000
1000
0000
,
0010
0000
0100
0001
2000
0000
0000
0000
,
3000
0000
0000
0000
;

//--------------- dance-single - Alex ----------------
#NOTES:
     dance-single:
     Alex:
     Hard:
     7:
     0.374786,0.415388,0.196763,0.131175,0.018219,360,333,27,18,0,0,0.374786,0.415388,0.196763,0.131175,0.018219,360,333,27,18,0,0:
0000
0000
0000
0000
,
0000
0000
0000
0000
,
0000
0000
0000
0000
,
0000
0000
0000
0000
,
0000
0000
0001
1000
,
0010
0000
0100
0001
0010
0000
0001
0000
,
1000
0100
0010
0001
1000
0000
1000
0000
,
0001
0000
0001
0100
0001
0000
1001
0000
,
0110
0000
0000
0000
0000
0000
0000
0000
0010
0000
0000
0100
0000
0000
0001
0000
,
0010
0000
0001
0000
1000
0100
1000
0010
,
0100
0100
0000
0000
0001
0000
1000
0000
,
0001
0010
0001
0000
0100
0010
1000
0100
,
0010
0000
0001
1000
,
1001
0000
0001
0000
0001
0100
0001
0010
,
0001
0100
0010
0000
1000
0000
0100
0000
,
1100
0000
0100
0000
1000
0010
1000
0001
,
0100
0010
1000
0000
1001
0000
0001
0000
,
0100
0010
0100
0000
0001
0000
0001
0010
,
0001
0000
1000
0000
0010
0100
0010
0000
,
1000
0001
1000
0000
0001
0000
0100
0000
,
0010
0100
0001
0000
1000
0000
0100
0000
,
0001
0000
0100
0000
1000
0010
0100
0000
,
0001
0010
0001
1000
0010
0000
0100
0000
,
0001
0000
0010
0000
0100
1000
0100
1000
,
0010
0100
0101
0000
,
0001
1000
0001
1000
0000
0000
0000
0000
,
0010
0100
0001
0100
0000
0000
0000
0000
,
0010
1000
0100
0010
0000
0000
0001
0000
,
1000
0000
0010
0000
1001
0000
0000
0001
,
0100
0001
1000
0010
0000
0000
0000
0100
,
0001
0010
0100
1000
0001
0000
1000
0000
,
0010
0100
0001
0010
,
0100
1000
0100
1000
0000
0000
2002
3003
,
0002
0000
0000
0000
0000
0003
0100
0020
,
0000
0000
0030
1000
0001
0100
0001
1000
,
0200
0000
0000
0000
0000
0300
1000
0020
,
0000
0000
0030
0100
0001
0010
0100
1000
,
0001
0000
0000
1000
0000
0000
0010
0000
0400
0000
0000
0000
0000
0000
0300
0000
,
0001
0000
0000
0010
0000
0000
0001
0000
4000
0000
0000
0000
0000
0000
3000
0000
,
0020
0000
0000
0000
0000
0030
0100
0001
,
0000
1001
0000
1001
0000
1001
0000
1001
,
0000
0000
0000
1000
0001
1000
0001
1000
,
0001
0000
0000
1000
0010
0100
0001
0000
,
0000
1000
0100
0010
0001
0100
0010
1000
,
0001
0000
0000
0001
0100
0001
0100
0000
,
0000
0010
1000
0010
1000
0100
1000
0010
,
0200
0000
0300
0010
,
0100
1000
0001
0000
1000
0010
1000
0001
,
1000
0001
0100
0010
,
1010
0000
0010
0000
0010
0100
0010
1000
,
0002
0000
0003
0000
,
1000
0001
0001
0010
0001
0100
0010
1000
,
0002
0000
0003
1001
,
1001
0101
1010
1100
,
0011
0000
0000
0000
0001
0010
0001
0010
,
0001
0000
0000
0000
0100
0001
1000
0010
,
0100
0000
0000
0001
0001
1000
0010
0100
,
0001
1000
0100
1100
,
0100
0000
0000
1000
0010
0100
0001
1000
,
0000
0000
0000
0001
0010
0001
0100
0001
,
0000
0000
0000
1000
0100
0010
0001
0100
,
0000
0010
1000
0001
,
1001
0000
0000
0001
1000
0001
0100
0001
,
0000
0000
0000
1000
0010
1000
0001
1000
,
0001
1000
0010
0100
,
0001
0010
0100
1000
,
1001
0000
0220
0330
0002
0000
0000
0000
,
0003
0000
1000
0020
0000
0000
0030
0100
,
0001
0010
0100
1000
0002
0000
0000
0000
,
0003
0000
1000
0020
0000
0000
0030
0100
,
0001
0000
1000
0000
0100
0000
1000
0000
0010
0000
0000
0010
0000
0000
0100
0000
,
0004
0000
0000
0000
0000
0000
0003
0000
1000
0000
0000
0100
0000
0000
1000
0000
,
0040
0000
0000
0030
2000
0000
0000
0000
,
3000
0000
0001
0100
0000
1001
0000
1001
,
0000
1001
0000
1001
0001
0000
0100
0000
,
0010
0000
1000
0001
0200
0000
0000
0000
,
0300
0000
0000
0000
;

//--------------- dance-single - Alex ----------------
#NOTES:
     dance-single:
     Alex:
     Challenge:
     9:
     0.579878,0.636929,0.510126,0.167613,0.251419,557,487,70,23,0,0,0.579878,0.636929,0.510126,0.167613,0.251419,557,487,70,23,0,0:
0000
0000
0000
0000
,
0000
0000
0000
0000
,
0000
0000
0000
0000
,
0000
0000
0000
0000
,
0000
0000
0011
0101
,
0110
0000
0010
1000
0100
0000
1100
0000
,
0100
0010
0001
0100
0110
0000
1001
0000
,
0011
0000
0001
0100
0001
0000
1001
0000
,
1000
0000
0010
0000
0100
0000
0001
0000
0010
0000
0100
0010
0000
0010
0100
0000
,
1001
0000
0110
0000
0000
0000
0001
0000
0010
0000
0001
0000
0100
0001
0100
0000
,
0001
0000
1000
0000
0000
0000
1000
0000
0010
0100
0010
0100
0010
0000
0100
0000
,
0001
0000
0010
0000
0001
1000
0000
1000
0001
0000
1000
0000
0010
0100
0010
0000
,
0101
0000
0000
0000
0000
0000
0110
0000
0000
0000
0000
0000
0000
0000
0000
0000
0000
0000
0000
0000
0000
0000
0000
0000
0010
0000
0000
0000
0100
0000
0000
0000
0001
0000
0000
0000
0010
0000
0000
0001
0000
0000
0010
0000
0000
0000
0000
0000
,
0001
1000
0100
1000
0001
0000
0001
0000
0100
0000
0010
0000
0100
0000
0001
0000
,
0010
0000
0100
0000
1000
0000
0001
1000
0001
1000
0001
0000
0100
0010
0000
0000
,
0110
0000
0000
0001
1000
0000
1000
0000
0100
0010
0001
0000
0100
0010
0100
0000
,
1000
0001
0000
0001
1000
0000
0000
0000
0010
0000
0010
0100
0000
0100
0001
0000
,
1000
0100
0000
0100
1000
0000
0001
1000
0010
0100
0000
0100
0010
0000
0100
0001
,
0020
0000
0000
0000
0030
0000
0000
0000
0001
0000
1000
0001
1000
0000
0010
0100
,
0010
0100
0000
0100
0010
0000
1000
0100
0010
0000
0001
0000
0100
0000
0010
0000
,
1001
0000
0000
0000
0000
0000
0001
1000
0001
0000
1000
0010
0000
0010
1000
0000
,
0001
0000
1001
0000
0001
0100
1000
0100
,
0001
0010
1100
0000
0010
0001
0100
0010
,
1000
0001
1001
0000
0001
0100
0001
0010
,
0001
0000
0100
0000
0110
0000
0000
0000
1001
0000
0000
0000
0000
0000
0001
0100
,
0001
0000
0010
0000
0100
0000
2000
0000
0000
0000
0000
0000
3000
0000
0001
0100
,
0001
0000
0010
0000
0001
0000
0200
0000
0000
0000
0000
0000
0300
0000
0010
1000
,
0010
0100
0001
0010
0000
0001
0100
0010
,
1000
0000
0001
0000
1001
0000
0000
0000
0001
0000
0000
0000
0010
0000
0100
1000
,
0100
0000
0010
0000
0001
0000
1000
0000
0000
0000
0010
0000
0100
0000
0001
0100
,
0001
0010
0100
1000
0001
0100
1000
0100
,
0001
0010
1000
0010
0001
0100
0010
1000
,
0100
0000
0010
0000
0001
1000
0001
2000
3000
0000
0000
0000
2002
0000
3003
0000
,
1002
0010
1000
0100
,
1000
0000
0000
0000
1003
0000
0010
0000
0100
0000
0001
0010
0001
0000
0100
0000
,
0120
1000
0100
0001
,
0100
0000
0030
0000
1000
0000
0010
0000
0100
0000
0001
1000
0001
0000
0100
0000
,
0110
0000
0000
0101
0000
0000
0011
0000
0001
0000
0001
0000
0001
0000
0001
0000
,
1001
0000
0000
1100
0000
0000
0110
0000
0010
0000
0010
0000
0010
0000
0010
0000
,
0021
0001
0100
1000
,
0130
1001
0000
0011
0000
1001
0000
1100
,
0000
0000
0000
0000
0000
0000
0100
1000
0100
0000
1000
0000
0010
0000
1000
0000
,
1010
0000
0010
0100
0001
1000
1001
0000
,
0001
0010
0001
0100
0010
0010
1000
0100
,
1100
0000
0100
1000
0001
0100
0110
0000
,
0010
1000
0001
0010
0001
0100
0010
0010
,
2002
0000
0000
0000
0000
0000
3003
0000
0000
0000
0000
0000
0001
0010
0000
0010
,
0001
0000
1000
0010
0000
0010
1000
0000
0001
0000
0100
0000
0010
0000
1000
0000
,
1001
0000
0001
0010
0001
0100
0100
0010
,
1000
0100
0010
0100
1000
0001
1000
0010
,
0220
0000
0000
0000
0000
0000
0330
0001
,
0001
0100
0010
1000
0100
0100
1000
0010
,
2020
0000
0000
0000
0000
0000
0000
0000
3030
0000
0000
0000
0001
1000
0000
0000
,
0010
0100
0000
0000
0001
0010
0000
0000
1000
0000
0100
0000
0001
0000
0100
0000
,
1001
0000
0000
0001
0100
0001
1000
0010
,
0110
0000
0000
0010
0100
0001
0010
0100
,
1001
0000
0000
1000
0010
0100
0001
0010
,
0001
0010
0000
0000
0001
0100
0000
0000
1010
0000
0000
0000
0101
0000
0000
0000
,
1001
0000
0000
0000
0000
0000
0001
1000
0001
0000
1000
0000
0010
0000
0100
0000
,
0000
0000
0000
0000
0000
0000
0010
0001
0010
0000
0001
0000
0100
0000
0010
0000
,
0000
0000
0000
0000
0000
0000
0010
1000
0010
0000
1000
0000
0001
0000
0100
0000
,
0000
0010
0100
0001
0010
0100
1100
0000
,
1001
0000
0000
0000
0000
0000
0001
1000
0010
0000
0100
0000
0001
0000
1000
0000
,
0000
0000
0100
0000
0010
0000
0001
0100
0001
0000
0100
0000
0100
0000
0010
0000
,
1000
0100
0001
0100
1000
0010
0001
0010
,
1000
0000
0001
0000
0010
0000
0100
0000
1000
0000
0001
0000
0100
0010
0100
0020
,
0030
0000
2002
3003
1020
0000
0100
0000
,
1000
0000
0100
0000
0001
0030
0001
0100
,
0010
0000
1000
0001
1000
0000
0100
0000
2100
0000
0000
0000
0010
0000
0000
0000
,
0001
0000
0100
0000
0001
3000
0001
0100
,
0010
0000
1000
0100
1000
0000
0001
0000
0101
0000
0000
0110
0000
0000
1010
0000
,
0100
0000
0100
0000
0100
0000
0100
0000
0011
0000
0000
1100
0000
0000
0101
0000
,
0010
0010
0010
0010
0120
0000
1000
0000
,
0100
0000
1000
0000
0031
0101
0000
0011
,
0000
0101
0000
0110
1010
0000
1100
0000
,
0011
0000
0101
0110
2002
0000
0000
0000
,
3003
0000
0000
0000
;
