#TITLE:murmur twins;
#SUBTITLE:;
#ARTIST:Yu_tokiwa.djw;
#TITLETRANSLIT:;
#SUBTITLETRANSLIT:;
#ARTISTTRANSLIT:;
#GENRE:;
#CREDIT:;
#BANNER:murmur twins.png;
#BACKGROUND:murmur twins-bg.png;
#LYRICSPATH:murmur twins.lrc;
#CDTITLE:;
#MUSIC:murmur twins.mp3;
#OFFSET:1.815000;
#SAMPLESTART:54.349998;
#SAMPLELENGTH:15.000000;
#LASTBEATHINT:2.363772;
#SELECTABLE:YES;
#BPMS:0.000000=174.020004
;
#STOPS:
;
#BGCHANGES:0.000=murmur twins.avi=1.000=1=0=0=StretchNoLoop==CrossFade==,
260.000=murmur twins-bg.png=1.000=0=0=1=====,
99999=-nosongbg-=1.000=0=0=0 // don't automatically add -songbackground-
;
#KEYSOUNDS:;
#ATTACKS:;

//---------------dance-single - ----------------
#NOTES:
     dance-single:
     :
     Easy:
     4:
     0.136492,0.235811,0.062312,0.031156,0.000000,92.000000,86.000000,6.000000,3.000000,0.000000,0.000000,0.136492,0.235811,0.062312,0.031156,0.000000,92.000000,86.000000,6.000000,3.000000,0.000000,0.000000:
0000
0000
0000
0000
,
0000
0000
0000
0000
,
1000
0000
0000
0000
,
1000
0000
0000
0000
,
0001
0000
0000
0000
,
0001
0000
0000
0000
,
1000
0000
0000
0000
,
1000
0000
0000
0000
,
0001
0000
0000
0000
,
1000
1000
0000
0000
,
0020
0000
0000
0000
,
0000
0000
0000
0030
,
1000
0000
0000
0000
,
0001
0000
0000
0000
,
0100
0000
0010
0000
,
0100
0000
0000
0000
,
0001
0000
1000
0000
,
0001
0000
0000
0000
,
0010
0000
0100
0000
,
0010
0000
0000
0000
,
0001
0000
1000
0000
,
0010
0000
0100
0000
,
0001
0000
0001
0000
,
1001
0000
0000
0000
,
1000
0000
1000
0000
,
1001
0000
0000
0000
,
0010
0000
0010
0000
,
1001
0000
0000
0000
,
0100
0000
1001
0000
,
0010
0000
1001
0000
,
0100
0000
0000
0000
,
0100
0000
0000
0000
,
0010
0000
0000
0000
,
0100
0000
0000
0000
,
1000
0000
0000
0000
,
0001
0000
0000
0000
,
1000
0000
1000
0000
,
0000
0000
0000
0000
,
0001
0000
0001
0000
,
0000
0000
0000
0000
,
0000
0000
0000
0000
,
0000
1000
0000
0000
0000
0000
0000
0000
,
0000
0001
0000
0000
0000
0000
0000
0000
,
0000
1000
0000
0000
0000
0000
0000
0000
,
0000
0100
0000
0000
0000
0000
0000
0000
,
0000
0010
0000
0000
0000
0000
0000
0000
,
0000
0001
0000
0000
0000
0000
0000
0000
,
0000
1000
0000
0000
0000
0000
0000
0000
,
0000
0001
0000
0001
0000
0000
0000
0000
,
0000
0100
0000
0000
0000
0010
0000
1000
,
0000
0100
0000
0000
0000
0010
0000
0000
,
0000
0100
0000
0000
0000
1000
0000
0010
,
0000
0100
0000
0000
0000
0001
0000
0000
,
0000
1000
0000
0000
0000
0001
0000
0010
,
0000
0100
0000
0000
0000
1000
0000
0000
,
0000
0010
0000
0000
0000
0100
0000
0000
,
0000
0001
0000
1000
0000
0100
0000
0000
,
0000
0020
0000
0000
0000
0000
0000
0000
,
0000
0000
0000
0000
0000
0000
0000
0030
,
0000
1001
0000
0000
0000
0000
0000
0000
,
0000
1000
0000
0000
0000
0001
0000
0000
,
0000
0020
0000
0000
0000
0000
0000
0000
,
0000
0000
0000
0000
0000
0000
0000
0030
,
0000
0100
0000
0000
0000
0000
0000
0000
,
0000
0010
0000
0000
0000
0001
0000
1000
;

//---------------dance-single - ----------------
#NOTES:
     dance-single:
     :
     Medium:
     8:
     0.362002,0.438779,0.072697,0.114238,0.000000,244.000000,237.000000,7.000000,11.000000,0.000000,0.000000,0.362002,0.438779,0.072697,0.114238,0.000000,244.000000,237.000000,7.000000,11.000000,0.000000,0.000000:
0000
0000
0000
0000
,
0000
0000
0000
0000
0000
0000
0000
1000
,
0000
0000
0000
0000
0000
0000
0000
0001
,
0000
0000
0000
0000
,
0100
0000
0000
0000
0000
0000
0000
0001
,
0000
0000
0000
0000
0000
0000
0000
1000
,
0000
0000
0000
0000
0000
0000
0000
0001
,
0000
0000
0000
0000
,
0100
0000
0000
0000
,
0001
0001
0000
0000
,
1000
0000
1000
0000
0010
0100
0010
0000
,
1000
0000
1000
0000
0100
0010
0100
0000
,
1000
0000
1000
0000
0001
0100
0010
0000
,
1000
0100
0001
0000
1000
0010
0001
0000
,
0000
0000
1000
0000
0000
0100
0000
0100
,
0000
0000
1000
0000
0000
0010
0000
0010
,
0000
0000
0100
0000
0000
0001
0000
0001
,
0000
0000
0100
0000
0000
0010
0000
0010
,
0000
0000
1000
0000
0000
0001
0000
0001
,
0000
0010
0000
0100
,
1000
0001
1000
0100
,
0010
0001
0100
0000
0010
0000
0010
0000
,
1000
0000
1000
0000
0001
0100
0010
0000
,
1000
0000
1000
0000
0100
0010
0001
0000
,
0100
0000
0100
0000
0010
1000
0100
0000
,
0010
0000
0010
0000
0001
0100
0010
0000
,
1000
0000
1000
0000
0001
0010
0100
0000
,
1000
0000
1000
0000
0001
0100
0010
0000
,
1001
0000
0000
0011
0000
0000
1100
0000
,
0001
0010
0100
1000
,
0002
0003
0100
0100
,
0020
0030
1000
1000
,
0002
0003
0010
0010
,
0200
0300
1000
1000
,
0002
0003
0100
0010
,
2000
3000
0001
0010
,
0200
0300
0020
0030
,
0001
0100
0010
1000
,
0002
0003
2000
3000
,
0001
0010
0100
1000
,
0000
0000
0000
0000
,
0000
0002
0000
0000
0000
0000
0000
0003
,
0000
1000
0000
1000
0000
0100
0000
0010
,
0000
0001
0000
1000
0000
0100
0000
0100
,
0000
0010
0000
0001
0000
1000
0000
0010
,
0000
0100
0000
1001
0000
0100
0000
1001
,
0000
0100
0000
0010
0000
1000
0000
0100
,
0000
0010
0000
1001
0000
0010
0000
1001
,
0000
0100
0010
0001
0000
1000
0000
1000
,
0000
0010
0000
0100
0000
0001
0010
0001
,
0000
1000
0000
0010
0000
0100
0001
0100
,
0000
0010
0000
1000
0000
0001
0010
0001
,
0000
0100
0000
0010
0000
1000
0100
1000
,
0000
0001
0000
0100
0000
0010
1000
0010
,
0000
0100
0000
0001
0000
0010
0100
0010
,
0000
0001
0000
1000
0000
0010
0100
0010
,
0000
1000
0100
1000
0000
0001
0000
0001
,
0000
1000
0000
0100
0000
0010
0001
0100
,
0000
0010
0000
1000
0000
0001
0100
0010
,
0000
1000
0000
0001
0000
0010
0100
1000
,
0000
0001
0100
0001
0000
1000
0100
1000
,
0000
0001
0000
0100
0000
1000
0100
0010
,
0000
0001
0000
0001
0000
0100
0010
1000
,
0000
0001
0001
0100
0000
0010
1000
0100
,
0000
1000
0001
0100
0000
0010
1000
0100
,
0010
0000
0000
0000
;

//---------------dance-single - ----------------
#NOTES:
     dance-single:
     :
     Hard:
     11:
     0.497010,0.607540,0.103853,0.072697,0.041541,335.000000,325.000000,10.000000,7.000000,0.000000,0.000000,0.497010,0.607540,0.103853,0.072697,0.041541,335.000000,325.000000,10.000000,7.000000,0.000000,0.000000:
// measure 0
0000
0000
0000
0000
,  // measure 1
0000
0000
0000
0000
0000
0000
0000
2000
,  // measure 2
0000
0000
3000
0000
0001
0100
0001
1000
,  // measure 3
0000
1000
0100
0010
,  // measure 4
0002
0000
0003
0000
0001
0100
0001
2000
,  // measure 5
0000
3000
0000
1000
0000
0001
0000
0200
,  // measure 6
0000
0000
0300
0000
0010
1000
0100
0010
,  // measure 7
0000
0001
1000
0001
,  // measure 8
2000
0000
3000
0000
1000
0010
0100
0002
,  // measure 9
0000
0000
0003
0000
1000
0100
0001
0000
,  // measure 10
1000
0000
0000
0000
1000
0000
0000
0010
0100
0000
0010
0000
0100
0000
0001
0000
,  // measure 11
0000
0001
0000
1000
0100
0010
0001
0000
,  // measure 12
0100
0000
0100
0000
0010
0100
0010
0000
,  // measure 13
1001
0000
1001
0000
1001
0000
0000
0100
0010
0000
0100
0000
1001
0000
0000
0000
,  // measure 14
0010
0100
0010
0001
0000
0010
0001
0100
,  // measure 15
0000
0001
0000
1000
0100
0010
0001
0000
,  // measure 16
0001
0100
0001
0010
0000
0010
0001
0100
,  // measure 17
0000
0010
0000
0100
0001
0010
0000
0000
,  // measure 18
0010
0100
1000
0010
0000
0010
0100
0001
,  // measure 19
0000
0100
0000
0010
1000
0100
0010
0000
,  // measure 20
0100
1000
0010
0100
0000
0010
1000
0100
,  // measure 21
0000
0010
0000
0100
1000
0010
0100
0001
,  // measure 22
1000
0000
1000
0000
1000
0100
0001
0000
,  // measure 23
1000
0000
1000
0000
1000
0010
0001
0000
,  // measure 24
1000
0000
0000
0000
1000
0000
0000
1000
0100
0000
0010
0000
0001
0000
0100
0000
,  // measure 25
0000
0100
0000
0001
0010
0100
1000
0000
,  // measure 26
0001
0000
0001
0000
0001
0100
1000
0000
,  // measure 27
0001
0010
0100
1000
0010
0100
0001
0000
,  // measure 28
1100
0000
0000
0011
0000
0000
0100
0010
,  // measure 29
0000
0000
1000
0000
0010
0100
0000
0000
,  // measure 30
0001
0000
0001
0000
1000
0100
0000
1000
,  // measure 31
0000
1000
0100
1000
0000
0000
0001
0010
,  // measure 32
0001
0100
0001
0000
0001
0100
0001
0010
,  // measure 33
0000
0100
1000
0010
0000
0010
0100
0000
,  // measure 34
0001
0000
0001
0000
1000
0100
1000
0010
,  // measure 35
1000
0100
0000
0100
0000
0010
0100
0000
,  // measure 36
1000
0100
1000
0001
0000
0001
0100
0000
,  // measure 37
1000
0100
0000
0001
0100
0000
1001
0000
,  // measure 38
1000
0010
1000
0001
0000
0001
0010
0000
,  // measure 39
1000
0010
0000
0001
0010
0000
0110
0000
,  // measure 40
0000
0000
0000
0000
,  // measure 41
0002
0000
0000
0003
0000
1000
0100
0010
,  // measure 42
0001
0000
0100
1000
0000
0001
0000
0100
,  // measure 43
0000
0000
0010
0000
0000
0000
0100
0000
0000
1000
0010
0000
0100
0000
0001
0000
,  // measure 44
0010
0100
0010
0001
,  // measure 45
0000
1000
0000
1000
0000
0010
0100
0001
,  // measure 46
0100
0010
1000
0100
,  // measure 47
0000
0010
0000
0001
0000
1000
0010
0100
,  // measure 48
0000
0001
0010
0000
0100
0000
0000
0000
,  // measure 49
0000
0000
1000
0000
0000
0000
0001
0000
0000
0100
0010
0000
1000
0000
0100
0000
,  // measure 50
0010
0000
0010
0001
0000
1000
0000
0010
,  // measure 51
0000
0000
0100
0000
0000
0000
0001
0000
0000
1000
0100
0000
0010
0000
0001
0000
,  // measure 52
0100
0001
0010
0100
,  // measure 53
0000
1000
0000
0001
0000
1000
0010
0100
,  // measure 54
0010
1000
0001
0010
,  // measure 55
0000
0000
0100
0000
0000
0000
0100
0000
0000
1000
0010
0000
0100
0000
0001
0000
,  // measure 56
0000
1000
0100
0000
0101
0000
0011
0000
,  // measure 57
0000
0000
1000
0000
0000
0000
0100
0000
0000
0010
0001
0000
0010
0000
0100
0000
,  // measure 58
1000
0000
1000
0000
1000
0010
1000
0100
,  // measure 59
0000
0010
0001
0100
0000
0010
0001
0100
,  // measure 60
0000
1000
0100
0001
0100
1000
0010
0100
,  // measure 61
0000
0001
0000
0010
0000
0100
1000
0100
,  // measure 62
0000
0001
0100
0010
1000
0100
0010
0001
,  // measure 63
0000
1000
1000
0100
0000
0001
0001
0100
,  // measure 64
0000
0010
1000
0100
0000
0001
1000
0100
,  // measure 65
0010
0000
0000
0000
;

//---------------dance-double - ----------------
#NOTES:
     dance-double:
     :
     Easy:
     2:
     0.126107,0.269498,0.114238,0.000000,0.000000,85.000000,74.000000,11.000000,0.000000,0.000000,0.000000,0.126107,0.269498,0.114238,0.000000,0.000000,85.000000,74.000000,11.000000,0.000000,0.000000,0.000000:
00000000
00000000
00000000
00000000
,
00000000
00000000
00000000
00000000
,
10000000
00000000
00000000
00000000
,
10000000
00000000
00000000
00000000
,
01000000
00000000
00000000
00000000
,
00010000
00000000
00000000
00000000
,
00001000
00000000
00000000
00000000
,
00000010
00000000
00000000
00000000
,
00000001
00000000
00000000
00000000
,
00001000
00001000
00000000
00000000
,
00000000
00000100
00000000
00000000
,
00000000
00010000
00000000
00000000
,
00000000
01000000
00000000
00000000
,
10000000
00000000
10010000
00000000
,
00100000
00000000
00100000
00000000
,
00000000
00000000
00000000
00000000
,
01000000
00000000
01000000
00000000
,
00000000
00000000
00000000
00000000
,
00010000
00000000
00001000
00000000
,
00000000
00000000
00000000
00000000
,
00000010
00000000
00000100
00000000
,
00001001
00000000
00001001
00000000
,
00000110
00000000
00000000
00000000
,
00001000
00000000
00000000
00000000
,
00000100
00000000
00000000
00000000
,
00010000
00000000
00001000
00000000
,
00100000
00000000
00000000
00000000
,
01000000
00000000
00000000
00000000
,
10010000
00000000
01100000
00000000
,
10010000
00000000
00000000
00000000
,
01000000
00000000
00000000
00000000
,
00001000
00000000
00000000
00000000
,
00010000
00000000
00000000
00000000
,
00000010
00000000
00000000
00000000
,
00001000
00000000
00000000
00000000
,
01000000
00000000
00000000
00000000
,
00010000
00000000
00000100
00000000
,
00000000
00000000
00000000
00000000
,
00001000
00000000
00100000
00000000
,
00000000
00000000
00000000
00000000
,
00000000
00000000
00000000
00000000
,
00000000
10000000
00000000
00000000
00000000
00000000
00000000
00000000
,
00000000
10000000
00000000
00000000
00000000
00000000
00000000
00000000
,
00000000
01000000
00000000
00000000
00000000
00000000
00000000
00000000
,
00000000
00010000
00000000
00000000
00000000
00000000
00000000
00000000
,
00000000
00001000
00000000
00000000
00000000
00000000
00000000
00000000
,
00000000
00000010
00000000
00000000
00000000
00000000
00000000
00000000
,
00000000
00000001
00000000
00000000
00000000
00000100
00000000
00000000
,
00000000
00000010
00000000
00000000
00000000
00000000
00000000
00000000
,
00000000
00001001
00000000
00000000
00000000
00000000
00000000
00000000
,
00000000
00000100
00000000
00000000
00000000
00000000
00000000
00000000
,
00000000
00010000
00000000
00000000
00000000
00000000
00000000
00000000
,
00000000
00001000
00000000
00000000
00000000
00000000
00000000
00000000
,
00000000
00100000
00000000
00000000
00000000
01000000
00000000
00000000
,
00000000
10000000
00000000
00000000
00000000
00010000
00000000
00000000
,
00000000
01100000
00000000
00000000
00000000
00000000
00000000
00000000
,
00000000
10010000
00000000
00000000
00000000
00000000
00000000
00000000
,
00000000
01000000
00000000
00000000
00000000
00000000
00000000
00000000
,
00000000
01000000
00000000
00000000
00000000
00000000
00000000
00000000
,
00000000
00001000
00000000
00000000
00000000
00000000
00000000
00000000
,
00000000
00010000
00000000
00000000
00000000
00000000
00000000
00000000
,
00000000
00000100
00000000
00000000
00000000
00000000
00000000
00000000
,
00000000
00000100
00000000
00000000
00000000
00000000
00000000
00000000
,
00000000
00010000
00000000
00000000
00000000
00001000
00000000
00000000
,
00000000
00100000
00000000
00000000
00000000
01000000
00000000
10010000
;

//---------------dance-double - ----------------
#NOTES:
     dance-double:
     :
     Medium:
     6:
     0.342715,0.405026,0.093468,0.020771,0.000000,231.000000,222.000000,9.000000,2.000000,0.000000,0.000000,0.342715,0.405026,0.093468,0.020771,0.000000,231.000000,222.000000,9.000000,2.000000,0.000000,0.000000:
00000000
00000000
00000000
00000000
,
00000000
00000000
00000000
00000000
,
00001000
00000000
00001000
00000000
,
00010000
00000000
00010000
00000000
,
00100000
00000000
00100000
00000000
,
00001000
00000000
00001000
00000000
,
00000010
00000000
00000010
00000000
,
00010000
00000000
00010000
00000000
,
00001000
00000000
00010000
00000000
,
00001000
00010000
00000000
00000000
,
00100000
10000000
01000000
01000000
,
00010000
00001000
00000100
00000100
,
00000001
00000010
00000100
00000100
,
00010000
00001000
00010000
00000000
00001000
00010000
00001000
00000000
,
00000000
00100000
00000000
00100000
,
00000000
01000000
00000000
01000000
,
00000000
00010000
00000000
00001000
,
00000000
00000010
00000000
00000100
,
00000000
00000010
00000000
00000001
,
00000000
00000010
00000000
00000100
,
00000000
00010000
00000000
00001000
,
00100000
00000000
01000000
00000000
,
10000000
10000000
00000000
01000000
,
00100000
00000000
00001000
00000000
,
00010000
00010000
00000000
00000100
,
00000010
00000000
00000001
00000000
,
00001000
00001000
00000000
00000100
,
00010000
00000000
00001000
00000000
,
00100000
00100000
01000000
01000000
,
10010000
01100000
10000000
10000000
,
00020000
00030000
01000000
01000000
,
00100000
10000000
01000000
00010000
,
00001000
00000100
00000001
00000010
,
00000100
00001000
00000001
00000100
,
00000020
00000030
00001000
00001000
,
00000100
00000010
00000001
00000100
,
00001010
00000000
00000000
00011000
00000000
00000000
00000000
00000000
,
00100000
00100000
00010000
01000000
,
10100000
00000000
00000000
01010000
00000000
00000000
00000000
00000000
,
00001000
00001000
00000100
00000001
,
00000000
00000000
00000000
00000000
,
00000000
00001000
00000000
00001000
00000000
00000010
00000100
00000010
,
00000000
00001000
00000000
00000100
00000000
00000010
00000000
00000001
,
00000000
00000100
00000000
00000100
00000000
00001000
00010000
00001000
,
00000000
00100000
00000000
01000000
00000000
10000000
00000000
00010000
,
00000000
01000000
00000000
01000000
00000000
00001000
00010000
00001000
,
00000000
00100000
00000000
10000000
00000000
00100000
00000000
00001000
,
00000000
00000100
00000000
00000100
00000000
00000001
00000010
00000001
,
00000000
00001000
00001000
00000000
00000110
00000000
00001001
00000000
,
00000000
00000100
00000000
00000100
00000000
00001000
00010000
00001000
,
00000000
00100000
00000000
10000000
00000000
01000000
00000000
00010000
,
00000000
00100000
00000000
00100000
00000000
00001000
00010000
00001000
,
00000000
00100000
00000000
00010000
00000000
01000000
00000000
00001000
,
00000000
00010000
00000000
00010000
00000000
00000010
00001000
00000010
,
00000000
00000100
00000000
00001000
00000000
00000010
00000000
00000001
,
00000000
00000100
00000000
00000100
00000000
00000010
00001000
00000010
,
00000000
00010000
00010000
00000000
00001000
00000000
00011000
00000000
,
00000000
00100000
00000000
00100000
00000000
00010000
01000000
00010000
,
00000000
00100000
00001000
00100000
00000000
00010000
01000000
00010000
,
00000000
10000000
00000000
10000000
00000000
01000000
00100000
01000000
,
00000000
00010000
00001000
00010000
00000000
00000010
00001000
00000010
,
00000000
00000100
00000000
00000100
00000000
00000001
00000010
00000001
,
00000000
00000100
00000000
00000100
00000000
00000010
00001000
00000010
,
00000000
00000100
00000000
00000100
00000000
00001000
00010000
00001000
,
00000000
00100000
00000000
00100000
00000000
01000000
10000000
00100000
,
01000000
00000000
00000000
00000000
;

//---------------dance-double - ----------------
#NOTES:
     dance-double:
     :
     Hard:
     7:
     0.494043,0.573788,0.238862,0.000000,0.057119,333.000000,310.000000,23.000000,0.000000,0.000000,0.000000,0.494043,0.573788,0.238862,0.000000,0.057119,333.000000,310.000000,23.000000,0.000000,0.000000,0.000000:
00000000
00000000
00000000
00000000
,
00000000
00000000
00000000
00000000
,
00000000
10010000
00000000
11000000
,
00000000
10010000
00000000
01010000
,
00000000
01001000
00000000
00011000
,
00000000
00010010
00000000
00001001
,
00000000
00000101
00000000
00001001
,
00000000
00000011
00000000
00001100
,
00010000
00001000
00000100
00000001
,
00000010
00000100
00001000
00000000
00000010
00000100
00000001
00001000
,
00000100
00010000
00001000
00000100
,
00001000
00010000
01000000
00010000
,
00001000
00000100
00000001
00000010
,
00000100
00000000
00001000
00000000
00000100
00000000
00000000
00010000
00001000
00000000
00010000
00000000
00000100
00000000
00000000
00000000
,
00010000
00000000
01000000
00000000
00010000
00001000
00000100
00000000
,
00001000
00000000
00010000
00000000
01000000
10000000
00010000
00000000
,
01000000
00000000
00100000
00000000
10000000
01000000
00010000
00000000
,
00001000
00000000
00000100
00000000
00000001
00000010
00001000
00000000
,
00010000
00000000
00001000
00000000
00000100
00000001
00000010
00000000
,
00000100
00000000
00010000
00000000
00001000
00000100
00000001
00000000
,
00000010
00000000
00001000
00000000
00010000
00100000
00000000
10000000
,
01000000
00000000
00100000
00010000
00000000
01000000
10000000
00000000
,
00010000
00000000
00100000
00000000
01000000
00010000
00001000
00000000
,
00000100
00000000
00000001
00000000
00000010
00001000
00010000
00000000
,
00100000
00000000
00000000
00000000
10000000
00000000
00000000
10000000
01000000
00000000
00100000
00000000
00010000
00000000
01000000
00000000
,
00000000
01000000
00000000
01000000
00000000
00010000
00100000
00000000
,
01000000
00000000
00010000
00000000
00001000
00000100
00000001
00000010
,
00000100
00001000
00000000
00000001
00000000
00001000
00000000
00000001
,
00000100
00000000
00000010
00001000
00000000
00000100
00010000
00001000
,
00000000
00000000
00000010
00000000
00000000
00000000
00000001
00000000
00000100
00000000
00000010
00000000
00001000
00000000
00000100
00010000
,
00000100
00000000
00000000
00000000
00000000
00000010
00000000
00000001
,
00000000
00000100
00000010
00000100
00000000
00000100
00000001
00000000
,
00001000
00000100
00010000
01000000
,
10000000
00100000
00000000
01000000
00000000
00010000
00000000
00000000
,
00100000
00000000
00000000
00001000
00000000
00010000
00001000
01000000
,
00000000
00100000
00000000
10000000
00000000
01000000
00010000
00001000
,
00000100
00000000
00000001
00000010
00000000
00000010
00000001
00000100
,
00000000
00000100
00000010
00000000
00001000
00000000
00000100
00000000
,
00010000
00000000
00001000
00000100
00000000
00000100
00000001
00000000
,
00000010
00001000
00010000
00100000
,
00000000
00000000
00000000
00000000
00000000
00000000
00000000
00000000
10000000
00000000
01000000
00000000
00100000
00000000
00010000
01000000
,
00010000
00000000
00001000
00010000
00000000
00000100
00000010
00000001
,
00000000
00000100
00000000
00000010
00000000
00001000
00000000
00000100
,
00000010
00000001
00000000
00000100
00000000
00001000
00010000
00001000
,
00000100
00000000
00001000
00010000
01000000
00000000
00100000
00000000
,
00010000
01000000
00000000
00001000
00000000
00000010
00000001
00000100
,
00000010
00000000
00000010
00001000
00000000
00000100
00000000
00000010
,
00000000
00001000
00000000
00010000
00000000
00100000
10000000
01000000
,
00100000
00000000
00010000
00000000
01000000
00000000
00100000
00000000
10000000
01000000
10000000
00000000
00010000
00000000
01000000
00000000
,
00001000
00000000
00010000
00000000
00000000
00000000
01000000
00000000
00000000
10000000
00100000
00000000
01000000
00000000
00010000
00000000
,
00000000
00000000
00000100
00000000
00000000
00000000
00000001
00000000
00000000
00000010
00000100
00000000
00001000
00000000
00000001
00000000
,
00000000
00000000
00000001
00000000
00000000
00000000
00000100
00000000
00000000
00001000
00010000
00000000
01000000
00000000
10000000
00000000
,
00100000
00000000
01000000
00010000
00100000
00000000
01000000
00000000
,
00010000
00000000
00001000
00000000
00000000
00000000
00000100
00000000
00000000
00000001
00000010
00000000
00000100
00000000
00001000
00000000
,
00000010
00000100
00001000
00010000
00000000
01000000
00000000
10000000
,
00000000
00000000
00010000
00000000
00000000
00000000
01000000
00000000
00000000
00001000
00000010
00000000
00001000
00000000
00010000
00000000
,
01000000
00000000
10000000
00000000
00010000
00000000
01000000
00000000
00000000
00100000
10000000
00000000
01000000
00000000
00010000
00000000
,
00001000
00000100
00000000
00001001
00000000
00000100
00000000
00010000
,
00000000
01000000
00000000
10010000
00000000
01000000
00000000
00100000
,
00000000
00010000
00000000
10010000
00000000
01000000
00000000
00010000
,
00000000
00001000
00000000
00000110
00000000
00000001
00000010
00000100
,
00001000
00000010
00000000
00000101
00000000
00000010
00000000
00011000
,
00000000
00100000
00000000
10010000
00000000
01000000
00000000
00101000
,
00000000
00010000
00000000
00001010
00000000
00000100
00000000
00001001
,
00000000
00000010
00000000
00001100
00000000
00010000
00000000
00100000
,
01000000
00000000
00000000
00000000
;

//---------------dance-single - ----------------
#NOTES:
     dance-single:
     :
     Beginner:
     3:
     0.129074,0.234902,0.062312,0.000000,0.000000,87.000000,81.000000,6.000000,0.000000,0.000000,0.000000,0.129074,0.234902,0.062312,0.000000,0.000000,87.000000,81.000000,6.000000,0.000000,0.000000,0.000000:
0000
0000
0000
0000
,
0000
0000
0000
0000
,
1000
0000
0000
0000
,
1000
0000
0000
0000
,
0001
0000
0000
0000
,
0001
0000
0000
0000
,
1000
0000
0000
0000
,
1000
0000
0000
0000
,
0001
0000
0000
0000
,
1000
1000
0000
0000
,
0010
0000
0000
0000
,
0000
0000
0000
0000
,
1000
0000
0000
0000
,
0001
0000
0000
0000
,
0100
0000
0010
0000
,
0100
0000
0000
0000
,
0001
0000
1000
0000
,
0001
0000
0000
0000
,
0010
0000
0100
0000
,
0010
0000
0000
0000
,
0001
0000
1000
0000
,
0010
0000
0100
0000
,
0001
0000
0001
0000
,
1001
0000
0000
0000
,
1000
0000
1000
0000
,
1001
0000
0000
0000
,
0010
0000
0010
0000
,
1001
0000
0000
0000
,
0100
0000
1001
0000
,
0010
0000
1001
0000
,
0100
0000
0000
0000
,
0100
0000
0000
0000
,
0010
0000
0000
0000
,
0100
0000
0000
0000
,
1000
0000
0000
0000
,
0001
0000
0000
0000
,
1000
0000
1000
0000
,
0000
0000
0000
0000
,
0001
0000
0001
0000
,
0000
0000
0000
0000
,
0000
0000
0000
0000
,
0000
1000
0000
0000
0000
0000
0000
0000
,
0000
0001
0000
0000
0000
0000
0000
0000
,
0000
1000
0000
0000
0000
0000
0000
0000
,
0000
0100
0000
0000
0000
0000
0000
0000
,
0000
0010
0000
0000
0000
0000
0000
0000
,
0000
0001
0000
0000
0000
0000
0000
0000
,
0000
1000
0000
0000
0000
0000
0000
0000
,
0000
0001
0000
0001
0000
0000
0000
0000
,
0000
0100
0000
0000
0000
0010
0000
0000
,
0000
0100
0000
0000
0000
0010
0000
0000
,
0000
0100
0000
0000
0000
1000
0000
0000
,
0000
0100
0000
0000
0000
0001
0000
0000
,
0000
1000
0000
0000
0000
0001
0000
0000
,
0000
0100
0000
0000
0000
1000
0000
0000
,
0000
0010
0000
0000
0000
0100
0000
0000
,
0000
0001
0000
0000
0000
0100
0000
0000
,
0000
0010
0000
0000
0000
0000
0000
0000
,
0000
0000
0000
0000
,
0000
1001
0000
0000
0000
0000
0000
0000
,
0000
1000
0000
0000
0000
0001
0000
0000
,
0000
0010
0000
0000
0000
0000
0000
0000
,
0000
0000
0000
0000
,
0000
0100
0000
0000
0000
0000
0000
0000
,
0000
0010
0000
0000
0000
0001
0000
0000
;

//---------------dance-single - ----------------
#NOTES:
     dance-single:
     :
     Challenge:
     16:
     0.796700,0.877557,0.259632,0.155779,0.529650,537.000000,512.000000,25.000000,15.000000,0.000000,0.000000,0.796700,0.877557,0.259632,0.155779,0.529650,537.000000,512.000000,25.000000,15.000000,0.000000,0.000000:
0000
0000
0000
0000
,
0000
0000
0000
0000
0000
0000
0000
2200
,
0000
0000
0000
3000
1300
0001
0010
0100
,
0000
0011
1010
1100
,
0202
0000
0000
0003
0301
0010
0100
2000
,
0000
0000
0000
3010
0000
0101
0000
2200
,
0000
0000
0000
0300
3100
0010
0001
2000
,
0000
3100
0101
1010
,
0022
0000
0000
0030
0013
0100
1000
0002
,
0000
0000
0003
0000
1000
0100
0010
0001
,
0100
0000
0010
1000
0010
0000
0100
0001
0100
0000
0001
0010
0001
0010
0100
1000
,
0001
0010
0000
0010
0001
0000
0001
1000
0000
1000
0010
0000
0010
0100
0001
0000
,
0010
0100
0000
1000
0000
0001
1000
0000
0000
0000
0001
0000
0010
0000
0100
0000
,
1000
0010
1000
0001
0000
0010
0100
0010
0001
0000
1000
0000
0010
0000
0100
0000
,
0001
0100
0010
1000
0100
0001
1000
0010
,
0001
1000
0010
0100
1000
0100
0010
1000
,
0001
0100
1000
0100
0010
1000
0001
0010
,
0001
0100
0010
0100
0001
1000
0100
0000
,
1000
0010
0100
1000
0100
0001
0010
0100
,
1000
0001
0010
1000
0010
0001
0100
0010
,
0001
0010
1000
0001
0010
0100
1000
0010
,
0100
0000
0100
0000
0100
0000
0001
1000
0000
0010
0100
0000
1001
0000
0000
0000
,
0100
0010
0001
1000
0001
0100
0002
1000
,
0103
0010
1000
0100
0010
0001
0100
1000
,
0100
0001
0010
0100
1000
0010
0200
0001
,
0310
1000
0001
0010
0001
1000
0100
0001
,
0100
0010
0001
0100
0010
0001
0020
1000
,
0130
0001
0010
0100
1000
0010
1000
0001
,
0011
0000
1000
1010
0000
0000
0001
0010
,
0000
0000
0100
0000
1000
0010
1000
0200
,
0000
0000
0000
0000
0000
0000
1300
0001
1000
0000
0100
0000
0000
0000
1000
0000
,
0000
0000
0010
1000
0010
1000
0001
1000
0001
1000
0100
0010
0100
0000
0000
0000
,
1000
0000
0001
0000
1000
0010
0000
0100
,
0000
0000
0001
1000
0001
1000
0010
1000
0100
0010
0100
0010
0001
1000
0001
1000
,
0010
0000
0000
0000
0000
0000
1000
0100
1000
0000
0001
0010
0001
0000
1000
0010
,
1000
0000
0000
0000
0000
0000
0001
0100
0001
0000
0010
0000
0100
1000
0001
1000
,
0010
0100
0010
1001
0000
0001
1001
0010
,
0100
0000
1001
0000
0000
0000
1000
0000
0001
1000
0100
0010
0001
0000
0000
0000
,
1000
0001
1000
0110
0000
0100
0110
1000
,
0001
0000
0110
0000
0000
0000
0100
0000
0001
0000
0000
0010
0100
0000
0000
1000
,
0001
0000
0000
0000
0000
0010
0000
0000
0000
0000
0100
0000
0000
0000
0000
0000
1000
0000
0000
0000
0000
0010
0000
0000
0000
0000
0100
0000
0000
0000
0000
0000
0001
0000
0000
0000
0000
0000
0000
0000
0010
0000
0000
0000
0000
0000
0000
0000
0100
0000
0000
0000
0000
0000
0000
0000
1000
0000
0000
0000
0000
0000
0000
0000
,
0001
1000
0010
0100
0001
0010
0001
1000
,
0100
0001
0100
0010
1000
0010
0001
0101
,
1100
1000
0010
0001
0010
0100
0001
1000
,
0100
1000
0010
0100
1000
0100
0001
0011
,
1010
1000
0001
0010
0100
0010
0001
0100
,
0010
0001
0010
0100
0001
1000
0100
0110
,
1001
1000
0010
0100
1000
0100
0001
0010
,
0100
0000
1000
0000
0010
0000
1000
0100
0010
0001
1000
0000
0010
0000
0100
0000
,
0001
0000
1000
0000
0001
0000
0000
0100
0000
0000
0010
0000
1000
0000
0100
0000
,
0010
0000
0000
0000
0001
0100
0010
1000
0001
0000
1000
0000
0100
0000
0010
0000
,
0010
0000
0001
0000
0000
0000
0100
0010
1000
0001
0010
0000
0100
0000
1000
0000
,
0001
0000
0000
0000
0100
0000
0001
0100
0010
1000
0000
0000
0001
0000
0010
0000
,
0010
0000
0100
0000
1000
0000
0000
0001
0000
0000
0100
0000
0010
0000
0100
0000
,
0001
0000
0010
0000
0100
0000
1000
0001
0000
0000
1000
0000
0100
0000
0010
0000
,
0010
0000
0001
0000
0100
0000
0000
0001
0000
0000
1000
0000
0100
0000
0010
0000
,
0001
0000
1000
0001
1000
0010
0000
0000
0100
0010
1000
0010
0000
0000
1000
0000
,
0001
0000
0010
0000
0001
1000
0001
0000
1000
0100
1000
0000
0100
0010
0100
0010
,
0001
1000
0001
0100
0000
0100
0010
0000
0010
1000
0000
1000
0001
0000
0001
0010
,
0100
0000
0000
0000
1000
0000
0000
0001
0100
0010
1000
0000
0001
0010
0000
0000
,
0100
1000
0001
0010
0001
1000
0100
0000
1000
0010
1000
0001
0100
0000
0001
0010
,
0100
1000
0000
0000
0001
0000
0000
0100
0010
1000
0010
0100
0000
0001
1000
0001
,
0010
0100
1000
0001
0000
0001
1000
0000
0100
0000
0000
0010
0001
0000
1000
0001
,
1000
0010
0100
0000
0001
0010
0000
0001
1000
0100
0000
0000
0010
0000
0100
0000
,
1000
0000
0010
0100
0010
1000
0001
0000
0010
0100
0010
0001
1000
0001
0100
0010
,
0100
0000
0000
0000
;

//---------------dance-double - ----------------
#NOTES:
     dance-double:
     :
     Challenge:
     10:
     0.769995,0.877557,0.114238,0.155779,0.529650,519.000000,508.000000,11.000000,15.000000,0.000000,0.000000,0.769995,0.877557,0.114238,0.155779,0.529650,519.000000,508.000000,11.000000,15.000000,0.000000,0.000000:
00000000
00000000
00000000
00000000
,
00000000
00000000
00000000
00000000
00000000
00000000
00000000
00000002
,
00000000
00000000
00000000
00000000
00000103
00001000
00010000
02000000
,
00000000
13000000
00100000
01000000
,
00002000
00000000
00000000
00000000
00013000
00100000
10000000
02000000
,
00000000
00000000
00000000
03010000
00000000
00001000
00000000
00000200
,
00000000
00000000
00000000
00000000
00000301
00000010
00001000
00020000
,
00000000
00030100
00000010
00000001
,
00000200
00000000
00000000
00000000
00001300
00010000
00100000
20000000
,
00000000
00000000
30000000
00000000
00010000
10000000
01000000
00100000
,
00001000
00000000
00010000
00000010
00010000
00000000
00001000
00100000
00001000
00000000
00010000
00000100
00010000
00000010
00000100
00000010
,
00001000
00000001
00000000
00000001
00000010
00000000
00000010
00001000
00000000
00001000
00010000
00000000
00010000
00000100
00010000
00000000
,
00001000
01000000
00000000
00100000
00000000
01000000
00010000
00000000
00000000
00000000
00100000
00000000
01000000
00000000
10000000
00000000
,
00010000
10000000
01000000
00100000
00000000
00001000
00010000
00000100
00000010
00000000
00000001
00000000
00000100
00000000
00000010
00000000
,
00010000
00000100
00000010
00001000
00000010
00000001
00000100
00000010
,
00010000
00100000
00010000
00000010
00001000
00000100
00010000
00000000
,
00001000
01000000
00100000
00010000
00100000
10000000
00010000
00100000
,
00001000
01000000
00100000
10000000
01000000
00010000
00001000
00000000
,
00000010
00000001
00000100
00010000
00000100
00000001
00001000
00000100
,
00010000
00001000
01000000
00100000
10000000
00010000
00100000
00000000
,
00001000
00010000
00100000
01000000
00001000
00010000
01000000
10000000
,
00100000
00000000
00100000
00000000
00100000
00000000
10000000
01000000
00000000
00100000
00001000
00000000
00011000
00000000
00000000
00000000
,
00010000
00000010
00001000
00000100
00000001
00000100
00001100
00001000
,
00000001
00000100
00010000
01000000
00100000
10000000
01000000
00100000
,
00001000
00010000
00100000
10000000
01000000
00100000
00101000
00001000
,
01000000
00100000
00010000
00001000
00100000
01000000
00010000
01000000
,
10000000
00100000
01000000
00001000
00010000
00000100
00000110
00000010
,
00000001
00001000
00000010
00010000
00001000
00100000
01000000
10000000
,
10100000
00000000
00000000
00101000
00000000
00000000
00001000
00010000
,
00000000
00000000
00010010
00000000
00000010
00000100
00000000
00000002
,
00000000
00000000
00000000
00000000
00000000
00000000
00000013
00000100
00000010
00000000
00000001
00000000
00000000
00000000
00000100
00000000
,
00000000
00000000
00001000
00010000
00001000
00010000
00000100
00001000
00000100
00001000
00000010
00000100
00000010
00000000
00000000
00000000
,
00010000
00000000
00001000
00000000
00100000
01000000
00000000
10000000
,
00000000
00000000
00100000
01000000
00100000
01000000
00001000
00010000
00001000
00010000
00000010
00000100
00000010
00000100
00000001
00001000
,
00000001
00000000
00000000
00000000
00000000
00000000
00001000
00000010
00001000
00000000
00000010
00010000
00000010
00000000
00010000
00001000
,
00010000
00000000
00000000
00000000
00000000
00000000
00001000
00100000
00001000
00000000
01000000
00000000
00010000
10000000
00010000
10000000
,
00100000
01000000
00001000
00011000
00000000
00010000
00000100
00000010
,
00000001
00000000
00001001
00000000
00000000
00000000
00001000
00000000
00000001
00000010
00000100
00001000
00000001
00000000
00000000
00000000
,
00000100
00000010
00010000
00011000
00000000
00001000
00100000
01000000
,
10000000
00000000
10010000
00000000
00000000
00000000
00010000
00000000
00100000
00000000
00000000
01000000
00100000
00000000
00000000
00010000
,
10000000
00000000
00000000
00000000
00000000
01000000
00000000
00000000
00000000
00000000
00100000
00000000
00000000
00000000
00000000
00000000
00001000
00000000
00000000
00000000
00000000
00010000
00000000
00000000
00000000
00000000
00000010
00000000
00000000
00000000
00000000
00000000
00000100
00000000
00000000
00000000
00000000
00000000
00000000
00000000
00000001
00000000
00000000
00000000
00000000
00000000
00000000
00000000
00000010
00000000
00000000
00000000
00000000
00000000
00000000
00000000
00000100
00000000
00000000
00000000
00000000
00000000
00000000
00000000
,
00010000
00000010
00000100
00000001
00000010
00001000
00010000
00100000
,
10000000
00010000
00100000
01000000
10000000
00100000
01000000
00001000
,
00010000
10000000
02000000
00010000
03001000
00000100
00000001
00000010
,
00000100
00010000
00000010
00001000
00000001
00000010
00000200
00010000
,
00001300
00000001
00000010
00000100
00010000
00001000
01000000
00100000
,
10000000
00010000
00100000
00001000
00010000
00000010
00000200
00000001
,
00000310
00010000
00001000
00100000
01000000
10000000
00100000
00010000
,
00001000
00000000
00100000
00000000
01000000
00000000
10000000
00100000
10000000
00100000
01000000
00000000
00001000
00000000
00010000
00000000
,
01000000
00000000
10000000
00000000
00100000
00000000
00000000
01000000
00000000
00000000
00001000
00000000
00010000
00000000
00000100
00000000
,
00000010
00000000
00000000
00000000
00000001
00001000
00000001
00001000
00000010
00000000
00000100
00000000
00000002
00000000
00000010
00000000
,
00001003
00000000
00000100
00000000
00000000
00000000
00010000
00000010
00010000
00000010
00001000
00000000
00000100
00000000
00010000
00000000
,
00001000
00000000
00000000
00000000
01000000
00000000
00100000
10000000
00100000
10000000
00000000
00000000
00020000
00000000
00100000
00000000
,
10030000
00000000
01000000
00000000
00100000
00000000
00000000
00001000
00000000
00000000
00000010
00000000
00000001
00000000
00000100
00000000
,
00000010
00000000
00010000
00000000
00000100
00000000
00000010
00000001
00000000
00000000
00000100
00000000
00000020
00000000
00010000
00000000
,
00001030
00000000
00000001
00000000
00000010
00000000
00000000
00000100
00000000
00000000
00010000
00000000
01000000
00000000
10000000
00000000
,
00010000
00000000
10000000
00100000
10000000
00100000
00000000
00000000
01000000
00001000
01000000
00001000
00000000
00000000
00010000
00000000
,
00000100
00000000
00000010
00000000
00000001
00000100
00000001
00000000
00000010
00000100
00000010
00000000
00000001
00001000
00000001
00001000
,
00000100
00010000
00000100
00010000
00000000
00010000
00001000
00000000
00001000
00000100
00000000
00000100
00000001
00000000
00000001
00000010
,
00000100
00000000
00000000
00000000
00010000
00000000
00000000
00001000
00100000
00001000
00010000
00000000
00100000
10000000
00000000
00000000
,
01000000
00100000
00001000
00100000
00010000
00100000
00001000
00000000
00010000
00000010
00001000
00000010
00010000
00000000
00000100
00000010
,
00000001
00001000
00000000
00000000
00000001
00000000
00000000
00000100
00000010
00010000
00001000
00010000
00000000
00001000
00100000
01000000
,
10000000
00100000
10000000
01000000
00000000
01000000
00010000
00000000
00001000
00000000
00000000
00000100
00000001
00000000
00000010
00000100
,
00000010
00000001
00001000
00000000
00000001
00000100
00000000
00000010
00010000
00001000
00000000
00000000
01000000
00000000
00010000
00000000
,
00100000
00000000
00010000
01000000
00100000
10000000
00100000
00000000
01000000
00100000
01000000
00010000
01000000
00001000
00010000
00001000
,
00010000
00000000
00000000
00000000
;

//---------------dance-double - ----------------
#NOTES:
     dance-double:
     :
     Beginner:
     1:
     0.129074,0.234902,0.062312,0.000000,0.000000,87.000000,81.000000,6.000000,0.000000,0.000000,0.000000,0.129074,0.234902,0.062312,0.000000,0.000000,87.000000,81.000000,6.000000,0.000000,0.000000,0.000000:
00000000
00000000
00000000
00000000
,
00000000
00000000
00000000
00000000
,
10000000
00000000
00000000
00000000
,
10000000
00000000
00000000
00000000
,
00010000
00000000
00000000
00000000
,
00010000
00000000
00000000
00000000
,
01000000
00000000
00000000
00000000
,
01000000
00000000
00000000
00000000
,
00001000
00000000
00000000
00000000
,
00010000
00010000
00000000
00000000
,
00000100
00000000
00000000
00000000
,
00000000
00000000
00000000
00000000
,
00001000
00000000
00000000
00000000
,
00000001
00000000
00000000
00000000
,
00000100
00000000
00000010
00000000
,
00000100
00000000
00000000
00000000
,
00001000
00000000
00010000
00000000
,
00001000
00000000
00000000
00000000
,
00100000
00000000
01000000
00000000
,
00100000
00000000
00000000
00000000
,
00010000
00000000
10000000
00000000
,
00100000
00000000
01000000
00000000
,
00001000
00000000
00010000
00000000
,
00011000
00000000
00000000
00000000
,
00001000
00000000
00000100
00000000
,
00000110
00000000
00000000
00000000
,
00000001
00000000
00000001
00000000
,
00001001
00000000
00000000
00000000
,
00000100
00000000
00001001
00000000
,
00001000
00000000
00000110
00000000
,
00010000
00000000
00000000
00000000
,
00001000
00000000
00000000
00000000
,
00100000
00000000
00000000
00000000
,
01000000
00000000
00000000
00000000
,
10000000
00000000
00000000
00000000
,
00010000
00000000
00000000
00000000
,
01000000
00000000
01000000
00000000
,
00000000
00000000
00000000
00000000
,
00001000
00000000
00001000
00000000
,
00000000
00000000
00000000
00000000
,
00000000
00000000
00000000
00000000
,
00000000
00010000
00000000
00000000
00000000
00000000
00000000
00000000
,
00000000
00001000
00000000
00000000
00000000
00000000
00000000
00000000
,
00000000
00010000
00000000
00000000
00000000
00000000
00000000
00000000
,
00000000
00000100
00000000
00000000
00000000
00000000
00000000
00000000
,
00000000
00000010
00000000
00000000
00000000
00000000
00000000
00000000
,
00000000
00000001
00000000
00000000
00000000
00000000
00000000
00000000
,
00000000
00001000
00000000
00000000
00000000
00000000
00000000
00000000
,
00000000
00000001
00000000
00000001
00000000
00000000
00000000
00000000
,
00000000
00000100
00000000
00000000
00000000
00001000
00000000
00000000
,
00000000
00010000
00000000
00000000
00000000
00001000
00000000
00000000
,
00000000
00010000
00000000
00000000
00000000
01000000
00000000
00000000
,
00000000
10000000
00000000
00000000
00000000
00010000
00000000
00000000
,
00000000
10000000
00000000
00000000
00000000
00010000
00000000
00000000
,
00000000
00100000
00000000
00000000
00000000
01000000
00000000
00000000
,
00000000
00010000
00000000
00000000
00000000
00001000
00000000
00000000
,
00000000
00000100
00000000
00000000
00000000
00000010
00000000
00000000
,
00000000
00001000
00000000
00000000
00000000
00000000
00000000
00000000
,
00000000
00000000
00000000
00000000
,
00000000
00001001
00000000
00000000
00000000
00000000
00000000
00000000
,
00000000
00000001
00000000
00000000
00000000
00001000
00000000
00000000
,
00000000
00000100
00000000
00000000
00000000
00000000
00000000
00000000
,
00000000
00000000
00000000
00000000
,
00000000
00010000
00000000
00000000
00000000
00000000
00000000
00000000
,
00000000
00001000
00000000
00000000
00000000
01000000
00000000
00000000
;
