#TITLE:Seth;
#SUBTITLE:;
#ARTIST:MonstDeath;
#TITLETRANSLIT:;
#SUBTITLETRANSLIT:;
#ARTISTTRANSLIT:;
#GENRE:;
#CREDIT:;
#BANNER:Seth-bn.png;
#BACKGROUND:Seth-bg.png;
#LYRICSPATH:;
#CDTITLE:;
#MUSIC:Seth.ogg;
#OFFSET:0.937500;
#SAMPLESTART:25.214998;
#SAMPLELENGTH:20.000000;
#SELECTABLE:YES;
#DISPLAYBPM:197.000000;
#BPMS:0.000000=197.000000
;
#STOPS:
;
#BGCHANGES:;
#KEYSOUNDS:;
#ATTACKS:;

//---------------dance-single - ----------------
#NOTES:
     dance-single:
     :
     Challenge:
     19:
     1.155578,1.315765,0.384840,0.784482,1.202626,1093.000000,1041.000000,52.000000,106.000000,0.000000,0.000000,1.155578,1.315765,0.384840,0.784482,1.202626,1093.000000,1041.000000,52.000000,106.000000,0.000000,0.000000:
// measure 0
0000
0000
0000
0000
,  // measure 1
0000
0000
0000
0000
,  // measure 2
0000
0000
0000
0000
,  // measure 3
0000
0000
0000
0000
,  // measure 4
2100
0001
0001
0100
0000
0010
3010
0000
,  // measure 5
0102
0100
1000
1000
0000
0010
0013
0000
,  // measure 6
2001
0001
0010
0010
0000
0100
3100
0000
,  // measure 7
0011
0000
0001
0000
0100
0000
0010
0000
1000
0000
0001
0000
0100
0000
0010
1000
,  // measure 8
0002
0100
0010
0010
0000
1000
1003
0000
,  // measure 9
1020
0100
0100
0001
0000
1000
1030
0000
,  // measure 10
0210
1000
0001
0001
0000
0010
0310
0000
,  // measure 11
1000
0000
1100
0000
0110
0000
0000
0000
0001
0000
0000
0000
0001
0000
0100
0010
,  // measure 12
1000
0100
0010
0012
0000
0100
0103
0010
,  // measure 13
1010
0001
1000
0001
0101
0100
1001
1000
,  // measure 14
1010
0001
0010
0100
0101
0010
1000
0001
,  // measure 15
1000
0000
0010
0000
1000
0000
0001
0000
0010
0000
0100
0000
1000
0000
0010
0100
,  // measure 16
0001
0010
0001
0100
2000
0010
3010
0000
,  // measure 17
1000
0001
0010
0001
0200
0010
0310
0000
,  // measure 18
1000
1000
0001
0001
0010
0010
0100
0100
,  // measure 19
1000
0010
0001
0100
0001
0010
0100
0001
0100
1000
0010
1000
0010
0001
0100
1000
,  // measure 20
0002
0000
0000
0000
,  // measure 21
0000
0003
0110
0000
,  // measure 22
0012
0000
0100
0000
0103
0000
0010
0000
1000
0001
1000
0010
0100
0001
0010
0100
,  // measure 23
2000
0000
3010
0100
1000
0100
0001
0010
0200
0000
0301
0100
0010
0001
1000
0010
,  // measure 24
0200
0000
0301
0010
0100
0000
1000
0000
0001
0100
0010
0001
0010
0100
0010
1000
,  // measure 25
0200
0000
0320
0000
0230
0000
2300
0000
3001
0100
0001
0010
1000
0010
0001
0100
,  // measure 26
0020
0000
0000
0000
1030
0000
0001
0000
0100
0001
0010
0100
1000
0010
1000
0001
,  // measure 27
0020
0000
0000
0000
0031
0100
0001
0100
1000
0100
1000
0100
0001
0100
1000
0100
,  // measure 28
0001
0010
0001
0000
1001
0000
1001
0000
1000
0010
0100
0010
1000
0000
0001
0000
,  // measure 29
0010
0001
0100
1000
0001
0000
0101
0000
1000
0010
1000
0100
0001
0100
0010
0100
,  // measure 30
2000
0000
0000
0010
3010
0100
0001
1000
,  // measure 31
2100
0000
0000
0000
3001
0010
0100
1000
0002
0000
0000
0000
1003
0010
0100
0001
,  // measure 32
0020
0000
0001
0000
0031
0000
0100
0000
0010
1000
0010
0001
0010
0100
0001
0000
,  // measure 33
2000
0000
3002
0000
0023
0000
0230
0000
0310
0001
0100
0010
1000
0001
1000
0100
,  // measure 34
0001
0010
0001
0100
1000
0000
0010
0000
1000
0001
0010
0001
0100
0010
1000
0001
,  // measure 35
0010
1000
0010
0100
0010
0001
1000
0001
0100
0010
0100
0010
0100
0001
0010
1000
,  // measure 36
0100
1001
0010
1100
0011
0100
1010
0101
,  // measure 37
1000
0000
0110
0000
1001
0000
0001
0000
0010
0100
1000
0001
1000
0010
0100
0001
,  // measure 38
2000
0000
3010
0100
0010
1000
0001
0000
0200
0000
0302
0000
0023
0000
0230
0000
,  // measure 39
1300
0010
0100
0010
1000
0100
0001
0100
0010
1000
0010
0100
0010
0001
1000
0001
,  // measure 40
0200
0000
1000
0000
0301
0000
0110
0000
1000
0010
0100
0001
0010
0100
1000
0010
,  // measure 41
0200
0000
0000
0000
0301
0000
1000
0000
0100
0010
0100
0010
0001
0100
1000
0001
,  // measure 42
0020
0000
0000
0031
0100
0000
0001
0000
1000
0001
0100
0010
1000
0001
1000
0100
,  // measure 43
0020
0000
0031
0100
0010
1000
0001
1000
0200
0000
0301
0100
1000
0010
1000
0001
,  // measure 44
0100
0010
1000
0010
0100
0000
0001
0000
0010
0100
1000
0010
1000
0001
0100
0000
,  // measure 45
0001
0010
0100
1000
0100
0010
0001
0000
1000
0010
0100
0001
0010
0100
1000
0000
,  // measure 46
2010
0000
0001
0001
0000
3100
0011
0001
,  // measure 47
1001
0100
0020
1000
1030
0001
0100
0010
,  // measure 48
1000
0001
0010
0001
1000
0000
0010
0000
0110
0000
0001
0000
0010
0000
0100
0000
,  // measure 49
1000
1000
2000
0000
3001
0100
0010
1000
,  // measure 50
0001
0100
0001
0100
0001
0100
0001
0100
0010
0000
1000
0000
1000
0000
0001
0000
,  // measure 51
0010
0000
0100
0000
2000
0000
3001
0100
0010
1000
0010
1000
0100
0001
0100
0010
,  // measure 52
0200
0000
0000
1300
0010
0000
0100
0000
0201
0000
0001
0000
0310
0000
1000
0000
,  // measure 53
1200
0000
0000
0301
0100
0000
0010
0000
0002
0000
0203
0000
0320
0000
1030
0000
,  // measure 54
1010
0000
0001
1000
0001
0000
0010
0000
0100
0000
1000
0000
1000
0000
0001
0000
,  // measure 55
1001
0000
0100
0010
1000
0001
1000
0100
0001
0000
0010
0000
0100
1000
0010
0001
,  // measure 56
2000
0000
0100
0000
3100
0000
1000
0010
0001
0000
0200
0000
0320
0000
2030
0000
,  // measure 57
3001
0000
0001
0000
0001
0010
1000
0100
0001
0000
0010
0000
0100
1000
0100
1000
,  // measure 58
0001
0000
0100
0000
0010
1000
0010
0000
0100
0000
0001
1000
0010
0001
0100
0000
,  // measure 59
1000
0100
1000
0100
0020
0000
0000
0000
0031
0010
1000
0010
0001
0100
0001
0000
,  // measure 60
2000
0000
3010
0100
0010
0000
1000
0000
0002
0000
0100
0000
0203
0000
0010
0000
,  // measure 61
1300
0100
0001
0010
0100
0000
1000
0000
0001
1000
0100
0010
0100
1000
0010
0001
,  // measure 62
0200
0010
0010
0010
,  // measure 63
0010
0310
0110
0000
,  // measure 64
0102
0000
0000
0000
1003
0000
0001
0000
0020
0000
0230
0000
1300
0010
0100
1000
,  // measure 65
0100
0001
0100
0001
0010
0100
0010
0100
2000
0000
0000
0000
3001
0100
1000
0001
,  // measure 66
1000
0100
1000
0100
1000
0000
0001
0000
0010
0001
1000
0100
1000
0100
0010
0001
,  // measure 67
0100
0001
1000
0001
0010
0100
1000
0010
1000
0001
0010
0100
0010
0100
0001
1000
,  // measure 68
0020
0000
1000
0000
1030
0100
0001
0000
0010
0100
1000
0001
0010
1000
0100
0001
,  // measure 69
2000
0000
0000
0000
3100
0001
1000
0100
0002
0000
0010
0000
0103
0010
1000
0100
,  // measure 70
0002
0000
0010
0000
0010
0000
1003
0001
0100
1000
0001
1000
0010
0001
0010
0100
,  // measure 71
1000
0001
0100
0010
0001
0010
0100
1000
0020
0000
0230
0000
0302
0000
1003
0000
,  // measure 72
2200
0000
0300
0001
0001
0100
0010
3100
,  // measure 73
2001
0000
0000
0000
3010
1000
0100
0010
0002
0000
0000
0000
1003
0001
0010
0100
,  // measure 74
1000
0000
1000
0100
0010
0000
0010
0001
0200
0000
0320
0000
2030
0000
3002
0000
,  // measure 75
2003
3020
0032
0023
2030
0000
3200
0320
,  // measure 76
0032
0000
0100
0000
0103
0000
0020
0000
1030
0001
0020
0000
0031
0100
1000
0000
,  // measure 77
0020
0000
1030
0001
0100
1000
0100
0010
2000
0000
3001
0010
1000
0010
0001
0100
,  // measure 78
0001
0010
1000
0000
1100
0000
0001
0100
1000
0000
1010
0000
0001
0010
1000
0000
,  // measure 79
0101
0000
0001
0100
1000
0000
0011
0000
0010
1000
0001
1000
0100
0001
0100
0010
,  // measure 80
2000
0000
0100
0000
0100
0000
3001
0000
0010
1000
0010
0100
0010
1000
0010
0001
,  // measure 81
0200
0000
0000
0000
0310
0100
0001
0010
2000
0000
0000
3100
1000
0010
0001
0100
,  // measure 82
0010
1000
0010
0000
0100
0001
0100
0010
1000
0001
0010
0001
0100
0010
1000
0000
,  // measure 83
0120
0000
0000
0000
1030
0010
0100
0001
0010
0100
1000
0010
0001
0100
0010
1000
,  // measure 84
0001
1000
0001
1000
0001
0000
0101
0000
1000
0010
0100
0010
1000
0100
0010
0001
,  // measure 85
0100
0000
0010
1000
0001
0100
1000
0010
0100
0001
0100
0010
1000
0001
0010
1000
,  // measure 86
0001
0000
0001
0100
1000
0000
1000
0010
0100
0000
0100
0001
0010
0000
0010
1000
,  // measure 87
0001
0100
0010
0100
1000
0100
1000
0010
1000
0001
0010
0001
0100
0010
0001
1000
,  // measure 88
0020
0000
0000
1030
0001
0000
0100
0000
0002
0000
0013
0100
1000
0010
1000
0001
,  // measure 89
0200
0000
0310
1000
0100
1000
0001
0100
0020
0000
0031
0010
1000
0100
0010
0001
,  // measure 90
0100
0010
0100
0010
0100
0010
0100
0010
1000
0100
0010
0001
0010
0100
1000
0000
,  // measure 91
0001
0100
1000
0010
1000
0100
0010
0100
0001
0010
0001
1000
0010
1000
0100
0001
,  // measure 92
0010
1000
0100
0001
1000
0001
1000
0010
0100
0010
0001
0100
0010
1000
0001
0100
,  // measure 93
1000
0010
0001
0100
1000
0010
0100
0001
0010
1000
0100
0001
0100
1000
0001
0010
,  // measure 94
0100
0010
1000
0100
0001
0100
0010
1000
0001
0010
0100
1000
0001
1000
0001
0010
,  // measure 95
1000
0001
0010
0100
1000
0100
0001
0100
1000
0001
0010
1000
0010
0001
0100
0010
,  // measure 96
2000
0000
0010
0010
0010
0000
3001
0000
,  // measure 97
0012
0000
1000
1000
1000
0000
0103
0000
,  // measure 98
2001
0000
0100
0100
0100
0000
3001
0000
,  // measure 99
1020
0000
0000
0000
0100
0000
0100
0000
0100
0000
0000
0000
1030
0000
0010
0100
,  // measure 100
0002
0000
1000
1000
1000
0010
0103
0000
,  // measure 101
0210
0001
0000
1000
1000
0000
0310
0000
,  // measure 102
2010
0001
0001
0100
0010
0100
3100
0000
,  // measure 103
2100
0000
0001
0000
0100
0000
0000
0000
0010
0000
0000
0000
3100
1000
0010
0200
,  // measure 104
0002
0000
0000
0000
,  // measure 105
0000
0000
0000
0000
,  // measure 106
0000
0000
0000
0000
,  // measure 107
0000
0000
0000
0303
;
