#TITLE:Secret Rendez-vous;
#SUBTITLE:;
#ARTIST:DIVAS;
#TITLETRANSLIT:;
#SUBTITLETRANSLIT:;
#ARTISTTRANSLIT:;
#GENRE:;
#CREDIT:;
#BANNER:Secret Rendez-vous.png;
#BACKGROUND:Secret Rendez-vous-bg.png;
#LYRICSPATH:;
#CDTITLE:;
#MUSIC:Secret Rendez-vous.ogg;
#OFFSET:0.000000;
#SAMPLESTART:41.631001;
#SAMPLELENGTH:15.000000;
#SELECTABLE:YES;
#DISPLAYBPM:98.000000;
#BPMS:0.000000=98.093002
,4.000000=98.003998
;
#STOPS:
;
#BGCHANGES:;
#KEYSOUNDS:;
#ATTACKS:;

//---------------dance-single - ----------------
#NOTES:
     dance-single:
     :
     Beginner:
     3:
     0.107891,0.149085,0.058849,0.000000,0.000000,77.000000,71.000000,6.000000,0.000000,0.000000,0.000000,0.107891,0.149085,0.058849,0.000000,0.000000,77.000000,71.000000,6.000000,0.000000,0.000000,0.000000:
0000
0000
0000
0000
,
0000
0000
0000
0000
,
0000
0000
0000
0000
,
0000
0000
0000
0000
,
0000
0000
0000
0000
,
1000
0000
0000
0001
,
0001
0000
0000
0010
,
0010
0000
0000
0100
,
0100
0000
0000
1000
,
1000
0000
0001
0001
,
0001
0000
0000
0010
,
0010
0000
0000
0100
,
0100
0000
0000
1000
,
1000
0000
0001
0000
,
1000
0000
0010
0000
,
0010
0000
0100
0000
,
1000
0000
0100
0000
,
0010
0000
0010
0010
,
0010
0000
0010
0010
,
0000
0100
0000
0100
,
0000
0001
0001
0001
,
0000
0000
0001
0001
,
0001
0000
1000
1000
,
1000
0000
0010
0000
,
1000
0000
0000
1001
,
1001
0000
0000
0010
,
0010
0000
0000
0110
,
0110
0000
0000
0100
,
0100
0000
0000
1001
,
1001
0000
0000
0000
,
0010
0000
0000
0000
,
0100
0000
0100
0000
,
0010
0000
1000
0000
,
0010
0000
0100
0000
,
0100
0000
0100
0000
,
0001
0000
0100
0000
,
0001
0000
0100
0000
,
0001
0000
1000
1000
,
1000
0000
0000
0000
;

//---------------dance-single - ----------------
#NOTES:
     dance-single:
     :
     Easy:
     4:
     0.142920,0.211736,0.098082,0.019616,0.000000,102.000000,92.000000,10.000000,2.000000,0.000000,0.000000,0.142920,0.211736,0.098082,0.019616,0.000000,102.000000,92.000000,10.000000,2.000000,0.000000,0.000000:
0000
0000
0000
0000
,
0000
0000
0000
0000
,
0000
0000
0000
0000
,
0000
0000
0000
0000
,
0000
0000
0000
0000
,
0000
0000
0000
0000
,
1000
0000
0000
0001
,
0001
0000
0000
0010
,
0010
0000
0000
0100
,
0100
0000
0000
1000
,
1000
0000
1000
0001
,
0001
0000
0001
0010
,
0010
0000
0010
0100
,
0100
0000
0100
1000
,
1000
0000
0001
0000
,
1000
0100
0010
0001
,
0010
0000
0100
0000
,
1000
0010
0100
0001
,
0010
0000
0010
0010
,
0010
0000
0010
0010
,
0001
0010
0100
1000
,
0001
0010
0100
1001
,
1000
0000
0001
0001
,
0001
0000
1000
1000
,
1000
0100
0010
0001
,
1000
0100
0010
1001
,
1001
0000
0000
1001
,
0110
0000
0000
0110
,
1001
0000
0000
1001
,
0010
0000
0000
0000
,
0010
0000
0000
0000
,
0100
0000
0100
0000
,
0010
0001
1000
0100
,
0010
0000
0100
0010
,
0100
0000
0100
0010
,
0001
0010
0100
1000
,
0001
0010
0100
1001
,
0001
0000
1000
1000
,
2002
0000
0000
0000
,
0000
3003
0000
0000
;

//---------------dance-single - ----------------
#NOTES:
     dance-single:
     :
     Medium:
     7:
     0.235398,0.288730,0.215781,0.039233,0.000000,168.000000,146.000000,22.000000,4.000000,0.000000,0.000000,0.235398,0.288730,0.215781,0.039233,0.000000,168.000000,146.000000,22.000000,4.000000,0.000000,0.000000:
0000
0000
0000
0000
,
0000
0000
0000
0000
,
0000
0000
0000
0000
,
0000
0000
0000
0000
,
0000
0000
0000
0000
,
0010
0000
1000
0000
0001
0100
0000
0000
,
0010
0000
1000
0000
0001
0100
0000
0000
,
0001
0010
0100
1000
,
0100
0000
0010
0000
0001
1000
0100
0000
,
0010
0000
0001
0000
1000
0100
0000
0000
,
0010
0000
0001
0000
1000
0100
0000
0000
,
1000
0010
0100
0001
,
0100
0000
0010
0000
1000
0001
0100
0000
,
0010
0000
0010
0000
0010
1000
0100
0000
,
0010
0000
0010
0000
0010
0001
0100
0000
,
0110
1000
0110
0001
,
1000
0100
0010
1001
,
0001
0000
0001
0000
0001
1000
0001
0000
,
1000
0000
1000
0000
1000
0001
1000
0000
,
1000
1100
0001
0101
,
1000
0000
0010
0000
0100
0001
1001
0000
,
1000
0000
1000
0000
1000
0001
1000
0000
,
0001
0000
0001
0000
0001
1000
0001
0000
,
0001
0101
1000
1100
,
0001
0000
0100
0000
0010
1000
1001
0000
,
0010
0000
0000
0000
0010
1000
1001
0000
,
1000
0000
0000
0000
0100
0010
0110
0000
,
0100
0000
0000
0000
0100
1000
1001
0000
,
0001
0000
0000
0000
0001
0100
0110
0000
,
0020
0000
0000
0000
0100
0100
0030
0000
,
0200
0000
0000
0000
0010
0010
0300
0000
,
0010
0000
0010
0000
0010
0100
0010
0000
,
0010
1000
0001
1001
,
0100
0000
1001
0000
0001
0100
0001
0000
,
1001
0000
1000
0000
0010
1000
0100
0000
,
1001
0110
1100
0101
,
1000
0100
0010
1001
,
0001
0000
1000
0000
0001
1000
0100
0010
,
2002
0000
0000
0000
,
0000
3003
0000
0000
;

//---------------dance-single - ----------------
#NOTES:
     dance-single:
     :
     Hard:
     12:
     0.378318,0.461969,0.323672,0.137315,0.421755,270.000000,237.000000,33.000000,14.000000,0.000000,0.000000,0.378318,0.461969,0.323672,0.137315,0.421755,270.000000,237.000000,33.000000,14.000000,0.000000,0.000000:
// measure 0
0000
0000
0000
0000
,  // measure 1
0000
0000
0000
0000
,  // measure 2
0000
0000
0000
0000
,  // measure 3
0000
0000
0000
0000
,  // measure 4
0000
0000
0000
0000
,  // measure 5
1000
0000
0010
1000
0010
0000
0100
0000
0001
0010
0001
0000
0000
0000
1000
0000
,  // measure 6
0001
0000
0010
0001
0010
0000
0100
0000
1000
0010
1000
0000
0001
0000
1000
0000
,  // measure 7
0010
0000
1000
0100
1000
0100
0000
0010
0001
0010
0001
0000
0000
1000
0001
1000
,  // measure 8
0100
1000
0000
0001
0000
0010
0000
0100
0000
1000
0000
0001
0000
1001
0000
0000
,  // measure 9
1000
0000
0100
1000
0100
0000
0010
0001
0010
0001
0100
0000
0000
0000
0010
0000
,  // measure 10
1000
0000
0001
0100
0001
0000
0100
0000
0010
1000
0010
0000
0100
0000
0001
0000
,  // measure 11
0010
0000
0001
1000
0100
1000
0010
1000
0000
0001
0100
0000
0000
0001
0100
1000
,  // measure 12
0100
0001
0000
1000
0000
0100
0000
0010
0000
0001
0000
1000
0000
1001
0000
0000
,  // measure 13
0110
0000
0000
1001
0000
0000
1000
0000
0100
0000
0010
0000
0001
0000
1000
0000
,  // measure 14
1100
0000
0000
0110
0000
0000
0011
0000
0000
0000
1000
0000
0001
0000
0010
0000
,  // measure 15
0101
0000
0110
1000
0000
1001
0000
0001
,  // measure 16
0010
0100
1000
1001
0000
1001
0010
0000
,  // measure 17
2001
0000
0000
0000
0000
0001
0000
0001
0000
0001
0000
0000
3000
0000
0000
0000
,  // measure 18
1002
0000
0000
0000
0000
1000
0000
1000
0000
1000
0000
0000
0003
0000
0000
0000
,  // measure 19
0001
0000
0010
0100
0000
1000
0100
1000
0010
0000
0100
0001
0000
0100
0010
1000
,  // measure 20
0100
0000
0101
1000
1100
0001
0011
0000
,  // measure 21
1002
0000
0000
0000
0000
1000
0000
1000
0000
1000
0000
0000
0003
0000
0000
0000
,  // measure 22
2001
0000
0000
0000
0000
0001
0000
0001
0000
0001
0000
0000
3000
0000
0000
0000
,  // measure 23
1001
0000
0000
0010
0100
0000
0000
0001
1000
0000
0000
0010
0100
0000
0000
0000
,  // measure 24
0011
0000
0101
0100
1100
0000
1010
0000
,  // measure 25
2002
0000
0000
0003
0000
0001
3001
0000
,  // measure 26
2002
0000
0000
3000
0000
1000
1003
0000
,  // measure 27
1001
0000
1000
0000
0001
0010
0001
0100
0010
0000
1000
0000
0100
1000
0010
0100
,  // measure 28
0010
0000
0000
0000
0010
0000
0000
0000
0001
1000
0001
0000
0001
1000
0001
1000
,  // measure 29
0002
0000
0000
0000
0000
2000
0000
0000
0000
0000
0000
0000
3003
0000
0000
0000
,  // measure 30
2000
0000
0000
0000
0000
0002
0000
0000
0000
0000
0000
0000
3003
0000
0000
1000
,  // measure 31
0001
0000
0000
0000
0000
0000
0000
0010
0100
0000
0000
0000
0000
0000
0000
1000
,  // measure 32
0001
0000
0000
0000
1100
0000
0000
0000
0000
0001
0000
0001
1000
0001
1000
0001
,  // measure 33
1000
0000
0001
0000
0010
0000
0100
0000
0010
0100
0010
0100
1000
0000
1000
0001
,  // measure 34
1000
0000
0010
0000
0100
0000
0001
0000
0010
0100
0010
0100
1000
0000
0001
0000
,  // measure 35
1001
0000
0000
0010
0100
0000
0000
0001
1000
0000
0000
0010
0100
0000
0001
0000
,  // measure 36
1100
0000
1001
0100
0110
0000
1001
0000
,  // measure 37
1000
0000
0000
0000
1000
0000
0000
0001
1000
0000
0000
0001
1000
0001
1000
0002
,  // measure 38
0200
0000
0000
0000
,  // measure 39
0000
0303
0000
0000
;

//---------------dance-single - ----------------
#NOTES:
     dance-single:
     :
     Challenge:
     13:
     0.532448,0.592909,0.470796,0.029425,0.774852,380.000000,332.000000,48.000000,3.000000,0.000000,0.000000,0.532448,0.592909,0.470796,0.029425,0.774852,380.000000,332.000000,48.000000,3.000000,0.000000,0.000000:
0000
0000
0000
0000
,
0000
0000
0000
0000
,
0000
0000
0000
0000
,
0000
0000
0000
0000
,
0000
0000
0000
0000
,
1001
0000
0010
0001
0100
0000
0001
0010
0100
1000
0010
0000
0100
0000
0001
0000
,
1001
0000
0100
0010
1000
0000
0001
0100
0010
1000
0001
0000
0010
0000
0100
0000
,
1001
0000
0001
1000
0100
1000
0000
0010
1000
0010
0100
0000
0000
0001
1000
0010
,
1000
0100
0000
0010
0000
0001
0000
1000
0000
0010
0000
0100
0000
0001
0000
1000
,
0110
0000
0001
0010
0001
0000
1000
0100
0010
0001
1000
0000
0001
0000
1000
0000
,
0110
0000
1000
0100
0010
0000
0001
0100
0010
1000
0001
0000
1000
0000
0100
0000
,
0011
0001
1000
0100
0001
0100
1000
0100
0000
0010
0001
0000
0000
0100
1000
0100
,
0001
0010
0000
0100
0000
1000
0000
0010
0000
0100
0000
0001
0000
1010
0000
1001
,
1000
0100
0010
0001
0100
0000
0000
1010
0000
1001
0000
0101
0000
0000
0001
0000
,
0011
0000
0100
0100
0000
1000
1000
0000
0010
0000
1000
0000
0001
0000
0010
0000
,
1100
1010
0101
0011
0000
0100
0100
1000
,
1010
0011
1100
0101
0000
0010
0010
0010
,
0100
1000
0100
0010
0001
0100
0001
0010
0000
1001
0000
0100
1000
0001
0001
0000
,
0100
0010
1000
0001
1000
0100
0010
0001
0000
0110
0000
1000
0010
0100
0100
0000
,
1010
0000
0100
0101
0000
0010
0100
1000
1001
0000
0100
1100
0000
0010
0100
0001
,
0010
0100
0000
1001
0000
0100
0010
0000
0000
0000
0001
0000
1000
0000
0001
0000
,
1000
0100
1000
0010
0100
0010
1000
0001
0000
0110
0000
0000
0000
0000
0000
0001
,
0100
0010
1000
0100
0010
0001
1000
0010
0000
1001
0000
0000
0000
0000
0000
1000
,
0100
0000
0000
0001
0010
0000
0000
1000
0100
0000
0000
0001
0010
0100
1000
0010
,
0100
0000
0001
0101
0000
1100
0000
0000
1001
0000
0000
0000
0100
0000
0100
0000
,
1000
0001
0010
0001
0000
1000
0100
0000
0000
0000
0010
0000
0010
0000
0010
0000
,
0100
1000
0001
1000
0000
0010
0100
0001
1001
0000
1001
0000
0000
1000
0010
0100
,
0010
1000
0001
1000
0000
0100
0010
0000
0000
0000
0100
0000
0100
0000
0100
0000
,
0010
0001
1000
0010
0000
0100
0001
1000
0001
1000
0000
1001
0000
0000
0000
0000
,
0001
0010
0000
0001
0000
1000
0000
0110
0000
0101
0000
0000
0000
0000
0000
1000
,
1000
0010
0000
0100
0000
0001
0000
0110
0000
1100
0000
0000
0000
0000
0000
1000
,
0010
0000
1000
0100
0000
0010
0001
0000
1001
0000
0100
0010
0000
1000
0001
0000
,
0010
0100
0000
1000
0000
0001
0200
0000
0000
0000
0000
0000
0300
0000
0000
0010
,
1000
0100
0010
0001
0100
0010
1000
0001
0000
0110
0000
0001
0010
0100
1000
0001
,
0100
0010
0100
0001
1000
0100
0010
0001
0000
0110
0000
1000
0010
0100
0001
1000
,
0010
0000
0000
0100
0001
0000
0000
0010
0100
0000
0000
1000
0001
0100
0010
1000
,
0001
0000
1000
1100
0000
0101
0000
0000
1001
0000
0000
0000
0110
0000
0000
1000
,
0001
0000
0010
0001
0010
0001
1000
0100
0110
0000
1000
0010
1000
0010
0100
0001
,
2002
0000
0000
0000
,
3003
0000
0000
0000
;

//---------------dance-double - ----------------
#NOTES:
     dance-double:
     :
     Beginner:
     1:
     0.100885,0.167721,0.088274,0.000000,0.000000,72.000000,63.000000,9.000000,0.000000,0.000000,0.000000,0.100885,0.167721,0.088274,0.000000,0.000000,72.000000,63.000000,9.000000,0.000000,0.000000,0.000000:
00000000
00000000
00000000
00000000
,
00000000
00000000
00000000
00000000
,
00000000
00000000
00000000
00000000
,
00000000
00000000
00000000
00000000
,
00000000
00000000
00000000
00000000
,
00000010
00000000
00010000
00000000
,
01000000
00000000
00001000
00000000
,
00000100
00000000
00010000
00000000
,
00100000
00000000
01000000
00000000
,
00100000
00000000
01000000
00000000
,
00000010
00000000
00000100
00000000
,
00100000
00000000
01000000
00000000
,
00000010
00000000
00000100
00000000
,
00011000
00000000
01100000
00000000
,
10000000
00000000
00100000
00000000
,
00011000
00000000
00000110
00000000
,
00000001
00000000
00000010
00000000
,
00011000
00000000
00100000
00000000
,
00000000
00000000
00000000
00000010
,
00000000
01000000
00000000
00000100
,
00000000
00000001
00000000
00000100
,
00000000
00000000
00000000
00000100
,
00000000
00000000
00000000
01000000
,
00000000
00000010
00000000
00100000
,
00000000
10000000
00000000
01000000
,
00000000
00000000
00010000
00000000
,
00000010
00000000
00001000
00000000
,
00010000
00000000
00001000
00000000
,
01000000
00000000
00010000
00000000
,
01000000
00000000
00010000
00000000
,
00000100
00000000
00001000
00000000
,
00100000
00000000
00010000
00000000
,
00000010
00000000
00001000
00000000
,
01000000
00000000
00010000
00000000
,
00000100
00000000
00001000
00000000
,
00011000
00000000
00011000
00000000
,
00011000
00000000
00011000
00000000
,
00010000
00000000
00010000
00000000
,
00010000
00000000
00000000
00000000
;

//---------------dance-double - ----------------
#NOTES:
     dance-double:
     :
     Easy:
     2:
     0.163938,0.250233,0.156932,0.009808,0.000000,117.000000,101.000000,16.000000,1.000000,0.000000,0.000000,0.163938,0.250233,0.156932,0.009808,0.000000,117.000000,101.000000,16.000000,1.000000,0.000000,0.000000:
00000000
00000000
00000000
00000000
,
00000000
00000000
00000000
00000000
,
00000000
00000000
00000000
00000000
,
00000000
00000000
00000000
00000000
,
00000000
00000000
00000000
00000000
,
00000010
00000000
00010000
00001000
,
01000000
00000000
00001000
00010000
,
00000100
00000000
00010000
00001000
,
00100000
00010000
01000000
00001000
,
00100000
00000000
01000000
00010000
,
00000010
00000000
00000100
00001000
,
00100000
00000000
01000000
00001000
,
00000010
00000000
00000100
00001000
,
00011000
00000000
01010000
00000000
,
10000000
01000000
00100000
00010000
,
00011000
00000000
00001100
00000000
,
00000001
00000100
00000010
00001000
,
00011000
00000000
00000000
00100000
,
00011000
00000000
00000000
00000010
,
00011000
01000000
00011000
00000100
,
00001000
00000001
00000010
00000100
,
00011000
00000000
00000000
00000100
,
00011000
00000000
00000000
01000000
,
00011000
00000010
00011000
00100000
,
00010000
10000000
00100000
01000000
,
01000000
00000000
00010000
00000000
,
00000010
00000000
00001000
00000000
,
00010000
00000000
00001000
00000000
,
01000000
00000000
00010000
10000000
,
01000000
00000000
00010000
00001000
,
00000100
00000000
00001000
00010000
,
00100000
00000000
00010000
00001000
,
00000010
00000000
00001000
00010000
,
01000000
00000000
00010000
00001000
,
00000100
00000000
00001000
00010000
,
00011000
00100000
00011000
00000010
,
00011000
00000100
00011000
01000000
,
00010000
00010000
00010000
00010000
,
00020000
00000000
00000000
00000000
,
00000000
00030000
00000000
00000000
;

//---------------dance-double - ----------------
#NOTES:
     dance-double:
     :
     Medium:
     5:
     0.263422,0.346476,0.392330,0.019616,0.000000,188.000000,148.000000,40.000000,2.000000,0.000000,0.000000,0.263422,0.346476,0.392330,0.019616,0.000000,188.000000,148.000000,40.000000,2.000000,0.000000,0.000000:
00000000
00000000
00000000
00000000
,
00000000
00000000
00000000
00000000
,
00000000
00000000
00000000
00000000
,
00000000
00000000
00000000
00000000
,
00000000
00000000
00000000
00000000
,
00100000
00000000
10000000
00000000
01000000
00000000
00010000
00001000
,
00000010
00000000
00000001
00000000
00000100
00000000
00001000
00010000
,
00100000
00000000
10000000
01000000
00010000
00001000
00000100
00000001
,
00000010
00000000
00000001
00000100
00001000
00010000
01000000
10000000
,
00100000
00000000
00100000
00000000
10000000
00010000
01000000
00000000
,
00100000
00000000
00100000
00000000
10000000
01000000
00010000
00001000
,
00000010
00000000
00000010
00000000
00000001
00001000
00000100
00000000
,
00000010
00000000
00000010
00000000
00000001
00000100
00001000
00010000
,
00100000
10000000
01000000
00010000
,
00001100
00010010
00001100
00010010
,
00000100
00000001
00000010
00001000
,
00110000
01001000
00110000
01001000
,
01100000
10000000
01000000
00010000
,
00000110
00000001
00000010
00001000
,
00011000
00010010
00011000
00101000
,
01100000
00011000
00000110
00011000
,
01100000
00000000
10000000
00010000
01000000
00000000
00001000
00000000
,
00000110
00000000
00000001
00001000
00000100
00000000
00010000
00000000
,
00011000
01001000
00011000
00010100
,
00011000
00001100
00011000
01010000
,
10010000
00000000
00000000
00000000
00010000
10000000
01000000
00000000
,
00011000
00000000
00000000
00000000
00000010
00000001
00000100
00000010
,
00001001
00000000
00000000
00000000
00001000
00000001
00000100
00000000
,
00011000
00000000
00000000
00000000
01000000
10000000
00100000
00000000
,
00021000
00000000
00000000
00000000
,
00001000
00000000
00000000
00030000
,
00001000
00100000
00010000
00000010
,
00011000
00101000
00011000
00010010
,
00001000
00000000
00000001
00000000
00001000
00000001
00000100
00000000
,
00010000
00000000
10000000
00000000
00010000
10000000
01000000
00000000
,
00001000
00001001
00001000
00010000
,
10010000
00010000
00001000
00011000
,
00100000
00000000
01000000
00000000
00010000
00001000
00000100
00000010
,
00000200
00000000
00000000
00000000
,
00000000
00000300
00000000
00000000
;

//---------------dance-double - ----------------
#NOTES:
     dance-double:
     :
     Hard:
     7:
     0.393731,0.461969,0.245206,0.078466,0.152028,281.000000,256.000000,25.000000,8.000000,0.000000,0.000000,0.393731,0.461969,0.245206,0.078466,0.152028,281.000000,256.000000,25.000000,8.000000,0.000000,0.000000:
00000000
00000000
00000000
00000000
,
00000000
00000000
00000000
00000000
,
00000000
00000000
00000000
00000000
,
00000000
00000000
00000000
00000000
,
00000000
00000000
00000000
00000000
,
00000100
00000000
00001000
00000000
00000001
00000000
00000100
00000000
00001000
00000000
00010000
00000000
00001000
00010000
00001000
00000000
,
00100000
00000000
01000000
00000000
10000000
00000000
00010000
00000000
01000000
10000000
01000000
00000000
00010000
00100000
00010000
00000000
,
10000000
00000000
01000000
00000000
00010000
00000000
00001000
00000000
01000000
00000000
00100000
00000000
10000000
00010000
10000000
00000000
,
00100000
01000000
00001000
00010000
00000010
00000100
00000001
00001000
,
00000100
00000000
00000010
00000000
00000001
00000000
00000100
00000000
00000010
00000000
00001000
00000000
00000100
00000010
00000100
00000000
,
00000010
00000000
00001000
00000000
00010000
00000000
00100000
00000000
01000000
00100000
01000000
00000000
00010000
00100000
00010000
00000000
,
01000000
00000000
00001000
00000000
00010000
00000000
00000100
00000000
00000010
00000000
00000001
00000000
00000100
00000010
00000100
00000000
,
00000001
00001000
00000001
00000000
00000010
00000100
00000010
00000000
00000100
00010000
00000100
00000000
00001000
00000001
00001000
00000000
,
00001001
00000000
00001100
00010000
00001000
01000000
00110000
00001000
,
00010000
00000000
00011000
00000000
00010010
00001000
00000100
00010000
,
00011000
00000000
01100000
10000000
01000000
00100000
00010000
01000000
,
01100000
00110000
00011000
00001100
,
00000210
00000001
00001000
00000301
,
00000120
00001000
00000001
00001030
,
00010000
00100000
10000000
01000000
00100000
00010000
01000000
00010000
,
00100000
00001000
00010000
00000010
00001000
00000100
00010000
01000000
,
01200000
10000000
00010000
10300000
,
02100000
00010000
10000000
03010000
,
00011000
00000000
00000000
00000000
00001100
00000000
00000000
00000000
00000010
00000001
00000010
00000001
00000010
00000000
00001000
00000000
,
00010000
00000000
00011000
00000000
00000010
00000001
00000100
00001000
,
00011000
00000000
00100000
00000000
10000000
00000000
01000000
00000000
00100000
00010000
00100000
00010000
00100000
00000000
00011000
00000000
,
00000010
00000000
00000001
00000000
00000100
00000000
00001000
00000000
00010000
00001000
00010000
00001000
00000100
00000000
00000001
00000000
,
00000200
00000010
00001000
00010300
,
00021000
01000000
10000000
00130000
,
01100000
00000000
00000000
00000000
10010000
00000000
00000000
00000000
00100000
10000000
00010000
10000000
01000000
00000000
00010000
00000000
,
00001000
00000000
00000100
00000000
00000010
00000000
00001000
00000000
00000001
00000010
00001000
00000010
00000001
00000000
00001000
00000000
,
00000100
00010000
00000100
00010000
00001000
00100000
00001000
00100000
,
00010000
10000000
00010000
10000000
11000000
00010000
00001000
00000100
,
00000101
00000000
00000010
00000000
00000001
00000000
00000100
00000000
00001000
00000000
00010000
00000000
00100000
10000000
00100000
10000000
,
00100000
00000000
01000000
00000000
00010000
00000000
10000000
00000000
00010000
00000000
01000000
00000000
00001000
00010000
00001000
00010000
,
00001000
00000000
00000100
00000000
00000001
00000000
00000010
00000000
00000001
00001000
00000001
00000000
00000001
00000010
00000100
00001000
,
00000010
00000100
00001000
00010000
01000000
10000000
00100000
01000000
,
00010000
00000000
00000000
00000000
10000000
00000000
00000000
00000000
00010000
00000000
10000000
00000000
01000000
00010000
00001000
00000200
,
00000020
00000000
00000000
00000000
,
00000000
00000330
00000000
00000000
;

//---------------dance-double - ----------------
#NOTES:
     dance-double:
     :
     Challenge:
     9:
     0.466592,0.497278,0.264823,0.039233,0.750331,333.000000,306.000000,27.000000,4.000000,0.000000,0.000000,0.466592,0.497278,0.264823,0.039233,0.750331,333.000000,306.000000,27.000000,4.000000,0.000000,0.000000:
00000000
00000000
00000000
00000000
,
00000000
00000000
00000000
00000000
,
00000000
00000000
00000000
00000000
,
00000000
00000000
00000000
00000000
,
00000000
00000000
00000000
00000000
,
00000100
00000000
00010000
00001000
00010000
00000000
00000100
00000010
00000001
00001000
00000001
00000000
00000100
00000000
00001000
00000000
,
00010000
00000000
00001000
00100000
00001000
00000000
00010000
00001000
01000000
00100000
01000000
00000000
00010000
00000000
10000000
00000000
,
00100000
00000000
01000000
00010000
10000000
01000000
00000000
00100000
00010000
10000000
00100000
00000000
00000000
00010000
00001000
00010000
,
00001000
01000000
00000000
00100000
00000000
00010000
00000000
00001000
00000000
00000010
00000000
00000001
00000000
00000100
00000000
00001000
,
00010000
00000000
00001000
00100000
00001000
00000000
00010000
00001000
01000000
00010000
00100000
00000000
01000000
00000000
10000000
00000000
,
00100000
00000000
01000000
00010000
01000000
00000000
00100000
10000000
01000000
00100000
00001000
00000000
00010000
00000000
00000100
00000000
,
00000010
00000001
00001000
00000001
00000010
00000001
00000100
00000001
00000000
00001000
00000100
00000000
00000000
00010000
00001000
01000000
,
00001000
00010000
00000000
00100000
00000000
10000000
00000000
01000000
00000000
00010000
00000000
00001000
00000000
00100000
00000000
00010000
,
10000000
01000000
00100000
00001000
00010000
00000000
00000000
00001000
00000000
00000100
00000000
00000001
00000000
00000000
00000010
00000000
,
00000100
00000000
00010000
00010000
00000000
00001000
00001000
00000000
00100000
00000000
00010000
00000000
01000000
00000000
00100000
00000000
,
10000000
01000000
00100000
00001000
00000000
00000000
00000000
00010010
,
00010000
00000100
00000010
00000001
00000000
00000000
00001001
00000000
,
00000010
00000100
00000000
00000001
00000000
00001000
00000000
00000110
00000000
00001001
00000000
00000001
00000100
00000000
00001000
00000000
,
00010000
00001000
00000000
00100000
00000000
00010000
00000000
01100000
00000000
10010000
00000000
10000000
01000000
00000000
00010000
00001000
,
00010000
00000000
01000000
00010000
00000000
00001000
00000100
00001000
00010000
00000000
00100000
10000000
00000000
01000000
00100000
00010000
,
01000000
00001000
00000000
00011000
00000000
00010000
00000200
00000000
00000000
00000000
00000000
00000000
00000000
00000300
00000000
00000100
,
00000010
00000001
00000000
00001000
00000000
00000100
00000000
00010100
00000000
01001000
00000000
00000000
00000000
00000000
00000000
00000000
,
01000000
00100000
10000000
01000000
00000000
00100000
00000000
00101000
00000000
00010010
00000000
00000000
00000000
00000000
00000000
00000001
,
00000100
00000000
00000000
00001000
00010000
00000000
00000000
01000000
10000000
00000000
00000000
00100000
01000000
00100000
10000000
00010000
,
10000000
00000000
01000000
00010000
00000000
00010100
00000000
00000000
01001000
00000000
00000000
00000000
00100000
00000000
10000000
00000000
,
01000000
00010000
00001000
00010000
00000000
00001000
00000100
00000000
00000000
00000000
00000001
00000000
00001000
00000000
00000001
00000000
,
00000010
00001000
00010000
00001000
00000000
00010000
00100000
10000000
01000000
00000000
01100000
00000000
00000000
00100000
00001000
00010000
,
00001000
00100000
00010000
01000000
00000000
00001000
00010000
00000000
00000000
00000000
00001000
00000000
00010000
00000000
00001000
00000000
,
00000010
00000001
00001000
00000010
00000000
00000100
00001000
00010000
00001000
00000100
00000000
00001001
00000000
00000000
00000000
00000000
,
00000100
00001000
00000000
00010000
00000000
00000100
00000000
00000110
00000000
00000011
00000000
00000000
00000000
00000000
00000000
00000100
,
00000010
00010000
00000000
00001000
00000000
01000000
00000000
01100000
00000000
10100000
00000000
00000000
00000000
00000000
00000000
10000000
,
01000000
00000000
00010000
00001000
00000000
00000100
00000001
00000000
00001001
00000000
00000001
00000010
00000000
00001000
00010000
00000000
,
00100000
10000000
00000000
01000000
00000000
00010000
00002000
00000000
00000000
00000000
00000000
00000000
00003000
00000000
00000000
00000010
,
00000001
00000100
00000010
00010000
00001000
00100000
00010000
01000000
00000000
10010000
00000000
00000000
00000000
00000000
00000000
00100000
,
10000000
01000000
00100000
00001000
00010000
00000010
00001000
00000100
00000000
00001001
00000000
00000000
00000110
00000000
00000000
00000001
,
00000100
00000000
00000000
00001000
00010000
00000000
00000000
01000000
10000000
00000000
00000000
00100000
00010000
00100000
10000000
00010000
,
10000000
00000000
01000000
00010000
00000000
00011000
00000000
00000000
00010100
00000000
00000000
00000000
00000110
00000000
00000000
00000001
,
00001000
00000000
00000001
00000100
00000010
00001000
00000001
00000100
00000010
00000000
00010000
00000100
00010000
00001000
01000000
00010000
,
20020000
00000000
00000000
00000000
,
30030000
00000000
00000000
00000000
;
