#VERSION:0.83;
#TITLE:SON OF SUN;
#SUBTITLE:;
#ARTIST:Shinji Hosoe;
#TITLETRANSLIT:;
#SUBTITLETRANSLIT:;
#ARTISTTRANSLIT:;
#GENRE:;
#ORIGIN:;
#CREDIT:;
#BANNER:SON OF SUN-bn.png;
#BACKGROUND:SON OF SUN-bg.png;
#PREVIEWVID:;
#JACKET:SON OF SUN-jacket.png;
#CDIMAGE:;
#DISCIMAGE:;
#LYRICSPATH:;
#CDTITLE:;
#MUSIC:SON OF SUN.ogg;
#OFFSET:0.000000;
#SAMPLESTART:14.400000;
#SAMPLELENGTH:20.000000;
#SELECTABLE:YES;
#DISPLAYBPM:200.000000;
#BPMS:0.000=200.000;
#STOPS:;
#DELAYS:;
#WARPS:;
#TIMESIGNATURES:0.000=4=4;
#TICKCOUNTS:0.000=4;
#COMBOS:0.000=1;
#SPEEDS:0.000=1.000=0.000=0;
#SCROLLS:0.000=1.000;
#FAKES:;
#LABELS:0.000=Song Start;
#BGCHANGES:;
#KEYSOUNDS:;
#ATTACKS:
;

//---------------dance-single - ----------------
#NOTEDATA:;
#CHARTNAME:;
#STEPSTYPE:dance-single;
#DESCRIPTION:;
#CHARTSTYLE:;
#DIFFICULTY:Hard;
#METER:15;
#RADARVALUES:0.888111,1.189975,0.426072,0.377654,0.406705,642.000000,598.000000,44.000000,39.000000,0.000000,0.000000,0.000000,0.000000,0.000000,0.888111,1.189975,0.426072,0.377654,0.406705,642.000000,598.000000,44.000000,39.000000,0.000000,0.000000,0.000000,0.000000,0.000000;
#CREDIT:;
#DISPLAYBPM:200.000000;
#NOTES:
0000
0000
0000
0000
,
0000
0000
0000
0000
,
0000
0000
0000
0000
,
0000
0000
0000
0000
,
0020
0000
0130
0001
1000
0100
0200
0000
,
1300
0000
0100
0010
0001
0100
1000
0000
,
0001
0000
1000
0001
0010
0100
1000
0000
,
0010
0000
1000
0001
0100
0010
0100
0000
,
0002
0000
0013
0001
0100
1000
2000
0000
,
3010
0000
0100
0001
0010
0100
1000
0000
,
0001
0000
1000
0001
0100
0010
0100
0000
,
0012
1003
2100
3001
,
0010
0000
0001
0000
0100
0000
0001
0000
1000
0100
1000
0000
0001
0000
0100
0000
,
0010
0000
0100
0000
0010
0000
1000
0000
0100
0010
0100
0000
1000
0000
0000
0000
,
0001
0000
1000
0000
0100
0000
0010
0000
0001
0100
0001
0000
1000
0000
0100
0000
,
0010
0000
0100
0000
0010
0000
0001
0000
0100
0010
0100
0000
0001
0000
0000
0000
,
1000
0000
0001
0000
0010
0000
0100
0000
0010
0001
0010
0000
0100
0000
1000
0000
,
0010
0000
0100
0000
0001
0000
1000
0000
0100
0010
0100
0000
1000
0000
0000
0000
,
0001
0000
0100
0000
0010
0000
1000
0000
0100
0010
0100
0000
1000
0000
0001
0000
,
0201
0310
1020
0130
,
0001
0000
0100
0000
0010
1000
0100
0000
0010
0000
0001
0000
0100
0010
1000
0000
,
0001
0100
0001
0100
0001
0000
0000
0000
1000
0100
1000
0100
1000
0000
0000
0000
,
0001
0000
1000
0000
0001
0100
0010
0000
1000
0000
0100
0000
0010
0001
0100
0000
,
0010
0100
0010
0100
0010
0000
0000
0000
1000
0000
1000
0000
1000
0000
1000
0000
,
0001
0000
0100
0000
0010
0100
0001
0000
0010
0000
0100
0000
1000
0001
0100
0000
,
0010
1000
0010
1000
0010
0000
0000
0000
0100
0001
0100
0001
0100
0000
0000
0000
,
0001
0000
0010
0000
0100
1000
0001
0000
0100
0000
0001
0000
0010
0100
1000
0000
,
0020
0130
0020
0130
0020
0130
1001
0000
,
0100
0001
0100
0000
0001
0100
0001
0000
1100
0000
0000
0000
1100
0000
0000
0000
,
0010
1000
0010
0000
1000
0010
1000
0000
0011
0000
0000
0000
0011
0000
0000
0000
,
1000
0100
1000
0000
0100
1000
0100
0000
1010
0000
0000
0000
1010
0000
0000
0000
,
0200
0000
0301
0010
0100
1000
2000
0000
,
3010
0100
0010
0000
0100
0010
0100
0000
1010
0000
0000
0000
1010
0000
0000
0000
,
0001
1000
0001
0000
1000
0001
1000
0000
0101
0000
0000
0000
0101
0000
0000
0000
,
0001
0010
0001
0000
1000
0100
1000
0000
0110
0000
0000
0000
0110
0000
0000
0000
,
0002
0000
0103
0001
1000
0010
0020
0000
,
1030
0010
0100
0002
0000
0010
0013
0000
,
0001
0100
0010
2000
0000
0001
3001
0000
,
0100
0001
0010
0200
0000
1000
1300
0000
,
1100
0011
1001
0110
,
0010
1000
0001
0200
0000
0001
0301
0000
,
0001
0010
0100
2000
0000
0100
3100
0000
,
1000
0001
0010
0002
0000
0100
0103
0000
,
0011
1100
0110
1001
,
2100
0000
0000
0000
3002
0000
0000
0000
0103
0001
0100
0000
0010
0000
0010
0000
,
0000
0000
1000
0000
1000
0000
0100
0000
1000
0001
1000
0000
0010
0100
0010
0000
,
0120
0000
0000
0000
2030
0000
0000
0000
3100
0010
0001
0000
0100
0000
0100
0000
,
0000
0000
0001
0000
0001
0000
0010
0000
0100
1000
0100
0000
1000
0001
1000
0000
,
1020
0000
0000
0000
0230
0000
0000
0000
0310
1000
0010
0000
0100
0000
0100
0000
,
0000
0000
0001
0000
0001
0000
1000
0000
0100
0010
0001
0000
0100
0010
1000
0000
,
0110
1002
0100
1000
,
0010
0000
0000
0000
0013
0000
0000
0000
0001
1000
0001
0000
1000
0001
1000
0000
,
1001
0000
0010
0000
0200
0000
0301
0001
,
0000
1000
0100
0000
2000
0000
3001
0010
,
0110
0000
1001
0000
2000
0000
3010
0010
,
0000
0100
0001
0000
0020
0000
0130
0000
,
1100
0000
0001
0000
0200
0000
0310
0010
,
0000
1000
0001
0000
0020
0000
0130
1000
,
1100
0101
0020
0130
,
0001
0010
0001
0000
1000
0010
1000
0000
0001
0100
0001
0000
1000
0100
1000
0000
,
0010
0000
0100
0000
0001
0010
0100
0010
0001
1000
0001
1000
0100
0000
0010
0000
,
0001
0000
0100
0000
0010
1000
0100
1000
0010
0100
0010
0100
0001
0000
1000
0000
,
0100
0000
0010
0000
0100
1000
0001
1000
0100
0010
0100
0010
0001
0000
0100
0000
,
0010
0100
0010
1000
0100
0010
0001
0000
,
0100
0000
0010
0000
1000
0100
0010
0100
1000
0001
1000
0001
0010
0000
0001
0000
,
0100
0000
0001
0000
0010
0100
1000
0100
0010
0001
0010
0001
0100
0000
0010
0000
,
1000
0000
0001
0000
0010
0001
0100
0001
0010
0100
0010
0100
1000
0000
0010
0000
,
1000
0001
1000
0001
1000
0001
1000
0001
1000
0001
1000
0001
1000
0001
1000
0001
,
0010
0001
0100
0001
1000
1000
1000
0000
,
0001
0110
1020
1030
,
0001
0100
0010
1000
0100
0100
0100
0000
,
0012
0100
0010
1003
,
0001
1000
0100
0010
0001
0001
0001
0000
,
0010
0011
2001
3100
,
1000
0001
0010
0100
0010
0010
0010
0000
,
0011
0001
0000
1100
1000
0000
1001
0000
,
0010
0001
0100
1000
0001
1000
0100
0010
,
1000
0100
0001
1000
0100
0010
1000
0010
,
1000
0100
0001
0010
1000
0100
0010
0001
,
1000
0010
0100
0001
0100
1000
0010
0001
,
0010
1000
0001
0010
1000
0100
0001
1000
,
0001
0010
0001
1000
0001
0100
0001
1000
,
0100
0001
0010
0100
0010
0100
0010
0100
,
1000
0010
0010
0100
0001
1000
2000
0000
,
0000
0000
0000
3000
;

//---------------dance-single - ----------------
#NOTEDATA:;
#CHARTNAME:;
#STEPSTYPE:dance-single;
#DESCRIPTION:;
#CHARTSTYLE:;
#DIFFICULTY:Medium;
#METER:13;
#RADARVALUES:0.641874,0.697571,0.406705,0.329237,0.000000,464.000000,422.000000,42.000000,34.000000,0.000000,0.000000,0.000000,0.000000,0.000000,0.641874,0.697571,0.406705,0.329237,0.000000,464.000000,422.000000,42.000000,34.000000,0.000000,0.000000,0.000000,0.000000,0.000000;
#CREDIT:;
#DISPLAYBPM:200.000000;
#NOTES:
0000
0000
0000
0000
,
0000
0000
0000
0000
,
0000
0000
0000
0000
,
0000
0000
0000
0000
,
0020
0000
0030
0100
0001
1000
2000
0000
,
3001
0000
0100
0010
0000
1000
0001
0000
,
0100
0000
0001
0010
0000
0100
1000
0000
,
0010
0000
1000
0001
0000
0001
0100
0000
,
0002
0000
0003
1000
0010
0100
0200
0000
,
0301
0000
1000
0100
0000
0010
0001
0000
,
1000
0000
0001
0100
0000
0010
1000
0000
,
2100
3001
0102
1003
,
0001
0010
0001
0010
0100
1000
0001
0100
,
0010
1000
0100
0000
0010
0001
0100
0000
,
0010
1000
0010
1000
0001
0010
0100
1000
,
0010
1000
0001
0000
0100
0001
1000
0000
,
0010
0100
0010
0100
0001
0010
0100
1000
,
0100
0010
0001
0000
0100
0010
1000
0000
,
0001
0100
0001
0100
0010
1000
0010
1000
,
1020
0130
0201
0310
,
1001
0100
0010
0000
1001
0100
0010
0000
,
1000
0100
0001
0000
0001
0100
1000
0000
,
0110
1000
0001
0000
0110
1000
0001
0000
,
0100
0001
0010
0000
0010
0001
0100
0000
,
0011
1000
0100
0000
0011
1000
0100
0000
,
0001
0010
1000
0000
1000
0010
0001
0000
,
1100
0001
0010
0000
1100
0001
0010
0000
,
0010
0010
0010
1001
,
1000
0100
1000
0100
0001
0000
0011
0000
,
0001
0100
0001
0100
1000
0000
1010
0000
,
1000
0001
1000
0001
0100
0000
0110
0000
,
0002
0000
0003
0010
0100
1000
2000
0000
,
3010
1000
0010
1000
0100
0000
0011
0000
,
0100
0001
0100
0001
1000
0000
0110
0000
,
0001
0010
0001
0010
0100
0000
1001
0000
,
0020
0000
0030
0100
0001
1000
2000
0000
,
3020
0000
0000
0100
0000
0000
0031
0000
,
0020
0000
0000
0100
0000
0000
1030
0000
,
0002
0000
0000
0100
0000
0000
1003
0000
,
0010
0100
0110
1001
,
0200
0000
0000
1000
0000
0000
0301
0000
,
0200
0000
0000
0001
0000
0000
1300
0000
,
0002
0000
0000
0010
0000
0000
0103
0000
,
1000
0001
0011
1100
,
0110
0000
0100
0001
1000
0100
0010
0001
,
0000
0100
0010
0100
0010
1000
1000
0000
,
0201
0000
0320
0000
0130
0001
1000
0100
,
0000
0010
0001
0100
0001
1000
1000
0000
,
1001
0000
0100
0001
1000
0001
1000
0100
,
0000
0010
0001
0100
0010
0100
0100
0000
,
0012
2000
0000
0000
,
0000
0000
3003
0000
0100
0010
0110
0000
,
1001
0100
2000
3000
,
0001
0000
0100
0000
0020
0000
0030
1000
,
1100
0101
0020
0030
,
0100
0001
2000
3000
,
0110
1000
0200
0300
,
0010
0000
0001
0000
2000
0000
3000
0001
,
0101
1100
0020
0030
,
1000
0001
0100
0010
0100
0010
1000
0001
,
0010
0001
1000
0100
0010
0100
0010
0001
,
0100
0010
1000
0010
1000
0001
0100
0010
,
1000
0010
0100
0001
0100
0001
0010
0100
,
2000
0000
3010
0000
1000
0100
0001
0000
,
0010
1000
0010
0100
0001
0010
0100
1000
,
0001
0100
0010
0100
0010
0100
0010
1000
,
0001
0100
0001
1000
0010
0100
0001
0010
,
0100
1000
0001
0010
0100
0010
0001
1000
,
0010
0100
0010
1000
0100
0010
0001
0000
,
0000
0101
1100
0000
,
0001
0100
0001
1000
0100
0010
0001
0000
,
0220
0000
0000
0300
,
1030
0010
1000
0100
0010
0001
0100
0000
,
0000
0011
1010
0000
,
1000
0001
0100
0001
1000
0100
0010
0000
,
0011
0000
0000
1100
0000
0000
1001
0000
,
0001
0000
0100
0010
1000
0000
0100
0000
,
1000
0000
0001
1000
0100
0000
0010
0000
,
0001
0000
0100
0001
1000
0000
0010
0000
,
0100
0000
0010
1000
0100
0000
0001
0000
,
1000
0000
0001
0100
0010
0000
0100
0000
,
0001
0000
1000
0100
0010
0000
0100
0000
,
1000
0000
0001
0100
0001
0000
0010
0000
,
0002
0000
0003
0100
0010
1000
2000
0000
,
0000
0000
0000
3000
;

//---------------dance-single - ----------------
#NOTEDATA:;
#CHARTNAME:;
#STEPSTYPE:dance-single;
#DESCRIPTION:;
#CHARTSTYLE:;
#DIFFICULTY:Easy;
#METER:8;
#RADARVALUES:0.417772,0.492403,0.213036,0.232403,0.000000,302.000000,280.000000,22.000000,24.000000,0.000000,0.000000,0.000000,0.000000,0.000000,0.417772,0.492403,0.213036,0.232403,0.000000,302.000000,280.000000,22.000000,24.000000,0.000000,0.000000,0.000000,0.000000,0.000000;
#CREDIT:;
#DISPLAYBPM:200.000000;
#NOTES:
0000
0000
0000
0000
,
0000
0000
0000
0000
,
0000
0000
0000
0000
,
0000
0000
0000
0000
,
0020
0030
1000
0001
,
0100
0000
0000
0010
0000
0000
1000
0000
,
0100
0000
0000
0010
0000
0000
0001
0000
,
0100
0000
0000
0001
0000
0000
1000
0000
,
0200
0300
1000
0001
,
0010
0000
0000
0001
0000
0000
0100
0000
,
0010
0000
0000
1000
0000
0000
0100
0000
,
2000
3200
0320
0032
,
0103
0000
0010
0000
1000
0100
1000
0000
,
0001
0000
1000
0000
0010
0100
0010
0000
,
1000
0000
0100
0000
0010
0001
0010
0000
,
0100
0000
0001
0000
0010
0001
0010
0000
,
1000
0000
0001
0000
0100
0001
0100
0000
,
0010
0000
1000
0000
0100
0010
0100
0000
,
1000
0000
0001
0000
0010
0100
0010
0000
,
0002
0013
2000
3100
,
1001
0100
1001
0010
,
1000
0100
1000
0001
,
0110
1000
0110
0001
,
0100
0001
0010
0100
,
1001
0010
1001
0100
,
0010
1000
0100
0010
,
0110
0001
0110
1000
,
0010
0010
0010
1001
,
1000
0100
0001
0001
,
1000
0010
0001
0001
,
0100
0010
0001
0001
,
2000
3000
0010
0100
,
0001
0010
1000
1000
,
0001
0100
1000
1000
,
0010
0100
1000
1000
,
0002
0003
0100
0010
,
1000
0000
1000
0000
,
0001
0000
0001
0000
,
0100
0000
0010
0000
,
2000
3002
0203
0320
,
0130
0000
0100
0000
,
0010
0000
0010
0000
,
1000
0000
0001
0000
,
2000
3020
0230
0302
,
0103
0010
1000
0100
,
0010
0000
0001
0000
0100
0010
0100
0000
,
0001
1000
0100
0010
,
0100
0000
1000
0000
0001
0100
0001
0000
,
1000
0001
0010
0001
,
0100
0000
0010
0000
1000
0100
1000
0000
,
0010
1001
0000
0000
,
0000
0000
0000
0000
1000
0001
0100
0000
,
1001
0000
0100
0000
,
0001
0000
0000
0000
1000
0000
0000
0010
,
0100
0110
0000
0000
,
0001
0000
1000
0000
,
0110
0000
1000
0000
,
0001
0000
0000
0000
0100
0000
0000
0001
,
1000
1001
0000
0000
,
0001
0001
1000
1000
,
0010
0100
0001
1000
,
0100
0010
0001
0100
,
0010
1000
0001
0100
,
0020
0030
0200
0300
,
0001
1000
0100
0010
,
0100
1000
0001
0010
,
0001
1000
0001
0010
,
0100
1000
0010
0100
,
0001
0010
0000
0001
1000
0000
1000
0000
,
0000
0110
1001
0000
,
1000
0100
0000
1000
0001
0000
0001
0000
,
2002
0000
0000
0003
,
3010
1000
0000
0010
0100
0000
0100
0000
,
0000
1001
0110
0000
,
0100
0010
0000
0100
0001
0000
0001
0000
,
0110
0000
0000
1001
0000
0000
0110
0000
,
1000
0000
0000
1000
0000
0000
1000
0000
,
0001
0000
0000
0001
0000
0000
0001
0000
,
0100
0000
0000
0100
0000
0000
0100
0000
,
0010
0000
0000
0010
0000
0000
0010
0000
,
0100
0000
0000
0100
0000
0000
0100
0000
,
0001
0000
0000
0001
0000
0000
0001
0000
,
1000
0000
0000
1000
0000
0000
1000
0000
,
0020
0030
1000
0200
,
0000
0000
0000
0300
;

//---------------dance-single - ----------------
#NOTEDATA:;
#CHARTNAME:;
#STEPSTYPE:dance-single;
#DESCRIPTION:;
#CHARTSTYLE:;
#DIFFICULTY:Beginner;
#METER:3;
#RADARVALUES:0.222719,0.328269,0.058101,0.009683,0.000000,161.000000,155.000000,6.000000,1.000000,0.000000,0.000000,0.000000,0.000000,0.000000,0.222719,0.328269,0.058101,0.009683,0.000000,161.000000,155.000000,6.000000,1.000000,0.000000,0.000000,0.000000,0.000000,0.000000;
#CREDIT:;
#DISPLAYBPM:200.000000;
#NOTES:
// measure 0
0000
0000
0000
0000
,  // measure 1
0000
0000
0000
0000
,  // measure 2
0000
0000
0000
0000
,  // measure 3
0000
0000
0000
0000
,  // measure 4
0010
0000
1000
1000
,  // measure 5
0000
0000
0000
0000
,  // measure 6
0000
0000
0000
0000
,  // measure 7
0000
0000
0000
0000
,  // measure 8
0010
0000
0001
0001
,  // measure 9
0000
0000
0000
0000
,  // measure 10
0000
0000
0000
0000
,  // measure 11
1001
0000
0110
0000
,  // measure 12
1000
1000
1000
0000
,  // measure 13
0001
0000
0100
0000
,  // measure 14
0001
0001
0001
0000
,  // measure 15
1000
0000
0100
0000
,  // measure 16
0010
0010
0010
0000
,  // measure 17
0100
0000
1000
0000
,  // measure 18
0100
0100
0100
0000
,  // measure 19
0110
0000
1001
0000
,  // measure 20
0010
0000
0010
0000
,  // measure 21
0100
0000
0100
0000
,  // measure 22
0001
0000
0001
0000
,  // measure 23
1000
0000
1000
0000
,  // measure 24
0001
0000
0010
0000
,  // measure 25
0100
0000
1000
0000
,  // measure 26
0010
0000
1000
0000
,  // measure 27
0010
0010
0010
0000
,  // measure 28
0100
0100
0100
0000
,  // measure 29
0010
0010
0010
0000
,  // measure 30
0100
0100
0100
0000
,  // measure 31
0001
0000
1000
0000
,  // measure 32
0001
0001
0001
0000
,  // measure 33
1000
1000
1000
0000
,  // measure 34
0001
0001
0001
0000
,  // measure 35
0100
0000
0010
0000
,  // measure 36
0100
0000
0000
0000
,  // measure 37
0010
0000
0000
0000
,  // measure 38
0100
0000
0000
0000
,  // measure 39
0001
0001
0001
0001
,  // measure 40
0001
0000
0000
0000
,  // measure 41
1000
0000
0000
0000
,  // measure 42
0001
0000
0000
0000
,  // measure 43
0010
0010
0010
0010
,  // measure 44
0010
0000
0100
0000
,  // measure 45
0001
0000
1000
1000
,  // measure 46
1000
0000
0100
0000
,  // measure 47
0010
0000
0001
0001
,  // measure 48
0001
0000
1000
0000
,  // measure 49
0010
0000
0100
0000
,  // measure 50
0010
0010
0000
0000
,  // measure 51
0000
0000
1000
1000
,  // measure 52
1000
0000
0000
0000
,  // measure 53
0000
0000
0000
0000
,  // measure 54
0010
0010
0000
0000
,  // measure 55
0000
0000
0000
0000
,  // measure 56
0100
0000
0000
0000
,  // measure 57
0000
0000
0000
0000
,  // measure 58
0001
0001
0000
0000
,  // measure 59
0100
0100
0100
0100
,  // measure 60
0100
0100
0100
0000
,  // measure 61
0010
0010
0010
0000
,  // measure 62
1000
1000
1000
0000
,  // measure 63
0010
0000
0000
0000
,  // measure 64
1000
1000
1000
0000
,  // measure 65
0001
0001
0001
0000
,  // measure 66
0100
0100
0100
0000
,  // measure 67
0010
0010
0010
0000
,  // measure 68
1000
0000
0001
0000
,  // measure 69
0000
0100
0100
0000
,  // measure 70
0010
0000
1000
0000
,  // measure 71
1001
0000
0000
0000
,  // measure 72
0001
0000
0100
0000
,  // measure 73
0000
1000
1000
0000
,  // measure 74
0010
0000
0100
0000
,  // measure 75
0110
0000
0000
0000
,  // measure 76
0001
0000
0000
0000
,  // measure 77
0010
0000
0000
0000
,  // measure 78
0100
0000
0000
0000
,  // measure 79
1000
0000
0000
0000
,  // measure 80
0001
0000
0000
0000
,  // measure 81
1000
0000
0000
0000
,  // measure 82
0010
0000
0000
0000
,  // measure 83
0100
0000
0100
0200
,  // measure 84
0000
0000
0000
0300
;
