#VERSION:0.83;
#TITLE:Pierce the Sky;
#SUBTITLE:(Long Version);
#ARTIST:JAKAZiD feat. K.N.;
#TITLETRANSLIT:;
#SUBTITLETRANSLIT:;
#ARTISTTRANSLIT:;
#GENRE:;
#ORIGIN:;
#CREDIT:;
#BANNER:Pierce the Sky (Long Version)-bn.png;
#BACKGROUND:Pierce the Sky (Long Version)-bg.png;
#PREVIEWVID:;
#JACKET:Pierce the Sky (Long Version)-jacket.png;
#CDIMAGE:;
#DISCIMAGE:;
#LYRICSPATH:;
#CDTITLE:;
#MUSIC:Pierce The Sky (Long Version).ogg;
#OFFSET:0.000000;
#SAMPLESTART:112.235001;
#SAMPLELENGTH:20.000000;
#SELECTABLE:YES;
#DISPLAYBPM:170.000000;
#BPMS:0.000=170.000;
#STOPS:;
#DELAYS:;
#WARPS:;
#TIMESIGNATURES:0.000=4=4;
#TICKCOUNTS:0.000=4;
#COMBOS:0.000=1;
#SPEEDS:0.000=1.000=0.000=0;
#SCROLLS:0.000=1.000;
#FAKES:;
#LABELS:0.000=Song Start;
#BGCHANGES:;
#KEYSOUNDS:;
#ATTACKS:
;

//---------------dance-single - ----------------
#NOTEDATA:;
#CHARTNAME:;
#STEPSTYPE:dance-single;
#DESCRIPTION:;
#CHARTSTYLE:;
#DIFFICULTY:Hard;
#METER:16;
#RADARVALUES:0.832871,1.024810,0.195102,0.091813,0.711548,1524.000000,1473.000000,51.000000,24.000000,0.000000,0.000000,0.000000,0.000000,0.000000,0.832871,1.024810,0.195102,0.091813,0.711548,1524.000000,1473.000000,51.000000,24.000000,0.000000,0.000000,0.000000,0.000000,0.000000;
#CREDIT:;
#DISPLAYBPM:170.000000;
#NOTES:
// measure 0
0000
0000
0000
0000
,  // measure 1
0000
0000
0000
0000
,  // measure 2
0000
0000
0000
0000
,  // measure 3
0000
0000
0000
0000
,  // measure 4
0000
0000
0000
0000
,  // measure 5
0000
0000
0000
0000
,  // measure 6
0000
0000
0000
0000
,  // measure 7
0000
0000
0000
0000
,  // measure 8
0001
0000
0000
1010
0000
0000
1000
0000
0100
0010
0000
0000
0001
0000
1000
0000
,  // measure 9
0010
0000
0000
0101
0000
0000
1000
0000
0100
0010
0000
0000
0001
0000
0100
0000
,  // measure 10
0010
0000
0000
1001
0000
0000
0100
0000
0001
1000
0000
0000
0100
0000
0010
0000
,  // measure 11
0001
0000
0000
1100
0000
0000
0010
0000
1000
0100
1000
0000
0001
0000
0100
0000
,  // measure 12
0110
0000
0000
0000
1001
0000
0100
0000
0001
0010
0000
0000
0001
0000
1000
0000
,  // measure 13
0010
0000
1000
0100
0000
0000
0010
0000
0001
1000
0000
0000
0001
0000
0100
0000
,  // measure 14
0001
0000
1000
0010
0000
0000
1000
0000
0100
0010
0000
0000
0001
0000
0100
0000
,  // measure 15
0010
0000
0000
1000
0000
0000
0001
0000
0101
0000
0000
0000
1100
0000
0000
0000
,  // measure 16
0101
0000
0001
0000
0010
0000
0100
0000
1000
0001
1000
0000
0000
0000
0010
0000
,  // measure 17
0000
0000
1000
0000
0100
0000
0010
0000
0001
0100
0001
0000
0000
0000
1000
0000
,  // measure 18
0000
0000
0001
0000
1000
0000
0010
0000
0100
0001
0100
0000
0000
0000
0010
0000
,  // measure 19
0000
1000
0100
0001
0000
0010
0001
1000
,  // measure 20
0000
0000
0100
0000
1000
0000
0001
0000
1000
0010
1000
0000
0000
0000
0100
0000
,  // measure 21
0000
0000
0010
0000
0001
0000
0100
0000
0010
1000
0010
0000
0000
0000
0100
0000
,  // measure 22
0000
0000
0001
0000
0010
0000
0100
0000
1000
0001
1000
0000
0000
0000
0010
0000
,  // measure 23
1000
0000
0100
0000
0001
0000
0100
0000
1000
0000
0010
0000
0100
0000
0001
1000
,  // measure 24
0001
0000
0010
0000
0001
0000
0100
0000
0010
1000
0010
0000
1000
0000
0001
0000
,  // measure 25
0000
0000
0100
0000
0001
0000
0010
0000
0001
1000
0001
0000
1000
0000
0100
0000
,  // measure 26
0000
0000
0010
0000
0001
0000
1000
0000
0010
0100
0010
0000
1000
0000
0001
0000
,  // measure 27
0100
1000
0100
0001
0010
0100
1000
0001
,  // measure 28
1001
0000
0000
0100
0001
0000
1000
0000
0110
0000
0000
1000
0100
0000
0010
0000
,  // measure 29
0011
0000
0000
0001
0100
0000
0010
0000
1010
0000
0000
1000
0001
0000
0100
0000
,  // measure 30
0001
0010
0001
0100
1000
0010
1000
0100
,  // measure 31
2000
0000
0002
0000
0000
3000
0000
0000
0103
0000
0010
0000
0100
0000
0001
0000
,  // measure 32
1000
0100
0000
0000
0010
0000
0000
0001
,  // measure 33
1000
0000
0000
0010
0000
0000
1000
0000
0001
0000
0000
0010
0000
0000
0001
0000
,  // measure 34
0100
0000
0000
0010
0000
0000
0100
0000
0000
0001
0000
0000
1000
0000
0000
1000
,  // measure 35
0000
0000
0001
0000
0000
0010
0000
0000
0001
0000
0000
0100
0000
0000
1000
0000
,  // measure 36
0020
0000
1030
0002
0000
0203
0000
0320
,  // measure 37
0000
2030
0000
3002
0000
0023
0000
0230
,  // measure 38
1000
0000
0000
1000
0000
0000
0001
0000
0000
0001
0000
0000
1300
0000
0000
0010
,  // measure 39
0000
0000
0100
0000
0000
0100
0000
0000
0001
0000
0000
1000
0000
0000
0010
0000
,  // measure 40
0110
0000
1001
0100
0000
0001
0010
1000
,  // measure 41
0100
0000
0000
1000
0001
0000
0100
0000
0010
0000
0000
1000
0001
0000
0010
0000
,  // measure 42
0001
0000
0000
0001
0000
0000
1000
0000
0000
1000
0000
0000
0010
0000
0000
0100
,  // measure 43
0000
0000
0001
1000
0000
0001
1000
0000
0010
0000
0000
0100
0000
0000
0001
0000
,  // measure 44
0010
0100
1000
0001
0000
1000
0010
1000
,  // measure 45
0000
0001
0010
0100
0000
1000
0010
2000
,  // measure 46
0001
0000
0000
0001
0000
0000
0100
0000
0000
0100
0000
0000
3001
0000
0000
0000
,  // measure 47
1000
0000
0010
0000
1000
0000
0001
0000
0010
0100
0010
0000
1001
0000
0000
0000
,  // measure 48
0010
0000
0000
1000
0001
0000
0100
0000
0001
0010
0000
0100
1000
0000
0001
0000
,  // measure 49
1000
0000
0010
1000
0000
1000
0100
0000
0010
0000
0001
0100
0000
0100
0010
0000
,  // measure 50
0100
0000
0001
1000
0000
0000
0010
1000
0000
0100
0000
0000
1000
0000
0001
0100
,  // measure 51
0000
0000
0010
1000
0000
0010
1000
0000
0001
0000
0000
0001
0000
0000
0001
0000
,  // measure 52
0010
0000
0001
0100
0001
0000
1000
0000
0010
0100
0000
0010
1000
0000
0001
0000
,  // measure 53
0010
0000
0100
0010
0000
0010
0001
0000
1000
0000
0001
1000
0000
1000
0010
0000
,  // measure 54
0100
0000
0001
0010
0000
0000
0001
1000
0000
0010
0000
0000
1000
0000
0100
0000
,  // measure 55
0000
0000
0010
0000
0001
0100
0000
0001
1000
0000
0010
0100
0000
0010
1000
0000
,  // measure 56
0100
0000
1000
0001
0100
0000
0010
0000
1000
0001
0010
0000
0100
1000
0001
0000
,  // measure 57
0100
0000
0001
0010
0000
0001
1000
0000
0010
0000
0100
0001
0000
0001
1000
0000
,  // measure 58
0010
0000
1000
0100
1000
0000
0001
0100
0000
0100
0010
0000
1000
0001
0000
0100
,  // measure 59
0010
0000
1000
0100
0000
1000
0001
0000
0100
0010
0000
0010
0100
0000
0001
0000
,  // measure 60
1010
0000
0000
0010
0100
0000
0001
1000
0000
0100
0010
0000
0001
1000
0010
0000
,  // measure 61
0100
0000
0001
0010
0000
0001
1000
0000
0010
0000
1000
0100
0000
0010
0001
0000
,  // measure 62
0012
0000
0000
1003
0000
0000
2010
0000
0000
3001
0000
0000
0210
0000
0000
0310
,  // measure 63
1000
0000
0000
1000
0100
0010
0001
0000
0000
0100
0010
0100
0001
0000
1000
0100
,  // measure 64
1000
0000
0001
0010
0000
0010
0001
0000
0100
0000
1000
0000
0100
0000
0001
0000
,  // measure 65
0100
0000
0010
1000
0000
1000
0010
0000
0100
0000
0001
0000
0010
0000
1000
0000
,  // measure 66
0010
0000
0001
1000
0001
0000
0100
0000
0010
0000
1000
0000
0010
0000
0001
0000
,  // measure 67
0010
0000
1000
0100
1000
0000
0001
0000
0010
0000
0100
0000
1000
0000
0010
0000
,  // measure 68
0100
0000
1000
0010
0000
0010
0001
0000
0100
0000
1000
0000
0100
0000
0001
0000
,  // measure 69
0100
0000
0010
1000
0000
1000
0001
0000
0010
0000
0100
0000
1000
0000
0001
0000
,  // measure 70
0010
0000
0100
1000
0010
1000
0001
0000
0100
0000
0010
0000
1000
0000
0100
0000
,  // measure 71
0001
0000
0100
1000
0000
1000
0001
0000
0010
0000
0100
0000
1000
0000
0010
0000
,  // measure 72
0100
0000
0001
0010
0001
0000
1000
0000
0010
0000
0001
0000
0010
0000
0100
0000
,  // measure 73
0001
0000
1000
0010
1000
0000
0100
0000
0010
0000
0001
0000
1000
0000
0010
0000
,  // measure 74
0100
0000
0001
1000
0000
1000
0100
0000
0010
0000
0001
0000
0100
0000
0001
0000
,  // measure 75
1000
0000
0100
0010
0000
0100
1000
0000
0001
0000
0100
0000
0010
0000
0100
0000
,  // measure 76
0001
0000
0010
0001
1000
0001
0100
0000
0010
0000
1000
0000
0100
0000
1000
0000
,  // measure 77
0001
0000
0100
0010
1000
0001
0010
0000
0100
0000
0001
0000
0100
0000
1000
0000
,  // measure 78
0001
0000
0100
0010
0000
0010
1000
0000
0100
0000
0010
0000
0001
0000
0100
0000
,  // measure 79
0001
0010
1000
0000
1000
0100
1000
0001
,  // measure 80
0010
0000
0100
1000
0000
1000
0001
0000
0100
0010
0000
0010
1000
0000
0001
0000
,  // measure 81
0010
0000
0001
0100
0000
0001
0100
0000
0010
0000
1000
0100
0000
1000
0100
0000
,  // measure 82
1000
0010
0000
0010
0100
0000
0001
0010
0000
0010
0100
0000
1000
0001
0000
0100
,  // measure 83
0010
0000
1000
0100
0000
0100
0001
0000
0010
0000
0000
0001
1000
0000
0010
0000
,  // measure 84
0100
0000
0001
0000
0010
0000
0001
0000
1000
0010
0000
0010
1000
0000
0100
0000
,  // measure 85
0010
0000
0001
1000
0000
0001
1000
0000
0100
0000
0010
0001
0000
0010
0001
0000
,  // measure 86
1000
0000
0010
0100
0010
0000
1000
0000
0001
0100
0001
0000
0010
0000
0100
1000
,  // measure 87
0001
0000
0100
0000
0001
0010
0000
0100
1000
0000
0010
0100
0000
0001
1000
0000
,  // measure 88
0100
0000
0010
0001
0100
0000
0010
1000
0000
1000
0100
0000
1000
0000
0001
0000
,  // measure 89
0010
0100
0000
0010
0100
0000
1000
0000
0001
0100
0000
0001
0100
0000
0010
0000
,  // measure 90
1000
0000
0100
0010
0000
0010
0001
0000
1000
0010
0000
0010
1000
0000
0100
0000
,  // measure 91
0001
0000
0100
1000
0000
0010
0100
0000
0001
0000
0000
1000
0001
0000
0100
0000
,  // measure 92
0010
0000
1000
0000
0001
0000
1000
0000
0100
0010
0000
0100
0010
0000
0001
0000
,  // measure 93
0100
0000
0010
1000
0000
0010
0100
0000
0001
0000
0010
0100
0000
0100
1000
0000
,  // measure 94
0001
0100
0000
0010
0100
0000
0001
1000
0000
0010
1000
0000
0100
0000
0010
0001
,  // measure 95
0000
0000
0011
0000
0000
1001
0000
0000
1010
0000
0000
0110
0000
0000
0101
0000
,  // measure 96
1001
0000
0010
0000
0100
0000
0001
0000
1000
0100
0000
1000
0100
0000
0010
0000
,  // measure 97
0001
0000
1000
0010
1000
0000
0001
0000
0100
0000
0001
0010
0001
0000
1000
0000
,  // measure 98
0010
0000
0100
0000
0001
0000
0010
0000
0100
1000
0000
0001
1000
0000
0010
0000
,  // measure 99
0100
0000
0001
0010
0001
0000
1000
0000
0110
0000
0001
0000
0000
0000
1000
0000
,  // measure 100
1010
0010
0100
0001
0011
0010
0100
1000
,  // measure 101
1100
0100
0010
0001
0101
0100
0010
1000
,  // measure 102
0001
0100
0001
0100
0001
0100
0001
0100
0001
0100
0001
0100
0001
0100
0001
0100
,  // measure 103
0001
0010
0100
1000
0100
0010
0001
0010
0100
1000
0100
0010
,  // measure 104
0001
0000
1000
0000
0001
0000
1000
0000
0010
0000
0000
0010
0000
0000
0100
0000
,  // measure 105
0000
0100
0000
0000
0001
0000
0000
0100
0000
0000
0010
0000
1000
0000
0100
0000
,  // measure 106
1000
0000
0001
0000
1000
0000
0001
0000
0010
0000
0000
0010
0000
0000
0100
0000
,  // measure 107
0000
0100
0000
0000
1000
0000
0000
0010
0000
0000
1000
0001
1000
0000
0100
0000
,  // measure 108
0010
0000
0001
0000
0010
0000
0001
0000
0100
0000
0000
0100
0000
0000
0010
0000
,  // measure 109
0000
1000
0000
0000
0010
0000
0000
1000
0000
0000
0001
0000
0010
0000
0100
0000
,  // measure 110
1000
0000
0010
0000
1000
0000
0010
0000
0100
0000
0000
0100
0000
0000
0001
0000
,  // measure 111
0000
0010
0000
0000
0001
0000
0000
1000
0000
0000
0001
0100
0001
0000
1000
0000
,  // measure 112
0010
0000
0001
0000
0010
0000
1000
0000
0010
0100
0010
0000
0000
0000
1000
0000
,  // measure 113
0000
0000
0001
0000
0000
0000
0010
0000
0100
1000
0100
0000
0000
0000
1000
0000
,  // measure 114
0001
0000
0100
0000
1000
0000
0100
0000
0001
0010
0001
0000
0000
0000
1000
0000
,  // measure 115
0000
1010
0000
1001
0000
0101
0000
0011
,  // measure 116
0001
0000
1000
0000
0010
0000
1000
0000
0100
0010
0001
0000
0000
0000
0100
0000
,  // measure 117
0001
0000
1000
0000
0100
0000
0010
0000
0001
1000
0010
0000
0000
0000
0100
0000
,  // measure 118
0001
0000
0010
0000
0001
0000
0100
0000
0010
1000
0100
0000
0000
0000
1000
0000
,  // measure 119
0001
0100
0000
0100
1000
0000
0001
0010
0000
0010
1000
0000
0200
0000
0000
0000
,  // measure 120
1300
0000
0001
0000
1000
0000
0010
0000
0100
0000
0001
0010
0000
0001
0010
0000
,  // measure 121
0100
0000
1000
0000
0010
0000
0100
0000
0001
0000
1000
0010
0000
1000
0010
0000
,  // measure 122
0100
0000
0001
0000
1000
0000
0100
0000
1000
0000
0010
0100
0000
0010
0100
0000
,  // measure 123
0001
0000
0010
0000
1000
0000
0100
0000
0010
0000
0001
1000
0000
0001
1000
0000
,  // measure 124
0100
0000
1000
0000
0010
0000
0100
0000
0001
0000
1000
0001
0000
1000
0001
0000
,  // measure 125
0100
0000
0001
0000
0010
0000
0100
0000
1000
0000
0010
0100
0000
0010
0100
0000
,  // measure 126
0001
0000
0010
0000
0001
0000
0100
0000
1000
0000
0001
0100
0000
0001
0100
0000
,  // measure 127
0010
1000
0100
1000
0001
0100
0001
0010
,  // measure 128
0100
0000
1000
0000
0100
0000
0001
0000
0100
1000
0100
1000
0001
0000
0100
0000
,  // measure 129
0010
0000
0001
0000
0010
0000
1000
0000
0010
0100
0010
0100
0001
0000
1000
0000
,  // measure 130
0100
0000
0010
0000
0100
0000
1000
0000
0001
0100
0001
0100
0010
0000
1000
0000
,  // measure 131
0100
0000
0001
0000
0100
0000
0010
0000
0100
1000
0100
1000
0001
0000
0100
0000
,  // measure 132
0010
0000
0001
0000
0010
0000
1000
0000
0100
0010
0100
0010
0001
0000
1000
0000
,  // measure 133
0001
0000
1000
0000
0010
0000
1000
0000
0001
0100
0001
0100
0010
0000
1000
0000
,  // measure 134
0001
0100
0001
0100
0010
1000
0010
1000
0001
0010
0001
0010
0100
1000
0100
1000
,  // measure 135
0001
0010
0000
0100
1000
0000
0001
1000
0001
0000
0100
0000
0010
0000
1000
0000
,  // measure 136
0100
0000
0010
0001
0100
0000
0001
0000
1000
0010
0000
1000
0100
0000
0010
0000
,  // measure 137
0001
1000
0000
1000
0010
0000
0100
0000
0001
0010
0000
0010
0100
0000
1000
0000
,  // measure 138
0001
0100
0000
0100
0010
0000
1000
0100
0000
0100
0010
0000
0001
1000
0000
1000
,  // measure 139
0010
0000
0100
0001
0000
0001
0010
0000
0100
0000
0000
1000
0001
0000
1000
0000
,  // measure 140
0010
0001
0010
1000
0100
0001
0100
1000
,  // measure 141
0010
0100
0000
0100
0001
0000
1000
0000
0001
0010
0000
0010
0100
0000
1000
0000
,  // measure 142
0001
0000
1000
0010
1000
0000
0100
0010
0000
0010
0001
0000
1000
0010
0000
1000
,  // measure 143
0001
0000
0100
0000
0000
0010
0000
0000
0100
0001
0000
0001
1000
0000
0100
0000
,  // measure 144
0010
0000
0001
1000
0001
0000
0100
0000
0010
1000
0000
1000
0010
0000
0100
0000
,  // measure 145
0001
0000
1000
0100
0000
0100
0001
0000
0010
0000
0001
1000
0000
1000
0010
0000
,  // measure 146
0100
0001
0000
0001
0100
0000
0010
1000
0000
1000
0010
0000
1000
0001
0000
0001
,  // measure 147
0010
0000
0001
0100
0000
0100
1000
0000
0010
0000
0000
0010
0100
0000
0001
0000
,  // measure 148
1000
0010
0001
0010
1000
0100
0001
0100
,  // measure 149
1000
0000
0001
0100
0001
0000
0010
0000
0100
0000
1000
0001
1000
0000
0010
0000
,  // measure 150
0100
0000
0001
0010
0001
0000
1000
0001
0000
0010
0100
0000
1000
0001
0000
0100
,  // measure 151
0000
0000
0020
0000
0000
2030
0000
0000
3002
0000
0000
0023
0000
0000
0230
0000
,  // measure 152
1300
0010
0001
0010
1000
0010
0100
0001
,  // measure 153
0010
0000
0001
1000
0000
0001
1000
0000
0010
0000
1000
0001
0000
1000
0001
0000
,  // measure 154
0100
1000
0100
0001
0010
0100
1000
0001
,  // measure 155
0100
0000
0010
1000
0000
0010
1000
0000
0001
0000
0000
0001
0000
0000
0001
0000
,  // measure 156
0110
0000
1000
0000
0100
0000
0010
0000
0001
1000
0001
0000
0100
0000
0010
0000
,  // measure 157
1000
0000
0100
0010
0001
0000
0100
0000
0010
0000
1000
0001
0010
0000
0100
0000
,  // measure 158
1000
0000
0001
0100
0001
0000
0010
0100
0000
0010
0100
0000
1000
0000
0001
0100
,  // measure 159
0010
0000
1000
0000
0000
1000
0000
0000
0001
0000
0000
0001
0000
0000
0100
0000
,  // measure 160
0001
0010
1000
0010
0001
0100
0010
1000
,  // measure 161
0100
0000
0010
0001
0010
0000
0100
0000
1000
0000
0001
0100
0001
0000
1000
0000
,  // measure 162
0010
0000
0100
0000
0001
0000
1000
0000
0100
0010
0000
0010
0001
0000
1000
0010
,  // measure 163
0000
0000
0010
1000
0000
0001
1000
0000
0100
0000
0000
0100
0010
0000
0001
0000
,  // measure 164
0011
0001
0100
0010
1010
1000
0100
0010
,  // measure 165
0110
0010
0001
0100
0110
0010
1000
0100
,  // measure 166
1000
1000
0001
0001
0100
0100
0010
0010
,  // measure 167
2000
3000
0101
1100
,  // measure 168
0001
0000
0010
0000
0001
0000
1000
0000
0010
0100
0010
0000
0000
0000
1000
0000
,  // measure 169
0000
0000
0001
0000
1000
0000
0100
0000
0010
0001
0010
0000
0000
0000
0100
0000
,  // measure 170
0000
0000
1000
0000
0001
0000
0100
0000
0001
0010
0001
0000
0000
0000
1000
0000
,  // measure 171
0000
0001
0100
1000
0000
1010
0000
1001
,  // measure 172
0000
0000
0010
0000
1000
0000
0100
0000
1000
0001
1000
0000
0000
0000
0010
0000
,  // measure 173
0000
0000
0100
0000
0001
0000
0010
0000
0001
1000
0001
0000
0000
0000
0100
0000
,  // measure 174
0000
0000
0010
0000
1000
0000
0100
0000
1000
0001
1000
0000
0000
0000
0010
0000
,  // measure 175
0100
0001
0010
0001
0100
0010
1000
0001
,  // measure 176
0010
0000
0001
1000
0000
0001
1000
0000
0010
0100
0010
0000
0000
0000
1000
0000
,  // measure 177
0100
0000
0010
0001
0000
0010
0001
0000
1000
0001
1000
0000
0000
0000
0100
0000
,  // measure 178
0010
0000
0001
0100
0000
0001
0100
0000
0010
1000
0010
0000
0000
0000
0100
0000
,  // measure 179
0001
0010
0001
1000
0000
1100
0000
0011
,  // measure 180
1001
0100
0010
1000
1001
0100
0010
0001
,  // measure 181
0101
0010
1000
0001
1100
0100
1000
0001
,  // measure 182
0100
0100
0010
0010
1000
1000
0001
0001
,  // measure 183
0012
0000
0000
2000
0000
0000
0003
0000
0000
0010
0000
0000
0000
0000
0002
0000
,  // measure 184
0000
0000
0000
3003
;
