#TITLE:Mulch;
#SUBTITLE:;
#ARTIST:Sampling Masters MEGA;
#TITLETRANSLIT:;
#SUBTITLETRANSLIT:;
#ARTISTTRANSLIT:;
#GENRE:;
#CREDIT:;
#BANNER:Mulch-bn.png;
#BACKGROUND:Mulch-bg.png;
#LYRICSPATH:;
#CDTITLE:;
#MUSIC:Mulch.ogg;
#OFFSET:-0.380000;
#SAMPLESTART:30.359999;
#SAMPLELENGTH:15.000000;
#SELECTABLE:YES;
#BPMS:0.000000=200.000000
;
#STOPS:
;
#BGCHANGES:0.000=Mulch.avi=1.000=0=0=0=StretchNoLoop====,
99999=-nosongbg-=1.000=0=0=0 // don't automatically add -songbackground-
;
#KEYSOUNDS:;
#ATTACKS:;

//---------------dance-single - ----------------
#NOTES:
     dance-single:
     :
     Hard:
     13:
     0.820319,0.781842,0.579835,0.243157,0.350707,614.000000,552.000000,62.000000,26.000000,0.000000,0.000000,0.820319,0.781842,0.579835,0.243157,0.350707,614.000000,552.000000,62.000000,26.000000,0.000000,0.000000:
0000
0000
0000
0000
,
0000
0000
0000
0000
,
0000
0000
0000
0000
,
0000
0000
0000
0000
,
0000
0000
0000
0000
,
0010
0001
0100
0001
1000
0010
0100
0001
,
0010
0100
1000
0010
0100
0010
1000
0001
,
0012
1003
2010
3001
,
0102
0013
2100
3010
,
0001
0100
1000
0100
0002
1000
1003
0000
,
1000
0100
0001
0100
2000
0001
3001
0000
,
1000
0010
0001
0010
0100
0001
0100
1000
,
0100
0010
0100
0001
0010
1000
0010
0001
,
1000
0010
0001
0010
2000
0001
3001
0000
,
0001
0010
1000
0010
0002
1000
1003
0000
,
0010
0001
0010
1000
0001
0100
1000
0100
,
0101
0000
1100
0000
0101
1000
0100
0000
,
1001
0000
1000
0100
0001
1000
0010
0001
,
1001
0000
0001
0100
1000
0001
0010
1000
,
1001
0010
0100
0000
1001
0100
0010
0000
,
1001
1000
0100
0010
0001
0100
1000
0000
,
0110
0000
1000
0010
0001
1000
0100
0001
,
0110
0000
0001
0010
1000
0001
0100
1000
,
0110
0010
1000
0000
0110
0001
0100
0000
,
0101
0001
1000
0100
0010
0001
1000
0000
,
0010
0100
0001
0010
0100
0010
1000
1000
,
0010
0100
0010
1000
0010
0100
0001
0000
,
0001
1000
0000
0000
1000
0100
0000
0000
0100
0010
0000
0000
0010
0000
0100
0000
,
1000
0001
0200
0000
0310
1000
0100
0000
,
0100
1000
0010
0001
0010
1000
0100
0100
,
1000
0010
0001
0010
1000
0001
0100
0000
,
0001
0010
0000
0000
0010
0100
0000
0000
0100
1000
0000
0000
1000
0000
0001
0000
,
0010
0001
0200
0000
0310
1000
0100
0000
,
1000
0010
0000
0000
1000
0010
0000
0000
1000
0010
0000
0000
1010
0000
0000
0000
,
0001
0010
0000
0000
0001
0010
0000
0000
0001
0010
0000
0000
0011
0000
0000
0000
,
1000
0001
0000
0000
0001
1000
0000
0000
1000
0100
0000
0000
0100
1000
0000
0000
,
1000
0010
0000
0000
0010
1000
0000
0000
0010
0100
0000
0000
1001
0000
0000
0000
,
0001
0100
0000
0000
0001
0100
0000
0000
0001
0100
0000
0000
0101
0000
0000
0000
,
1000
0100
0000
0000
1000
0100
0000
0000
1000
0100
0000
0000
1100
0000
0000
0000
,
1000
0010
0000
0000
0010
1000
0000
0000
1000
0001
0000
0000
0001
1000
0000
0000
,
1000
0100
0000
0000
0100
1000
0000
0000
0001
0100
0000
0000
0110
0000
0000
0000
,
1001
0000
0000
0100
0001
0100
1000
0100
,
0001
0010
1000
0010
0001
1000
0100
0010
,
0001
0001
0001
0001
1000
1000
1000
1000
,
0010
0010
1000
1000
0001
0001
0100
0100
,
0020
2000
0000
0000
3000
0000
0000
0000
1000
0000
1030
0000
0100
0000
0100
0000
,
0010
0000
0001
0000
0100
0000
0001
0000
2000
0200
0000
0000
3300
0000
0000
0000
,
0002
0200
0000
0000
0300
0000
0000
0000
0010
0000
0013
0000
0100
0000
0100
0000
,
1000
0000
0001
0000
0010
0000
0001
0000
0200
0020
0000
0000
0330
0000
0000
0000
,
0220
0000
0300
0001
0001
0000
1030
0000
,
0010
1000
0100
0010
0001
1000
1100
0000
,
0010
1000
0100
0000
0011
0000
1010
0000
,
0001
1000
0010
0000
1100
0000
0101
0000
,
0100
0010
1000
0000
1001
0000
0110
0000
,
1000
0001
0010
0001
0100
0010
1000
0000
,
0010
1000
0001
0000
0011
0000
1100
0000
,
1000
0010
0100
0000
0101
0000
1010
0000
,
0010
0100
0001
0000
1001
0000
0110
0000
,
1000
0000
0100
0000
0010
0000
0001
0000
0100
0000
0000
0010
1000
0000
0000
0001
,
1000
0100
0001
0100
2000
0010
3010
0000
,
0001
0010
1000
0010
0002
0100
0103
0000
,
0010
0001
0010
1000
0001
0100
1000
0100
,
0010
1000
0010
0001
0100
0001
1000
0000
,
1001
0010
0000
1001
0000
1000
0100
0000
,
1100
0001
0000
1100
0000
1000
0010
0000
,
0101
1000
0000
0101
0000
0001
0100
0000
,
0011
0000
0000
0000
1100
0000
0000
0000
0101
0000
0000
0000
1000
0010
1000
0000
,
1010
0100
0000
1010
0000
0001
1000
0000
,
0011
0100
0000
0011
0000
0010
0001
0000
,
0110
1000
0000
0110
0000
0001
0010
0000
,
0001
0000
0000
0000
0000
0000
0000
0000
1000
0000
0000
0000
0000
0000
0000
0000
0100
0000
0000
0000
0000
0000
0000
0000
1001
0000
0000
0000
0000
0000
0000
0000
0000
0000
0000
0000
0010
0000
0000
0100
0000
0000
0010
0000
0000
0100
0000
0000
,
0010
1000
0100
0010
0001
1000
0100
0100
,
1000
0010
1000
0001
0010
0100
1000
0000
,
0010
1000
0000
0000
1000
0001
0000
0000
0001
0010
0000
0000
0010
0000
0100
0000
,
1000
0010
0200
0000
0310
1000
0001
0000
,
0010
0100
0010
0001
1000
0010
1000
1000
,
0100
0010
0100
1000
0001
0010
1000
0000
,
0100
1000
0000
0000
1000
0001
0000
0000
0001
0100
0000
0000
0100
0000
0001
0000
,
0010
0001
2000
0000
3001
1000
0100
0000
,
0010
0001
0000
0000
0100
0001
0000
0000
1000
0001
0000
0000
1100
0000
0000
0000
,
0100
1000
0000
0000
0010
1000
0000
0000
0001
1000
0000
0000
0101
0000
0000
0000
,
0010
0100
0000
0000
0100
1000
0000
0000
1000
0010
0000
0000
0010
0100
0000
0000
,
0100
0001
0000
0000
0001
1000
0000
0000
1000
0010
0000
0000
0110
0000
0000
0000
,
0100
0001
0000
0000
0100
0010
0000
0000
0100
1000
0000
0000
0110
0000
0000
0000
,
0010
1000
0000
0000
0010
0100
0000
0000
0010
0001
0000
0000
1010
0000
0000
0000
,
0001
1000
0000
0000
1000
0100
0000
0000
0100
0010
0000
0000
0010
0100
0000
0000
,
0100
1000
0000
0000
1000
0001
0000
0000
0001
0100
0000
0000
0101
0000
0000
0000
,
0000
0000
0000
0000
0000
0000
0000
0000
0000
0000
2200
0000
0000
0000
0000
3300
,
1001
0000
0000
0000
;

//---------------dance-single - ----------------
#NOTES:
     dance-single:
     :
     Medium:
     11:
     0.641292,0.658393,0.841696,0.336678,0.014028,480.000000,390.000000,90.000000,36.000000,0.000000,0.000000,0.641292,0.658393,0.841696,0.336678,0.014028,480.000000,390.000000,90.000000,36.000000,0.000000,0.000000:
0000
0000
0000
0000
,
0000
0000
0000
0000
,
0000
0000
0000
0000
,
0000
0000
0000
0000
,
0000
0000
0000
0000
,
0001
1000
0010
0000
1000
0001
0100
0000
,
0001
0010
0100
1000
0010
0100
0001
0000
,
1001
0100
1001
0010
,
1001
0100
1001
0010
,
1000
0010
0001
0010
2000
0000
3000
0000
,
0001
0100
1000
0100
0002
0000
0003
0000
,
0010
0001
0100
0000
0001
1000
0100
0000
,
0010
0100
0010
0001
0100
0001
1000
0000
,
0001
0010
1000
0010
0002
0000
0003
0000
,
1000
0010
0001
0010
2000
0000
3000
0000
,
0100
0010
0001
0000
1000
0001
0100
0000
,
0001
1000
0001
0010
0100
1000
0010
0000
,
1001
0000
0100
0000
1000
0001
0100
0000
,
1001
0000
0010
0000
0001
1000
0010
0000
,
1100
0001
0101
1000
,
1001
0000
1000
0000
0001
0010
0100
0000
,
0110
0000
0001
0000
1000
0010
0100
0000
,
0110
0000
0100
0000
0001
1000
0010
0000
,
1010
0001
0011
1000
,
0110
0000
0100
0000
0010
0001
1000
0000
,
0001
1000
0100
1000
0001
0000
0011
0000
,
0010
0100
1000
0100
0010
0000
1100
0000
,
0011
0000
1010
0000
0011
0000
1000
0001
,
1000
0100
0010
0000
0002
0000
2003
0000
,
3001
0100
0010
0100
0001
0000
1010
0000
,
0010
1000
0001
1000
0010
0000
0101
0000
,
1010
0000
0011
0000
1010
0000
0010
1000
,
0100
0010
0001
0000
2000
0000
3002
0000
,
0103
0100
0100
1001
,
0010
0010
0010
1001
,
0001
0011
1000
1010
,
0110
1001
0110
1001
,
1000
1000
1000
0110
,
0001
0001
0001
0110
,
1000
1100
0001
0101
,
0110
1001
0110
1001
,
0020
0000
0000
1000
1000
0000
0130
0000
,
0001
1000
0010
1000
0100
0010
0001
0000
,
0100
0100
0100
0000
0010
0010
0010
0000
,
1000
1000
0001
0001
1000
0010
0100
0000
,
0202
0000
0300
0000
0010
0010
0013
0000
,
0001
1000
0100
0000
0220
0000
0330
0000
,
2200
0000
0300
0000
0010
0010
3010
0000
,
1000
0001
0010
0000
0220
0000
0330
0000
,
2002
0000
3000
0100
0100
0000
0013
0000
,
1000
0001
1000
0001
0200
0000
0310
0000
,
1100
0101
1000
0001
,
0011
1010
0010
0100
,
1001
0110
1000
0010
,
1100
0011
0100
0001
,
1010
0101
0001
0010
,
1001
0110
1000
0100
,
1100
1001
0010
0100
,
0110
0000
0000
0000
1001
0000
0000
0000
0001
0000
0000
1000
0001
0000
0000
0000
,
1000
0100
0001
0100
2000
0000
3000
0000
,
0001
0010
1000
0010
0002
0000
0003
0000
,
0010
0001
1000
0000
0100
0010
0001
0000
,
1100
0000
0101
0000
0100
0001
1000
0000
,
1000
1000
0000
0001
0000
0000
0000
0000
,
0010
0010
0000
0100
0000
0000
0000
0000
,
1000
1000
0000
0010
0000
0000
0000
0000
,
1001
0000
0101
0000
1100
0000
0010
0100
,
0001
0001
0000
0010
0000
0000
0000
0000
,
0100
0100
0000
1000
0000
0000
0000
0000
,
0001
0001
0000
0100
0000
0000
0000
0000
,
0001
0000
0010
0000
0100
0000
1000
0000
0000
0000
0000
0000
,
0001
1000
0100
0010
0100
0000
1100
0000
,
1000
0001
0010
0100
1000
0000
0101
0000
,
1010
0000
0011
0000
1010
0000
0100
1000
,
0010
1000
0001
0000
2000
0000
3200
0000
,
0310
0100
1000
0001
0100
0000
0101
0000
,
0100
0001
1000
0100
0010
0000
1100
0000
,
0011
0000
1010
0000
0011
0000
1000
0001
,
1000
0100
0010
0000
0002
0000
0203
0000
,
0320
1000
0130
0110
,
2000
0001
3100
1001
,
0020
0130
0002
1003
,
1100
0011
1100
0011
,
0002
1000
0013
0110
,
0200
0010
1300
1001
,
0002
1003
0200
0310
,
0011
1010
0011
1010
,
0000
0000
0000
0000
0000
2200
0000
3300
,
1001
0000
0000
0000
;

//---------------dance-single - ----------------
#NOTES:
     dance-single:
     :
     Easy:
     7:
     0.422184,0.534944,0.355383,0.374087,0.000000,316.000000,278.000000,38.000000,40.000000,0.000000,0.000000,0.422184,0.534944,0.355383,0.374087,0.000000,316.000000,278.000000,38.000000,40.000000,0.000000,0.000000:
0000
0000
0000
0000
,
0000
0000
0000
0000
,
0000
0000
0000
0000
,
0000
0000
0000
0000
,
0000
0000
0000
0000
,
0001
0001
1000
0100
,
1000
0010
0100
0001
,
2002
3003
0220
0330
,
2002
3003
0220
0330
,
1000
0001
0200
0300
,
0001
1000
0200
0300
,
1000
1000
0001
0001
,
0010
0100
2000
3000
,
1000
0001
0020
0030
,
0001
1000
0020
0030
,
0100
0100
0010
0010
,
1000
0001
0200
0300
,
1001
0100
1000
1000
,
1001
0100
0001
0001
,
1001
0100
1001
0100
,
1001
0010
0100
1000
,
0110
1000
0100
0100
,
0110
0001
0100
0100
,
0110
1000
0110
1000
,
0110
0100
0001
0010
,
1000
0001
1000
0011
,
0001
1000
0001
1100
,
0010
0010
0010
0010
,
1000
0001
0110
0110
,
0010
0100
0010
1010
,
0100
0010
0100
0101
,
1000
1000
1000
1000
,
0010
0100
1001
1001
,
0100
0100
0100
0000
,
0010
0010
0010
0000
,
1000
0001
1000
0001
,
0010
0100
1000
0000
,
0001
0001
0001
0000
,
1000
1000
1000
0000
,
0010
0100
0001
0010
,
0001
1000
0100
0000
,
2002
3000
0010
0013
,
0001
1000
0001
1000
,
0020
0130
0002
1003
,
0200
0310
2000
3001
,
0022
0030
1000
1000
,
0100
0100
2000
3003
,
2200
0300
0001
0001
,
0010
0010
0002
3003
,
2002
3000
1000
0103
,
0001
0001
0001
0001
,
0010
0001
0100
0000
,
0010
1000
0100
0000
,
1000
0001
0010
0000
,
0001
1000
0100
0000
,
1000
0010
0100
0000
,
0010
1000
0001
0000
,
0100
1000
0001
0000
,
0100
0001
0010
0000
,
0001
0010
0200
0300
,
1000
0010
0200
0300
,
0001
0010
0100
1000
,
0010
0100
0020
0030
,
2000
0000
0000
3001
0000
0000
0000
0000
,
0002
0000
0000
0103
0000
0000
0000
0000
,
0200
0000
0000
0310
0000
0000
0000
0000
,
1010
1000
0001
0101
,
0020
0000
0000
1030
0000
0000
0000
0000
,
2000
0000
0000
3100
0000
0000
0000
0000
,
0020
0000
0000
0031
0000
0000
0000
0000
,
0100
0010
2000
3000
,
0010
1000
0010
1100
,
0001
0100
0001
0011
,
1000
1000
1000
1000
,
0010
1000
1001
1001
,
0001
0010
0001
0101
,
1000
0100
1000
0011
,
0001
0001
0001
0001
,
1000
0100
0110
0110
,
0001
0001
0001
0000
,
1000
1000
1000
0000
,
0010
1000
0010
0100
,
0001
1000
0100
0000
,
0010
0010
0010
0000
,
0100
0100
0100
0000
,
1000
0010
1000
0001
,
0010
0100
1000
0000
,
0000
0000
0000
0000
0000
0000
0000
0000
0000
0000
2200
0000
0000
3300
0000
0000
,
1001
0000
0000
0000
;

//---------------dance-single - ----------------
#NOTES:
     dance-single:
     :
     Beginner:
     5:
     0.245829,0.288047,0.102874,0.018704,0.000000,184.000000,173.000000,11.000000,2.000000,0.000000,0.000000,0.245829,0.288047,0.102874,0.018704,0.000000,184.000000,173.000000,11.000000,2.000000,0.000000,0.000000:
// measure 0
0000
0000
0000
0000
,  // measure 1
0000
0000
0000
0000
,  // measure 2
0000
0000
0000
0000
,  // measure 3
0000
0000
0000
0000
,  // measure 4
0000
0000
0000
0000
,  // measure 5
1000
1000
1000
0000
,  // measure 6
0001
0001
0001
0000
,  // measure 7
0010
0000
0010
0000
,  // measure 8
0100
0000
0100
0000
,  // measure 9
0001
0000
0001
0000
,  // measure 10
1000
0000
1000
0000
,  // measure 11
0010
0000
1000
0000
,  // measure 12
0001
0000
0100
0000
,  // measure 13
0010
0000
0010
0000
,  // measure 14
0100
0000
0100
0000
,  // measure 15
0001
0000
0010
0000
,  // measure 16
0100
0000
1000
0000
,  // measure 17
0001
0000
0000
0000
,  // measure 18
1000
0000
0000
0000
,  // measure 19
0010
0000
0100
0000
,  // measure 20
0010
0000
0000
0000
,  // measure 21
1000
0000
0000
0000
,  // measure 22
0001
0000
0000
0000
,  // measure 23
0100
0000
0010
0000
,  // measure 24
0100
0000
0000
0000
,  // measure 25
0010
0010
0010
0000
,  // measure 26
1000
1000
1000
0000
,  // measure 27
0001
0001
0001
0000
,  // measure 28
0100
0100
0100
0000
,  // measure 29
0001
0001
0001
0000
,  // measure 30
0010
0010
0010
0000
,  // measure 31
0100
0100
0100
0000
,  // measure 32
1000
1000
1000
0000
,  // measure 33
0010
0000
1001
0000
,  // measure 34
0010
0000
1001
0000
,  // measure 35
1000
0000
0001
0000
,  // measure 36
0100
0000
0100
0000
,  // measure 37
0001
0000
0110
0000
,  // measure 38
0001
0000
0110
0000
,  // measure 39
0001
0000
0010
0000
,  // measure 40
0100
0000
1000
0000
,  // measure 41
1001
0000
0100
0000
,  // measure 42
1000
1000
1000
0000
,  // measure 43
0001
0000
0010
0000
,  // measure 44
0001
0000
1000
0000
,  // measure 45
0020
0000
0030
0000
,  // measure 46
1000
1000
1000
0000
,  // measure 47
0200
0000
0300
0000
,  // measure 48
0010
0010
0010
0000
,  // measure 49
0110
0000
0000
0000
,  // measure 50
0100
0100
0100
0000
,  // measure 51
1000
1000
0000
0000
,  // measure 52
1000
1000
0000
0000
,  // measure 53
0100
0100
0000
0000
,  // measure 54
0100
0100
0000
0000
,  // measure 55
0010
0010
0000
0000
,  // measure 56
0010
0010
0000
0000
,  // measure 57
0001
0001
0000
0000
,  // measure 58
0001
0001
0000
0000
,  // measure 59
0010
0000
0100
0000
,  // measure 60
0010
0000
0100
0000
,  // measure 61
0001
0000
1000
0000
,  // measure 62
0001
0000
1000
0000
,  // measure 63
0010
0000
0000
0000
,  // measure 64
0010
0000
0000
0000
,  // measure 65
0010
0000
0000
0000
,  // measure 66
1000
1000
1000
0000
,  // measure 67
0100
0000
0000
0000
,  // measure 68
0100
0000
0000
0000
,  // measure 69
0100
0000
0000
0000
,  // measure 70
1000
0000
0001
0000
,  // measure 71
1000
1000
1000
0000
,  // measure 72
0001
0001
0001
0000
,  // measure 73
0100
0100
0100
0000
,  // measure 74
0010
0010
0010
0000
,  // measure 75
0100
0100
0100
0000
,  // measure 76
0001
0001
0001
0000
,  // measure 77
1000
1000
1000
0000
,  // measure 78
0010
0010
0010
0000
,  // measure 79
0100
0000
0110
0000
,  // measure 80
0100
0000
0110
0000
,  // measure 81
1000
0000
0010
0000
,  // measure 82
0100
0000
0001
0000
,  // measure 83
1000
0000
1001
0000
,  // measure 84
1000
0000
1001
0000
,  // measure 85
1000
0000
0010
0000
,  // measure 86
0100
0000
0001
0000
,  // measure 87
0000
0000
0000
0000
,  // measure 88
1001
0000
0000
0000
;
