#TITLE:third eye blind;
#SUBTITLE:方来夢来人;
#ARTIST:葉月ゆら;
#TITLETRANSLIT:third eye blind;
#SUBTITLETRANSLIT:Touhou Raimuraito;
#ARTISTTRANSLIT:Yura Hatsuki;
#GENRE:Touhou;
#CREDIT:Itsugo15;
#MENUCOLOR:;
#BANNER:third eye blind-bn.jpg;
#BACKGROUND:third eye blind-bg.jpg;
#LYRICSPATH:third eye blind.lrc;
#CDTITLE:Itsugo15 SimifileS.png;
#MUSIC:third eye blind.mp3;
#OFFSET:1.950;
#SAMPLESTART:63.690;
#SAMPLELENGTH:30.000;
#SELECTABLE:YES;
#LISTSORT:;
#BPMS:0.000=78.550,12.000=157.100;
#STOPS:;
#TICKCOUNT:0.000=8;
#BGCHANGES:4.000=third eye blind-bg1.jpg=1.000=1=1=0,
12.000=third eye blind-bg2.jpg=1.000=1=1=0,
28.000=third eye blind-bg8.jpg=1.000=1=1=0,
44.000=third eye blind-bg.jpg=1.000=1=1=0,
64.000=third eye blind-bg3.jpg=1.000=1=1=0,
96.000=third eye blind-bg4.jpg=1.000=1=1=0,
128.000=third eye blind-bg5.jpg=1.000=1=1=0,
144.000=third eye blind-bg6.jpg=1.000=1=1=0,
160.000=third eye blind-bg7.jpg=1.000=1=1=0,
192.000=third eye blind-bg2.jpg=1.000=1=1=0,
224.000=third eye blind-bg1.jpg=1.000=1=1=0,
240.000=third eye blind-bg5.jpg=1.000=1=1=0,
256.000=third eye blind-bg6.jpg=1.000=1=1=0,
261.000=third eye blind-bg.jpg=1.000=1=1=0,
99999=-nosongbg-=1.000=0=0=0 // don't automatically add -songbackground-
;
#KEYSOUNDS:;
#ATTACKS:;

//---------------dance-single - Beginner Itsugo15----------------
#NOTES:
     dance-single:
     Beginner Itsugo15:
     Beginner:
     2:
     0.099,0.167,0.035,0.043,0.000:
0000
0000
0000
0000
,
0000
0000
0000
0000
,
0000
0000
0000
0000
,
1000
0000
0000
0000
,
0000
0000
0000
0000
,
0001
0000
0000
0000
,
2000
0000
0000
0000
0000
3000
0000
0000
,
1001
0000
0000
0000
,
0001
0000
0000
0000
,
0010
0000
0000
0000
,
0100
0000
0000
0000
,
1000
0000
0000
0000
,
0010
0000
0000
0000
,
0100
0000
0000
0000
,
0001
0000
0000
0000
,
1000
0000
0000
0000
,
1001
0000
0000
0000
,
0001
0000
0000
0000
,
1000
0000
0000
0000
,
0100
0000
0000
0000
,
0010
0000
0000
0000
,
0001
0000
0000
0000
,
1000
0000
0000
0000
,
0010
0000
0000
0000
,
1000
0000
0000
0000
,
0001
0000
0000
0000
,
0010
0000
0000
0000
,
0100
0000
0000
0000
,
1000
0000
0000
0000
,
0100
0000
0000
0000
,
0010
0000
0000
0000
,
0001
0000
0000
0000
,
1000
0000
0000
0000
,
0001
0000
0000
0000
,
1000
0000
0000
0000
,
0010
0000
0000
0000
,
0100
0000
0000
0000
,
0010
0000
0000
0000
,
0100
0000
0000
0000
,
0001
0000
1000
0000
,
1001
0000
1000
0000
,
0020
0000
0030
0000
,
0100
0000
0001
0000
,
2000
0000
3000
0000
,
0001
0000
0000
0000
,
1000
0000
0000
0000
,
0001
0000
0000
0000
,
0100
0000
0010
0000
,
0110
0000
0010
0000
,
2000
0000
3000
0000
,
0001
0000
0010
0000
,
0200
0000
0300
0000
,
0010
0000
0000
0000
,
0100
0000
0000
0000
,
1000
0000
0001
0000
,
0100
0000
0010
0000
,
1000
0000
0000
0000
,
0001
0000
0000
0000
,
0010
0000
0000
0000
,
0100
0000
0100
0000
,
0100
0000
0000
0000
,
0010
0000
0000
0000
,
0001
0000
0000
0000
,
1000
0000
1000
0000
,
0001
0000
0000
0000
;

//---------------dance-single - Heavy Itsugo15----------------
#NOTES:
     dance-single:
     Heavy Itsugo15:
     Hard:
     9:
     0.597,0.670,0.600,0.226,0.178: // measure 1
0000
0000
0000
0000
,  // measure 2
1000
0001
1000
0000
0001
1000
0000
0100
0000
0010
0000
0001
0000
1000
0000
0001
,  // measure 3
1000
0001
1000
0000
0001
1000
0000
0010
0000
0100
0000
0010
0000
1000
0000
0001
,  // measure 4
2000
0001
0001
0001
,  // measure 5
0100
0100
0100
3100
,  // measure 6
0002
1000
1000
1003
,  // measure 7
2000
0000
0000
0000
3002
0000
0000
0003
,  // measure 8
1001
0000
1000
0010
0000
0100
0000
0010
,  // measure 9
0000
1000
0001
0000
0011
0000
1010
0000
,  // measure 10
1001
0000
0001
0010
0000
0100
0000
0010
,  // measure 11
0000
0000
0001
0000
1000
0000
0000
0000
1010
0000
0000
0000
0010
1000
0010
1000
,  // measure 12
0010
0000
0100
0001
0000
1000
0000
0100
,  // measure 13
0000
0010
0001
0000
0011
0000
1100
0000
,  // measure 14
1001
0000
1000
0010
0000
0100
0000
0010
,  // measure 15
0000
1000
0010
0100
0001
0100
0010
1000
,  // measure 16
0002
0000
0000
0000
,  // measure 17
1003
0000
0001
0000
1000
0000
0001
0010
,  // measure 18
0100
0010
0001
0010
0200
0000
1300
0000
,  // measure 19
0100
0010
0100
1000
,  // measure 20
0001
0000
1000
0000
0010
0100
0001
1000
,  // measure 21
0100
0000
0010
0000
0100
0000
0010
0001
,  // measure 22
0010
1000
0010
0001
2000
0000
3001
1000
,  // measure 23
1001
0101
1001
1100
,  // measure 24
0120
0030
0000
0210
0300
0000
1001
0000
,  // measure 25
1001
0000
1000
0000
0010
0100
0010
1000
,  // measure 26
0001
0010
0100
0010
0001
1000
0100
0010
,  // measure 27
0001
0010
0001
1000
0100
1000
0100
1000
,  // measure 28
0002
0000
0000
0000
1003
0000
0010
0000
0100
0000
0001
0100
0001
0100
0001
0100
,  // measure 29
0002
0000
0103
0010
1000
0010
0100
0001
,  // measure 30
1000
0000
0100
0000
0010
0000
0001
0000
1000
0000
0100
1000
0100
1000
0100
1000
,  // measure 31
1100
0110
0011
1001
,  // measure 32
1001
1000
0100
1000
0001
0100
0001
1000
,  // measure 33
1001
0000
0000
0011
0000
0000
0001
0000
0010
0000
0100
0000
0010
0000
0001
0000
,  // measure 34
0011
0000
0000
1001
0000
0000
1000
0000
0001
0000
0010
0000
0001
0000
1000
0000
,  // measure 35
1001
0000
0000
1010
0000
0000
1000
0000
0010
0000
0100
0000
0010
0000
1000
0000
,  // measure 36
1010
0000
0000
1001
0000
0000
2001
0000
0000
0000
0001
0000
3001
0000
0000
0000
,  // measure 37
1001
0000
0000
1100
0000
0000
1000
0000
0100
0000
0010
0000
0100
0000
1000
0000
,  // measure 38
1100
0000
0000
1001
0000
0000
0001
0000
1000
0000
0100
0000
1000
0000
0001
0000
,  // measure 39
1001
0000
0000
0101
0000
0000
0001
0000
0100
0000
0010
0000
0100
0000
0001
0000
,  // measure 40
0100
0010
1000
0010
0100
0001
1000
0000
,  // measure 41
1001
0000
0001
1000
0010
0000
0100
0000
,  // measure 42
0020
0000
1030
0010
1000
0010
1000
0010
,  // measure 43
2000
0000
3001
0010
0100
0000
0010
0000
,  // measure 44
0002
0000
0013
0001
0010
0001
0010
0001
,  // measure 45
0020
0000
0130
1000
0001
0000
1001
0000
,  // measure 46
0101
0000
0001
0100
0010
0000
0110
0000
,  // measure 47
1010
0000
0010
1000
0001
0000
1001
0000
,  // measure 48
1001
0000
0000
0110
0000
0000
1001
0000
0001
1000
0001
1000
0001
1000
0001
1000
,  // measure 49
1001
0000
1000
0001
0100
0000
0010
0000
,  // measure 50
0200
0000
0301
0100
0001
0100
0001
0100
,  // measure 51
0002
0000
1003
0100
0010
0000
0100
0000
,  // measure 52
2000
0000
3100
1000
0100
1000
0100
1000
,  // measure 53
0200
0000
0310
0001
1000
0000
1001
0000
,  // measure 54
1010
0000
1000
0010
0100
0000
0110
0000
,  // measure 55
0101
0000
0100
0001
1000
0000
1001
0000
,  // measure 56
1001
0000
0000
0110
0000
0000
1001
0000
0002
0000
0000
0000
2000
0000
0000
3003
,  // measure 57
1001
0000
0011
0000
0001
0010
0100
1000
,  // measure 58
1100
0000
1001
0000
1000
0100
0010
0001
,  // measure 59
0011
0000
0110
0000
0001
0010
0100
1000
,  // measure 60
1100
0000
0000
0000
1001
0000
0000
0000
1000
0001
1000
0000
0001
1000
0001
0000
,  // measure 61
1001
0000
1100
0000
1000
0100
0010
0001
,  // measure 62
0011
0000
1001
0000
0001
0100
0010
1000
,  // measure 63
1010
0000
0110
0000
1000
0010
0100
0001
,  // measure 64
0100
0001
0100
0000
0001
1000
0001
0000
1000
0100
1000
0000
0100
0010
0100
0000
,  // measure 65
0220
0000
0000
0030
2000
0000
0000
0000
,  // measure 66
0000
0300
0002
0000
0000
0000
0000
0000
,  // measure 67
0000
0000
0000
0000
,  // measure 68
3003
0000
0000
0000
;

//---------------dance-single - Challenge Itsugo15----------------
#NOTES:
     dance-single:
     Challenge Itsugo15:
     Challenge:
     12:
     0.770,0.903,0.374,0.078,0.404:
0000
0000
0000
0000
,
1000
0000
0001
0000
1000
0000
0010
1000
0010
0000
0100
0000
0001
0000
0010
0000
0100
0000
0010
0000
0001
0000
0010
0000
0100
0000
1000
0000
0001
0000
1000
0000
,
0010
0000
0100
0000
0001
0000
0100
0001
0100
0000
0001
0000
1000
0000
0010
0000
0100
0000
0010
0000
1000
0000
0001
0000
0010
0000
0100
0000
0010
0000
0001
0000
,
0011
0000
0010
0000
0110
0000
0100
0000
1100
0000
1000
0000
1001
0000
1000
0001
,
1000
0010
0001
0010
1000
0001
1000
0010
,
1010
0010
0110
0100
0101
0001
1001
1000
,
1002
0000
0000
0000
0000
0000
0000
0000
1003
0001
1000
0001
1000
0001
1000
0001
,
1001
0001
1000
0010
0100
0010
1000
0100
,
0010
0100
1000
0100
0001
0100
1000
0001
,
0100
0010
1000
0010
0100
0001
0100
1000
,
0100
0000
0001
0000
0100
0000
0010
0000
1000
0010
1000
0010
1000
0010
1000
0010
,
1000
1000
0001
0100
0010
0100
0001
0010
,
0100
0010
0001
0010
1000
0010
0001
1000
,
0010
0100
0001
0100
0010
1000
0010
1000
,
0001
0010
0000
0100
1000
0000
0001
0100
0000
0010
1000
0000
0001
1000
0001
1000
,
0002
0000
0000
0000
,
1003
0001
0010
0100
1000
0100
0010
0001
,
1000
0100
0010
0001
2000
0000
3010
0100
,
0001
1000
0010
0100
0001
0100
0010
1000
,
0002
0000
0000
1003
1001
0001
0010
0100
,
0110
0100
1000
0001
0100
0010
0100
0001
,
1000
0010
0100
0010
1000
0001
1000
0100
,
1100
0100
0110
0010
0011
0001
1001
1000
,
0001
1000
0001
0000
0000
0000
0100
0010
0100
0000
0000
0000
0001
1000
0001
0000
,
1001
0000
0011
0000
0001
0010
0100
1000
,
0100
0010
0100
1000
0100
0001
0100
1000
,
0001
0100
0010
1000
0010
0001
0010
1000
,
0001
0000
0010
0000
0100
0000
1000
0000
0100
0000
0010
0100
0010
0100
0010
0100
,
0010
0001
1000
0100
1000
0010
1000
0100
,
0010
0000
0001
0000
1000
0000
0010
0000
0100
0000
0001
0100
0001
0100
0001
0100
,
0101
0100
0110
0010
1010
1000
1001
0001
,
1001
1000
0010
0100
0001
1000
0010
0100
,
0010
1000
0010
0100
0010
0000
1000
0000
0001
0000
1000
0000
0100
0000
0010
0000
,
0100
1000
0100
0010
0100
0000
1000
0000
0001
0000
0100
0000
0010
0000
1000
0000
,
0010
0100
0010
1000
0010
0000
0100
0000
0001
0000
1000
0000
0100
0000
0010
0000
,
0001
0010
0001
0000
1001
0000
0000
1100
0000
0000
0101
0000
0100
0001
0100
0010
,
0100
0001
0100
0010
0100
0000
0001
0000
1000
0000
0001
0000
0010
0000
0100
0000
,
0010
0001
0010
0100
0010
0000
0001
0000
1000
0000
0010
0000
0100
0000
0001
0000
,
0100
0010
0100
0001
0100
0000
0010
0000
1000
0000
0001
0000
0010
0000
0100
0000
,
1000
0100
1000
0000
0001
0100
0000
0010
1000
0000
1010
0000
0101
0000
0000
0000
,
1001
0001
0100
1000
0100
0001
0100
0010
,
1000
0010
0100
0001
0100
0001
1000
0001
,
1001
1000
0010
0001
0010
1000
0010
0100
,
0001
0100
0010
1000
0010
1000
0001
1000
,
1001
0001
0010
0100
0010
0001
1000
0100
,
0010
0100
1000
0001
1000
0010
0001
0010
,
1000
0001
0010
1000
0010
0001
1000
0010
,
1010
0000
0000
0101
0000
0000
0110
0000
0010
1000
0001
0100
0010
1000
0001
0100
,
0101
1000
0010
0001
0010
1000
0010
0100
,
0001
0100
0010
1000
0010
1000
0001
1000
,
1001
0001
0100
1000
0100
0001
0100
0010
,
1000
0010
0100
0001
0100
0001
1000
0001
,
1001
1000
0100
0010
0100
1000
0001
0010
,
0100
0010
0001
1000
0001
0100
1000
0100
,
0001
1000
0100
0001
0100
1000
0001
0100
,
0101
0000
0000
1010
0000
0000
0110
0000
2002
0000
0000
0000
0000
0000
3003
0000
,
1001
0000
0001
0000
1000
0000
0010
0000
0100
0000
0010
1000
0010
0100
0010
1000
,
0001
0000
0010
0000
0100
0000
1000
0000
0100
0000
0010
0001
0010
0100
0010
0001
,
1000
0000
0100
0000
0010
0000
0100
0000
1000
0000
0001
0100
0001
1000
0001
0100
,
0010
0000
0100
0000
0001
0000
0100
0000
0001
0100
0001
0000
1000
0010
1000
0000
,
1001
0000
1000
0000
0001
0000
0100
0000
0010
0000
0100
0001
0100
0010
0100
0001
,
1000
0000
0100
0000
0010
0000
0001
0000
0010
0000
0100
1000
0100
0010
0100
1000
,
0001
0000
0010
0000
0100
0000
0010
0000
0001
0000
1000
0010
1000
0001
1000
0010
,
0100
0010
0000
1000
0001
0000
0010
0100
0000
0010
0001
0000
1000
0001
0100
0010
,
2000
0000
0002
0000
,
0000
0200
0000
0000
,
0000
0000
0000
0000
,
3303
0000
0000
0000
;

//---------------dance-single - Light Itsugo15----------------
#NOTES:
     dance-single:
     Light Itsugo15:
     Easy:
     5:
     0.175,0.287,0.139,0.165,0.000:
0000
0000
0000
0000
,
0000
0000
0000
0000
,
0000
0000
0000
0000
,
1100
0000
0000
0000
,
0000
0000
0000
0000
,
0101
0000
0000
0000
,
2000
0000
3000
0000
,
1001
0000
0001
0000
,
0001
0000
1000
0000
,
0010
0000
0010
0000
,
0100
0000
0001
0000
,
1000
0000
1000
0000
,
0100
0000
0010
0000
,
0001
0000
0001
0000
,
2000
0000
0000
0000
,
3000
0000
0000
0000
,
1001
0000
1000
0000
,
0010
0000
0100
0000
,
0100
0000
0010
0000
,
1000
0000
0002
0000
,
1003
0000
0100
0000
,
0010
0000
0001
0000
,
0011
0000
1001
0000
,
0202
0000
0303
0000
,
0110
0000
0010
0000
,
1000
0000
0001
0000
,
1000
0000
0010
0000
,
0100
0000
0002
0000
,
0103
0000
0010
0000
,
1000
0000
0100
0000
,
1100
0000
1001
0000
,
2020
0000
3030
0000
,
2000
0000
0000
0000
,
3002
0000
0000
0000
,
0023
0000
0000
0000
,
0230
0000
0000
0000
,
0320
0000
0000
0000
,
0032
0000
0000
0000
,
2003
0000
0000
0000
,
3001
0000
1000
0000
,
1001
0000
0001
0000
,
0010
0000
0010
0000
,
0100
0000
1000
0000
,
0001
0000
0001
0000
,
1001
0000
1000
0000
,
0010
0000
0100
0000
,
0001
0000
1000
0000
,
0100
0000
0020
0000
,
0031
0000
1000
0000
,
0100
0000
0100
0000
,
0010
0000
0001
0000
,
1000
0000
1000
0000
,
1001
0000
0001
0000
,
0100
0000
0010
0000
,
1000
0000
0001
0000
,
0010
0000
0200
0000
,
1300
0000
1000
0000
,
0100
0000
0100
0000
,
0010
0000
0010
0000
,
0001
0000
1000
0000
,
1001
0000
0001
0000
,
0100
0000
0100
0000
,
0010
0000
0010
0000
,
1000
0000
0001
0000
,
2002
0000
0000
0000
,
0000
0000
0000
0000
,
3003
0000
0000
0000
;

//---------------dance-single - Medium Itsugo15----------------
#NOTES:
     dance-single:
     Medium Itsugo15:
     Medium:
     7:
     0.405,0.466,0.426,0.296,0.030:
0000
0000
0000
0000
,
0000
0000
0000
0000
,
0000
0000
0000
0000
,
1001
2000
0000
0001
,
0000
0001
3000
0002
,
0000
1000
0000
1000
,
2000
0000
0000
3003
,
1001
0001
0001
1000
,
1000
0010
0100
0010
,
1000
1000
0001
0001
,
0010
0100
0020
0031
,
0011
0010
0010
0100
,
0100
1000
0100
0010
,
0100
0100
0010
0010
,
0002
1000
0100
1000
,
0013
0000
0000
0000
,
2200
3300
1000
1000
,
0001
0100
0020
0000
,
0130
0001
1000
0100
,
0020
0000
0031
1000
,
1001
0001
1000
0010
,
0100
0001
0200
0000
,
0310
0110
0010
1010
,
1001
0000
0000
1001
0000
0000
1001
0000
,
1100
1000
2000
3100
,
0200
0310
0020
0031
,
0002
1003
2000
3001
,
0002
0000
0203
0300
,
0101
0001
0002
0103
,
0200
0310
0020
1030
,
1010
1010
0101
0101
,
2002
0000
0000
3003
,
1000
0000
0000
1000
0000
0000
2000
0000
0000
0000
3000
0000
0100
0000
0000
0000
,
0010
0000
0000
0010
0000
0000
0010
0000
0001
0000
0000
0000
0001
0000
0000
0000
,
1000
0000
0000
1000
0000
0000
2000
0000
0000
0000
0000
0000
3010
0000
0000
0000
,
0100
0000
0000
0100
0000
0000
0200
0000
0000
0000
0000
0000
0301
0000
0000
0000
,
0001
0000
0000
0001
0000
0000
0002
0000
0000
0000
0003
0000
0010
0000
0000
0000
,
0100
0000
0000
0100
0000
0000
0100
0000
1000
0000
0000
0000
1000
0000
0000
0000
,
0001
0000
0000
0001
0000
0000
0002
0000
0000
0000
0000
0000
0103
0000
0000
0000
,
0010
1000
0001
1001
,
2002
3003
1000
0010
,
1000
0010
1000
0010
1000
0010
1000
0010
,
1000
0001
0010
0001
,
0100
0000
0001
0100
0001
0100
0001
0100
,
0001
1000
0100
1100
,
1001
0001
0100
0101
,
1001
0010
0100
0010
,
1000
0000
0010
0000
1000
0010
1000
0001
,
2002
3003
0001
0100
,
0001
0100
0001
0100
0001
0100
0001
0100
,
0001
1000
0100
1000
,
0010
0000
1000
0010
1000
0010
1000
0010
,
1000
0001
0010
0011
,
1001
1000
0010
1010
,
1001
0100
0010
0100
,
0001
0000
0100
0000
0001
0100
0001
1000
,
1001
1100
0100
0010
,
0110
0011
0001
1000
,
1001
0101
0100
0010
,
0110
1010
1001
0011
,
1001
0011
0010
0100
,
0110
1100
1000
0001
,
1001
1010
0010
0100
,
0110
0101
1001
1100
,
0220
0000
0000
0000
,
0030
0020
0000
0000
,
0000
0000
0000
0000
,
0330
0000
0000
0000
;
