#TITLE:futuristic imagination;
#SUBTITLE:東のエデン;
#ARTIST:school food punishment;
#TITLETRANSLIT:Futuristic Imagination;
#SUBTITLETRANSLIT:Higashi no Eden;
#ARTISTTRANSLIT:School Food Punishment;
#GENRE:Otaku's Dream 2nd Mix (Pad);
#CREDIT:Itsugo & Gundam Dude (BPM);
#BANNER:futuristic imagination-bn.png;
#BACKGROUND:futuristic imagination-bg.png;
#LYRICSPATH:futuristic imagination.lrc;
#CDTITLE:Itsugo15 SimifileS.png;
#MUSIC:futuristic imagination.ogg;
#OFFSET:-0.217;
#SAMPLESTART:45.084;
#SAMPLELENGTH:11.220;
#SELECTABLE:YES;
#LISTSORT:;
#BPMS:0.000=171.107,1.000=171.096,3.000=171.107,4.000=171.096,6.000=171.107,7.000=171.096,9.000=171.107,10.000=171.096,11.000=171.107,12.000=171.096,14.000=171.107,15.000=171.096,17.000=171.107,18.000=171.096,20.000=171.107,21.000=171.096,23.000=171.107,24.000=171.096,25.000=171.107,26.000=171.096,28.000=171.107,29.000=171.096,31.000=183.241,32.000=160.471,33.000=171.096,34.000=171.107,35.000=171.096,37.000=171.107,38.000=171.096,39.000=171.107,40.000=171.096,42.000=171.107,43.000=171.096,45.000=171.107,46.000=171.096,48.000=171.107,49.000=171.096,50.000=171.107,51.000=171.096,53.000=171.107,54.000=171.096,56.000=171.107,57.000=171.096,59.000=171.107,60.000=171.096,62.000=171.107,63.000=171.096,64.000=171.107,65.000=171.096,67.000=171.107,68.000=171.096,70.000=171.107,71.000=171.096,73.000=171.107,74.000=171.096,76.000=171.107,77.000=171.096,78.000=171.107,79.000=171.096,80.000=180.037,81.000=171.107,82.000=171.096,84.000=171.107,85.000=171.096,87.000=171.107,88.000=171.096,90.000=171.107,91.000=171.096,92.000=171.107,93.000=171.096,95.000=171.107,96.000=168.310,97.000=171.096,98.000=171.107,99.000=171.096,101.000=171.107,102.000=171.096,103.000=171.107,104.000=171.096,106.000=171.107,107.000=171.096,109.000=171.107,110.000=171.096,112.000=171.107,113.000=171.096,115.000=171.107,116.000=171.096,117.000=171.107,118.000=171.096,120.000=171.107,121.000=171.096,123.000=171.107,124.000=57.611,125.000=171.096,126.000=171.107,127.000=171.096,129.000=171.107,130.000=171.096,131.000=171.107,132.000=171.096,134.000=171.107,135.000=171.096,137.000=171.107,138.000=171.096,140.000=171.107,141.000=171.096,143.000=171.107,144.000=171.096,145.000=171.107,146.000=171.096,148.000=171.107,149.000=171.096,151.000=171.107,152.000=171.096,154.000=171.107,155.000=171.096,157.000=171.107,158.000=171.096,159.000=171.107,160.000=171.096,162.000=171.107,163.000=171.096,165.000=171.107,166.000=171.096,168.000=171.107,169.000=171.096,170.000=171.107,171.000=171.096,173.000=171.107,174.000=171.096,176.000=171.107,177.000=171.096,179.000=171.107,180.000=171.096,182.000=171.107,183.000=171.096,184.000=171.107,185.000=171.096,187.000=171.107,188.000=171.096,190.000=171.107,191.000=171.096,193.000=171.107,194.000=171.096,195.000=171.107,196.000=171.096,198.000=171.107,199.000=171.096,201.000=171.107,202.000=171.096,204.000=171.107,205.000=171.096,207.000=171.107,208.000=171.096,209.000=171.107,210.000=171.096,212.000=171.107,213.000=171.096,215.000=171.107,216.000=171.096,218.000=171.107,219.000=171.096,221.000=171.107;
#STOPS:;
#TICKCOUNT:0.000=6;
#BGCHANGES:-2.000=futuristic imagination.avi=1.000=1=1=0,
220.750=futuristic_imagination-bg.png=1.000=1=0=0,
99999=-nosongbg-=1.000=0=0=0 // don't automatically add -songbackground-
;
#KEYSOUNDS:;
#ATTACKS:;

//---------------dance-single - Itsugo----------------
#NOTES:
     dance-single:
     Itsugo:
     Challenge:
     11:
     0.917,1.000,0.973,0.430,0.404: // measure 1
0000
0000
1010
0010
,  // measure 2
0100
0000
0001
0000
1000
0000
0000
0000
1100
0000
0000
0000
0101
0000
0000
0001
,  // measure 3
0100
0010
1000
0100
0010
0100
1000
0010
,  // measure 4
0100
1000
0100
0010
1000
1010
0100
0000
,  // measure 5
0101
0000
0000
0000
0011
0000
0000
0001
0010
0000
0100
0000
1000
0000
0010
0000
,  // measure 6
0100
0010
0100
0000
0001
0000
1000
0001
1000
0000
0100
0000
0010
0000
0001
0000
,  // measure 7
0100
1000
0001
1001
1000
0100
0010
1000
,  // measure 8
1010
0000
1000
0000
0001
0000
0011
0000
MMMM
M000
MMM0
M000
M000
0000
0000
0000
,  // measure 9
MMMM
0MM0
0MM0
0MM0
MMMM
0000
0000
0000
1100
0000
1000
0001
0100
0000
0010
1000
,  // measure 10
0001
0010
0100
0110
0000
0010
0011
0001
,  // measure 11
0100
0000
0010
0000
1010
0000
0000
0000
0101
0000
0001
1000
0100
0000
0010
0001
,  // measure 12
1000
0010
0100
0110
0000
0010
1010
1000
,  // measure 13
0100
0000
0010
0000
0011
0000
0001
0000
1001
0000
0100
0000
0101
0000
0100
0010
,  // measure 14
2000
3200
0302
0203
2300
3020
0230
0302
,  // measure 15
2003
0000
3200
0000
0320
0000
0032
0000
0203
0000
0320
0000
2030
0000
3001
1000
,  // measure 16
0200
0320
0230
2300
3002
0203
2300
3200
,  // measure 17
0310
1000
0001
0100
0001
1000
0100
0010
0001
0000
000M
0000
1000
0000
1100
0000
,  // measure 18
M000
0001
0101
000M
0010
1010
00M0
1000
,  // measure 19
1001
M000
0011
000M
0100
1100
0M00
1000
,  // measure 20
1010
00M0
0100
0101
0M00
0001
0011
0100
,  // measure 21
110M
0000
1MM1
0M00
0001
0101
0M00
1000
,  // measure 22
1010
00M0
0001
0011
00M0
1000
1100
0M00
,  // measure 23
0001
2002
3003
0001
0100
1000
0200
0000
,  // measure 24
0310
0000
1000
0000
0001
0000
0010
0000
0100
0010
0001
1000
0010
0100
0001
1000
,  // measure 25
1001
0000
1100
0000
0010
0011
0000
1001
,  // measure 26
0000
0100
0101
0000
1010
0000
1000
0001
,  // measure 27
1001
0000
1100
0000
1000
1010
0000
0101
,  // measure 28
0000
0010
0011
0000
0001
1000
0010
0000
,  // measure 29
0110
0000
0001
0000
0101
1000
0000
1100
,  // measure 30
0000
0010
1010
0000
0200
0000
0301
0010
,  // measure 31
2000
0000
0000
3000
1010
0000
0000
0000
0020
0000
0031
0000
0000
0000
2002
0000
,  // measure 32
0000
0000
0000
0000
3113
0000
0000
0000
0100
0000
0001
0000
1000
0000
0100
0010
,  // measure 33
0001
0000
1000
0000
0010
0000
0100
0000
1000
0000
0100
0000
0001
0000
1000
0001
,  // measure 34
0010
0000
0100
0000
1000
0000
1100
0000
1000
0000
0010
0000
0100
0000
0001
1000
,  // measure 35
0100
0000
0010
0000
0001
0000
0100
0010
0001
0000
0010
0000
0100
0000
0010
0000
,  // measure 36
1000
0001
0000
0001
1000
0000
0010
0000
1010
0000
0100
0000
0001
0000
1000
0100
,  // measure 37
0010
0000
0100
0000
1000
0000
0001
0000
0100
0000
0010
0000
0110
0000
0100
0001
,  // measure 38
1000
0000
0100
0000
0010
0000
0001
0000
0011
0000
0001
0000
1000
0000
0010
0100
,  // measure 39
0001
0000
1000
0000
0100
0000
1100
0000
1000
0000
0001
0000
0100
0000
0010
1000
,  // measure 40
0001
0000
0010
0000
0001
0010
0100
1000
0010
0000
1000
0000
0001
0000
0010
0100
,  // measure 41
1000
0000
0001
0000
0100
0000
0010
0000
0001
0000
0010
0000
1000
0000
0001
1000
,  // measure 42
0100
0000
0010
0000
0001
0000
0011
0000
0001
0000
0100
0000
0010
0000
1000
0001
,  // measure 43
0010
0000
0100
0000
1000
0000
0010
0100
1000
0000
0100
0000
0010
0000
0100
0000
,  // measure 44
0001
1000
0000
1000
0001
0000
0100
0000
0101
0000
0010
0000
1000
0000
0001
0010
,  // measure 45
0100
0000
0010
0000
0001
0000
1000
0000
0010
0000
0100
0000
0110
0000
0010
1000
,  // measure 46
0001
0000
0010
0000
0100
0000
1000
0000
1100
0000
1000
0000
0001
0000
0100
0010
,  // measure 47
1000
0000
0001
0000
0010
0000
0011
0000
0001
0000
1000
0010
0100
0000
0001
0100
,  // measure 48
0010
0000
1000
0000
0001
1000
0001
1000
0001
0000
0010
0100
1000
0100
0010
0001
,  // measure 49
0000
0010
0100
1000
0100
0010
0001
0010
0200
0000
0000
0000
0000
0000
0000
0000
,  // measure 50
2000
0000
0000
0000
3300
1000
1001
M000
,  // measure 51
0001
0101
000M
0100
0110
00M0
0010
1010
,  // measure 52
00M0
0000
0001
1000
0100
0010
0001
0000
1001
0000
0000
MMMM
0000
0000
0101
0000
,  // measure 53
0000
MMMM
0000
0000
0110
0000
0000
MMMM
0000
0000
1010
0000
0000
MMMM
0000
0000
,  // measure 54
11M0
0000
0000
0000
M1M1
0000
0000
MMMM
0000
0000
1001
0000
0000
MMMM
0000
0000
,  // measure 55
0011
0000
0000
MMMM
0000
0000
1100
0000
0000
MMMM
0000
0000
1010
0000
0000
0000
,  // measure 56
MMM2
0000
0000
0003
0000
0000
0000
0000
0000
0000
0000
0000
0000
0000
0000
0000
;

//---------------dance-single - Itsugo----------------
#NOTES:
     dance-single:
     Itsugo:
     Beginner:
     3:
     0.132,0.209,0.088,0.051,0.000:
0000
0000
1001
0000
,
0000
0000
0000
0000
,
0000
0000
0001
0000
,
0000
0000
0000
0000
,
0000
0000
1000
0000
,
0000
0000
0000
0000
,
0000
0000
0010
0000
,
0000
0000
0000
0100
0000
0000
0000
0000
,
0000
0000
0110
0000
,
0000
0000
0001
0000
,
0000
0000
1000
0000
,
0000
0000
0100
0000
,
0000
0000
0010
0000
,
0000
0000
0001
0000
,
0000
0000
1000
0000
,
0000
0000
0010
0000
,
0000
0000
2020
0000
,
0000
0000
3030
0000
,
0000
2002
0000
0000
,
0000
3003
0000
0001
,
0000
1000
0000
0000
,
0000
0010
0000
0000
,
0000
0100
0000
0000
,
0000
0001
0000
1000
,
1001
0000
1000
0000
,
0100
0000
0000
0000
,
0010
0000
0001
0000
,
0100
0000
0010
0000
,
1000
0000
0100
0000
,
0010
0000
0001
0000
,
1001
0000
1000
0000
,
1010
0000
0010
0000
,
0000
0000
0100
0000
,
0000
0000
0001
0000
,
0000
0000
1000
0000
,
0000
0000
0100
0000
,
0000
0000
0010
0000
,
0000
0000
0001
0000
,
0000
0000
1000
0000
,
0000
0000
0010
0000
,
0000
0000
0100
0000
,
0000
0000
0001
0000
,
0000
0000
1000
0000
,
0000
0000
0100
0000
,
0000
0000
0010
0000
,
0000
0000
0001
0000
,
0000
0000
1000
0000
,
0000
0000
0010
0000
,
0000
0000
0100
0000
,
0000
0000
0001
0000
,
1000
0000
0100
0000
,
0010
0000
0001
0000
,
0000
0000
1000
0000
,
0000
0000
0010
0000
,
0000
0000
0100
0000
,
0001
0000
0000
0000
;

//---------------dance-single - Itsugo----------------
#NOTES:
     dance-single:
     Itsugo:
     Easy:
     5:
     0.233,0.278,0.190,0.051,0.000:
0000
0000
1001
0000
,
0001
0000
1000
0000
,
0010
0000
0100
0000
,
0001
0000
0010
0000
,
0100
1000
0001
0000
,
0100
0000
0010
0000
,
1000
0000
0100
0000
,
0010
0000
0000
0001
0000
0000
0000
0000
,
0000
0000
0011
0000
,
0001
0000
1000
0000
,
0010
0000
0100
0000
,
0001
0000
1000
0000
,
0100
0000
0010
0000
,
0100
0000
1000
0000
,
0001
0000
0100
0000
,
0010
0000
1000
0000
,
0001
0000
0000
0000
1001
0000
0000
0001
,
0000
0000
0000
0000
,
1001
0000
1000
0000
0000
0100
0000
0000
,
0010
0000
0000
0001
,
0000
0000
0011
0000
0000
0001
0000
0000
,
1000
0000
0000
1000
,
0000
0010
0000
0000
0100
0000
0001
0000
,
0000
0010
0000
0100
,
1100
0000
0000
2000
0000
0000
0000
0000
,
3000
0000
0000
0100
,
0010
0000
0000
0002
0000
0000
0000
0000
,
0003
0000
0011
0010
,
0100
0000
0000
2000
0000
0000
0000
0000
,
3000
0000
0000
0000
1001
0000
0000
0001
,
0000
0000
0000
0000
1001
0000
0000
1000
,
0000
0000
0001
0000
,
0100
0000
0010
0000
,
1000
0000
0100
0000
,
0010
0000
0001
0000
,
0100
0000
1000
0000
,
0100
0000
0001
0000
,
0010
0000
1000
0000
,
0010
0000
0001
0000
,
1000
0000
1001
0000
,
1000
0000
0010
0000
,
0100
0000
0001
0000
,
0010
0000
1000
0000
,
0010
0000
0001
0000
,
0100
0000
1000
0000
,
0100
0000
0001
0000
,
1000
0000
0100
0000
,
0010
0000
0110
0000
,
1001
0000
0110
0000
,
0200
0000
0000
0000
0000
0301
0000
0000
,
0010
0000
0000
0100
0000
0000
1000
0000
,
0100
0000
1100
0000
,
1000
0000
0001
0000
,
0100
0000
0010
0000
,
1000
0000
0001
0000
,
1001
0000
0000
0000
;

//---------------dance-single - Itsugo----------------
#NOTES:
     dance-single:
     Itsugo:
     Medium:
     7:
     0.486,0.521,0.202,0.202,0.006:
0000
0000
1001
0001
,
0001
0001
0001
0001
,
1000
1000
0001
0001
,
0001
0001
0001
1000
,
0010
0100
0001
0001
,
0001
1000
0100
0010
,
0100
1000
0010
0010
,
0100
0000
0002
2000
0000
0000
0000
0000
,
0000
3003
1001
1000
,
0100
0010
0100
1000
,
0010
0010
0100
0001
,
0010
0100
1000
0010
,
0100
0100
0002
0010
,
1000
0100
1000
0010
,
1003
0100
0020
0001
,
0100
1000
0031
0100
,
0010
0000
1000
0000
1100
0000
0000
0110
,
0000
0000
0001
0000
0000
1000
0000
0000
,
0010
0000
0110
0000
0000
0100
0000
0000
,
0001
0000
0000
0010
0000
0000
0100
1000
,
0001
0000
0101
0000
0000
0100
0000
0000
,
0010
0000
0000
1000
0000
0000
0100
0000
,
0010
0100
0000
1000
0010
0100
0001
0000
,
0010
0100
0000
1000
0010
0000
0100
0001
,
0101
0000
0001
0000
1000
0100
0000
1000
,
0000
0000
0001
0000
0100
0000
0010
1000
,
0100
0000
0010
0000
0100
1000
0000
0010
,
0000
0000
0100
0000
0100
0001
0010
0000
,
1100
0000
0100
0000
0010
0001
0000
1000
,
0000
0000
1000
0000
0010
0000
0100
0001
,
0010
0000
0010
0000
0001
0100
0000
0110
,
0000
0000
0000
0000
1001
0000
0001
0010
,
0000
0100
0000
0100
1000
0000
0010
0100
,
0000
0001
1000
0000
0200
0000
1300
0100
,
0000
0010
0001
0000
0101
0000
0010
0000
,
1000
0000
0000
0010
0000
0000
1000
0000
0100
0000
0000
0000
0010
0000
0001
0000
,
0000
0100
0000
0020
0000
1000
1030
0000
,
1000
0000
0100
0010
0100
0000
1000
0000
,
0001
0100
0000
0010
0000
0010
1000
0000
,
0100
0010
0100
1000
0001
0100
0001
0010
,
0001
1000
0010
0100
0010
0000
1000
0100
,
0000
0010
0000
0100
1000
0000
0010
0000
,
0100
0000
0001
0010
0100
0000
1000
0000
,
0100
0010
0000
0001
0100
0000
0010
1000
,
0000
1000
0000
0001
0100
0000
0010
0000
,
1000
0000
0100
0000
0010
0001
0100
0010
,
1000
0100
0010
2000
0000
3020
0000
0230
,
0000
1300
0001
0100
0010
0000
0010
0100
,
0000
0001
0000
0010
0200
0000
0000
0000
,
2000
0000
0000
0000
3000
1300
0002
0000
,
0103
0020
0000
1030
0002
0000
0013
0200
,
0300
0100
0010
0001
1000
0000
0000
0110
,
0000
0000
1001
0000
0000
0010
0000
0000
,
0100
0000
1100
0000
0000
0101
0000
0000
,
0100
0000
0000
0020
0000
0030
1000
0000
,
1001
0000
0000
0000
;

//---------------dance-single - Itsugo----------------
#NOTES:
     dance-single:
     Itsugo:
     Hard:
     9:
     0.630,0.594,0.404,0.202,0.070:
0000
0000
1001
0001
,
0010
0100
0010
0000
0001
0000
1000
0000
,
0010
0100
0010
0000
1000
0000
0100
0000
,
0010
0001
0100
0000
0010
1000
0100
0000
,
1100
0010
0001
1000
,
0010
0100
0001
0010
0100
1000
0001
0000
,
0100
0000
0110
0000
0010
1000
0100
0000
,
0010
0100
1000
2002
0000
0000
0000
0000
,
0000
0000
3003
0000
1001
1000
0001
0100
,
0000
0010
1000
0010
0000
0100
0001
0010
,
0100
0000
0010
0100
1000
0001
0100
0010
,
0000
1000
0100
0010
0000
0100
1000
0000
,
0010
0100
0001
0010
0100
1000
0001
0100
,
0010
0100
0010
0100
0001
0100
0001
1000
,
0001
1000
0001
0010
0100
1000
0001
0100
,
0010
1000
0100
0010
0100
0010
0001
0100
,
0010
0000
1000
0000
0001
1000
0001
1000
0002
0000
0000
0000
0000
0000
0023
0000
,
0000
0000
0230
0000
0000
2300
0000
0000
,
3010
0000
0110
0000
0000
0200
0000
0000
,
0302
0000
0000
0023
0000
0000
0130
1000
,
0001
0000
0101
0000
0000
2000
0000
0000
,
3200
0000
0000
0320
0000
0000
0031
0000
,
1000
0010
0000
0100
0010
1000
0001
0000
,
0010
0000
0100
0000
0000
0000
1000
0000
0001
0000
0100
0000
0010
1000
0010
1000
,
0010
0000
1000
0000
0001
0100
0000
0110
,
0000
0010
0100
0000
0001
0000
0010
0100
,
1000
0000
1001
0000
0001
0100
0000
0010
,
0000
1000
0100
0000
0010
0100
1000
0000
,
1100
0000
1000
0000
0001
0100
0000
0101
,
0000
0100
0010
0000
1000
0000
0100
0010
,
0110
0000
0010
0000
0001
0100
0000
1001
,
0000
0000
0000
0000
0000
0000
0000
0000
1001
0000
0001
0000
0100
0000
0010
0100
,
0010
1000
0100
0010
0100
1000
0001
0100
,
0000
0001
0100
0010
0100
0001
0010
0100
,
1000
0100
0010
0001
1001
0001
1000
0001
,
0010
0000
0000
0100
0000
0000
1000
0000
0001
0000
0000
0000
0100
0000
0010
0000
,
0000
1000
0000
1010
0000
1000
0001
0000
,
0010
0000
0100
1000
0100
0010
0001
0100
,
0010
1000
0010
0100
0000
0001
1000
0100
,
0010
0000
0001
0000
1000
0100
1000
0100
1000
0000
0000
0000
0001
0000
1000
0000
,
0000
0010
0000
0100
0001
0000
0010
0100
,
0000
1100
0000
1000
0001
0000
0100
0010
,
0000
1000
0000
1000
0100
0000
0010
0000
,
0100
1000
0000
0010
0100
0000
0001
0010
,
0000
0110
0000
0100
0010
0000
0001
0100
,
0000
0010
1000
0000
0100
0010
0100
1000
,
0010
0100
0001
0010
0000
1001
0000
1100
,
1000
0010
0100
0001
0010
0000
0011
0001
,
0000
1000
0010
0100
0002
0000
0000
0000
,
0023
0000
0000
0000
0000
0130
1000
0000
,
1001
0001
0000
0100
0010
0000
1000
0100
,
0010
0000
0100
1000
0100
1000
0100
0010
0001
0000
0000
0000
0000
0000
0101
0000
,
0000
0000
1010
0000
0000
1100
0000
0000
,
0110
0000
1001
0000
0000
0110
0000
0000
,
0101
0000
0000
0011
0000
0000
1100
0000
,
2002
3003
0000
0000
;
