#TITLE:daily-daily Dream;
#SUBTITLE:ハヤテのごとく!! 2nd season 2nd Opening;
#ARTIST:KOTOKO;
#TITLETRANSLIT:daily-daily Dream;
#SUBTITLETRANSLIT:Hayate no Gotoku!! 2nd Season 2nd Opening;
#ARTISTTRANSLIT:KOTOKO;
#GENRE:Itsugo15 SimifileS 1-30 DDR Version;
#CREDIT:Grc-009 Feat Itsugo15;
#MENUCOLOR:;
#BANNER:daily-daily Dream!-bn.png;
#BACKGROUND:daily-daily Dream!-bg.png;
#LYRICSPATH:daily-daily Dream!.lrc;
#CDTITLE:Collab.png;
#MUSIC:Daily-Daily Dream!.mp3;
#OFFSET:-0.310;
#SAMPLESTART:67.915;
#SAMPLELENGTH:30.000;
#SELECTABLE:YES;
#LISTSORT:;
#BPMS:0.000=170.000,184.000=579.996,185.500=170.000,268.000=85.000,309.500=85.000;
#STOPS:184.000=0.500
,184.500=0.513
,185.000=0.316
,187.000=0.500
;
#TICKCOUNT:0.000=6;
#BGCHANGES:22.000=daily-daily Dream!.avi=1.000=1=0=0,
99999=-nosongbg-=1.000=0=0=0 // don't automatically add -songbackground-
;
#KEYSOUNDS:;
#ATTACKS:;

//---------------dance-single - Challenge Itsugo15----------------
#NOTES:
     dance-single:
     Challenge Itsugo15:
     Challenge:
     9:
     0.510,0.616,0.395,0.284,0.137:
0002
0000
0000
0000
,
0000
0000
0000
0000
,
0000
0000
0000
0000
,
0000
0000
0000
0000
0000
0000
0000
0000
0000
0000
0000
0000
0000
0000
0000
0000
0000
0000
0000
0000
0000
0000
0000
0000
0000
0000
0000
0000
0000
0000
0000
0000
0003
0000
0000
0000
0000
0000
0000
0000
0000
0000
0000
0000
0000
0000
0000
0000
4M04
0000
0000
0000
0000
0000
00M0
0000
0000
0000
0000
0000
0M00
0000
0000
0000
0000
0000
00M0
0000
0000
0000
0000
0000
0M00
0000
0000
0000
0000
0000
00M0
0000
0000
0000
0000
0000
0M00
0000
0000
0000
0000
0000
00M0
0000
0000
0000
0000
0000
0M00
0000
0000
0000
0000
0000
00M0
0000
0000
0000
0000
0000
0M00
0000
0000
0000
0000
0000
00M0
0000
0000
0000
0000
0000
0M00
0000
0000
0000
0000
0000
00M0
0000
0000
0000
0000
0000
0M00
0000
0000
0000
0000
0000
00M0
0000
0000
0000
0000
0000
0M00
0000
0000
0000
0000
0000
00M0
0000
0000
0000
0000
0000
0M00
0000
0000
0000
0000
0000
00M0
0000
0000
0000
0000
0000
0M00
0000
0000
0000
0000
0000
00M0
0000
3003
0000
0000
0000
0000
0000
0000
0000
0000
0000
0000
0000
0000
0000
0000
0000
,
1001
0001
0000
0010
0000
0010
0000
0000
,
0100
1000
0000
0001
0000
0001
0000
0000
,
0100
0010
0000
1000
0000
1000
0000
0000
,
0000
0010
0001
0010
1000
0100
0001
0100
,
0110
0010
0000
0001
0000
0001
0000
0000
,
0100
0010
0000
1000
0000
1000
0000
0000
,
0010
0100
0000
0001
0000
0001
0000
0000
,
0000
0100
1000
0100
0001
0010
1000
0010
,
0110
1100
1001
0101
,
0120
1000
0100
0001
,
0130
0110
0101
1001
,
1000
0001
0000
0010
0000
0100
0000
0000
,
0100
1000
0000
0010
0000
0100
0001
0010
,
0001
0100
0000
0010
0000
1000
0100
1000
,
0010
0100
0000
0002
0000
0000
0100
0000
,
0010
1000
0100
0010
,
1003
0100
0000
1000
0000
0100
0010
0100
,
1000
0010
0000
0100
0000
0001
0010
0100
,
0010
0001
0000
2000
0000
0000
0010
0000
,
0100
0001
0010
0100
,
3001
1000
0001
0010
0100
0000
1000
0010
,
0000
0100
0000
0001
0010
0000
0110
0000
,
0010
0001
0010
0000
0100
1000
0100
0000
0100
0000
0001
0000
0100
0000
1000
0000
,
0001
0001
0000
1000
0001
0000
1001
0000
,
1010
0000
0000
0000
0000
0000
0000
0000
0000
MMMM
0000
0000
0000
0000
0000
0000
0000
0000
0000
0000
1001
0000
0000
0000
0000
0000
0000
0000
0000
0000
MMMM
0000
0000
0000
0000
0000
0000
0000
0000
0000
0011
0000
0000
0000
0000
0000
0000
0000
,
0000
MMMM
0000
0000
1001
0000
0000
0000
0001
0000
0000
0000
1000
0000
0000
0000
,
1001
0000
0000
0000
0000
0000
0000
0000
0000
MMMM
0000
0000
0000
0000
0000
0000
0000
0000
0000
0000
0101
0000
0000
0000
0000
0000
0000
0000
0000
0000
MMMM
0000
0000
0000
0000
0000
0000
0000
0000
0000
1001
0000
0000
0000
0000
0000
0000
0000
,
0000
0000
0000
MMMM
0000
0000
0000
0000
0000
0000
0000
0000
1100
0000
0000
0000
0000
0000
0000
0000
0000
0000
0000
0000
0400
0000
0000
0000
0000
0000
0300
0000
0M00
0000
0000
0000
0000
0000
0000
0000
0000
0000
0000
0000
0000
0000
0000
0000
,
0010
0000
0100
0020
0000
0000
0000
0000
,
1000
0100
0001
0130
,
0010
0000
0001
0200
0000
0000
0000
0000
,
0001
0010
1000
0010
,
0304
0000
0000
0000
0000
0000
0000
0000
0003
0400
0000
0300
,
4000
0000
0000
0000
0000
3000
0400
0000
0300
0004
0000
0003
,
0040
0000
0000
0000
0000
0000
0430
0000
0300
4000
0000
3000
,
0004
0000
0000
0000
0000
0000
0403
0000
0300
0004
0000
0003
,
0101
0000
0100
0002
0000
0000
0000
0000
,
0010
1000
0100
1000
,
0013
0000
0001
2000
0000
0000
0000
0000
,
0010
0001
0100
0001
,
3010
0100
0010
0000
0100
0001
0000
0001
,
0000
0010
0000
0100
1000
0010
0100
0000
,
0110
1010
0101
1001
0000
0000
0000
0000
,
1000
0100
0010
0100
1000
0000
0001
0000
,
1000
0100
0010
0100
1000
0000
0001
1000
,
1000
0000
0100
0010
0000
0010
0100
0000
,
0110
0000
0010
0001
0000
0001
0010
0000
,
0001
0010
0100
0010
0001
0000
1000
0000
,
0001
0010
0100
0010
0001
0000
1000
0010
,
0100
0000
0100
0001
0000
0001
0010
0000
,
0110
0000
0100
1000
0000
1000
0010
0000
,
0110
0101
1001
1100
,
0210
0001
0010
1300
,
0110
0011
1001
1010
,
1000
0001
0000
0001
0000
1000
0000
0000
,
0001
0010
0000
0100
0000
0010
0001
0100
,
0010
1000
0000
0010
0000
1000
0010
0001
,
0010
1000
0000
0020
0000
0000
0100
0000
,
0001
0100
1000
0130
,
0110
0010
0000
1000
0000
0100
0001
0100
,
1000
0010
0000
0100
0000
0010
1000
0010
,
0100
0002
0000
2000
0000
0000
00M0
0000
,
0M00
0000
0000
00M0
0000
0000
0M00
0000
0000
00M0
0000
3003
,
0220
0000
0330
0000
;

//---------------dance-single - Light Itsugo15----------------
#NOTES:
     dance-single:
     Light Itsugo15:
     Easy:
     3:
     0.174,0.306,0.132,0.122,0.000:
0000
0000
0000
0000
,
0000
0000
0000
0000
,
0000
0000
0000
0000
,
0000
0000
0000
0000
,
0000
0000
0000
0000
,
0000
0000
0000
0000
,
0000
0000
0000
0000
,
0000
0000
0000
0000
,
1000
0000
0000
0001
,
0011
0000
0000
0000
,
0010
0000
0000
0100
,
1100
0000
0000
0000
,
0001
1000
0001
1000
,
0002
0000
0000
0000
,
0013
0100
0010
0100
,
2000
0000
3002
0000
,
1003
0000
0000
0000
,
0001
0000
0000
0000
,
0100
0000
0000
0000
,
0010
0000
0010
0000
,
0010
0000
0000
0000
,
1000
0000
0000
0000
,
0001
0000
0000
0000
,
0010
0000
0010
0000
,
0010
0000
0100
0000
,
0100
0000
1000
0000
,
0001
0000
0001
0000
,
0010
0000
0100
0000
,
0110
0000
0000
0000
,
0011
0000
0000
0000
,
1001
0000
0000
0000
,
0101
0000
0010
0000
,
0010
0000
2000
0000
,
3000
0000
1000
0000
,
1000
0000
0002
0000
,
0003
0000
0001
0000
,
0010
0000
0000
0100
,
0000
0000
1000
0000
,
0001
0000
0000
0100
,
0000
0000
0010
0000
,
1000
0000
0001
0000
,
0020
0000
0030
0000
,
0001
0000
1000
0000
,
0200
0000
0300
0000
,
1000
0000
0010
0000
,
0100
0000
0001
0000
,
2002
0000
0000
3003
,
1000
0000
0001
0000
,
1000
0000
0010
0000
,
0100
0000
0010
0000
,
2000
0000
0000
3000
,
0100
0000
1000
0000
,
0010
0000
0100
0000
,
0001
0000
0010
0000
,
0200
0000
0000
0000
,
0310
0000
0010
0000
,
0002
0000
0000
0003
,
0100
0000
0100
0000
,
0010
0000
1000
0000
,
1010
0000
0000
0000
,
1001
0000
0000
0000
,
0011
0000
0000
0000
,
0001
0000
1000
0000
,
0101
0000
0000
0000
,
1001
0000
0000
0000
,
1100
0000
0000
0000
,
0100
0000
0010
0000
,
0100
0000
0000
0000
;

//---------------dance-single - Heavy Grc-009----------------
#NOTES:
     dance-single:
     Heavy Grc-009:
     Hard:
     9:
     0.611,0.616,0.537,0.101,0.000:
0000
0000
0000
0000
,
0000
0000
0000
0000
,
0000
0000
0000
0000
,
0000
0000
0000
0000
,
0001
1000
0010
0100
0000
0110
0110
0000
,
0010
0100
0001
1000
0000
1001
1001
0000
,
0001
1000
0010
0100
0000
0110
0110
MMMM
,
0000
0010
0100
0001
1000
0100
0010
0000
,
0010
0001
1000
0010
0000
1010
1010
0000
,
1000
0010
0100
0001
0000
0101
0101
0000
,
0001
0100
0010
1000
0000
1010
1010
MMMM
,
0000
1000
0001
0100
0010
1000
0001
1000
,
1001
0101
0011
1001
,
1000
0010
0100
0001
0010
0100
1000
0100
,
0010
0011
1001
0101
,
0001
1000
0000
1001
0000
0001
0010
0000
,
0100
1000
0100
1000
00M0
0001
0010
0001
,
0010
0100
0M00
0100
0000
1000
0100
0010
,
0001
1000
0000
1001
0000
1000
0001
0100
,
0010
1000
0001
1000
0100
0010
0001
0000
,
0001
1000
0000
1001
0000
1000
0010
0100
,
0001
0100
0000
0101
0000
0100
0010
1000
,
0001
0010
0000
0011
0000
0001
0010
0100
,
1000
0001
0100
0010
1000
0001
0100
M00M
,
0010
1000
0001
0100
0010
1000
0100
0010
,
0000
0010
0000
0001
1000
0000
1001
0000
,
0001
1000
0010
0100
0001
1000
0100
0010
,
0001
1000
0000
0001
1000
0000
1100
0000
,
0100
0000
1000
0001
0000
1000
0100
0M00
,
0000
0100
0000
1000
0001
0000
0100
0000
,
0010
1000
0001
0010
0000
0100
1000
M000
,
000M
0001
1000
0001
1000
0000
1001
0000
,
0001
1000
0010
2000
0000
0000
0001
0000
,
0010
0001
0010
3001
,
1001
0000
0010
0002
0000
0000
1000
0000
,
0100
1000
0100
1003
,
1010
0000
1000
0001
0000
0100
0010
0100
,
0000
0001
0000
1000
0010
0000
0100
0000
,
0002
0000
0000
1003
0100
0000
0010
0100
,
1000
0010
0100
0001
1000
0100
0010
0001
,
0011
0000
0001
2000
0000
0000
0100
0000
,
0001
0100
0001
3100
,
1001
0000
0010
0200
0000
0000
0001
0000
,
0010
0001
0010
0301
,
0001
0100
0010
1000
0100
0010
0000
0001
,
0000
1000
0000
0100
0010
0000
0001
0000
,
0011
1001
1100
1010
0000
1000
0000
0010
,
0100
0001
1000
0002
0100
0000
0103
0000
,
0001
1000
0010
2000
0001
0000
0001
0001
,
3001
0000
0010
0200
0000
0000
1300
0000
,
1100
0000
0100
1000
0010
0100
0001
1000
,
0100
0000
0010
0001
0000
0011
0000
0010
,
0100
1000
0100
0020
0000
0001
0031
0000
,
0011
0000
1010
0000
0010
0100
0000
0110
,
0000
0100
0001
0100
0010
1000
0010
0100
,
0001
0101
1010
0011
,
1100
0000
1000
0100
1000
0001
0100
0010
,
1000
1010
0101
1001
,
0001
1000
0000
1001
0000
0001
0010
0000
,
0100
1000
0100
1000
0000
0100
0010
0100
,
0010
0100
0000
1100
0000
1000
0010
0100
,
0001
1000
0000
1001
0000
1000
0001
1000
,
0100
0010
0001
0010
0100
1000
1000
0000
,
0001
0100
0000
0101
0000
0100
0001
0100
,
0001
0100
0000
1010
0000
1000
0010
0100
,
0001
1000
0000
1001
0000
0001
1000
0001
,
0100
0010
1000
0010
0100
0001
0010
0100
,
2000
0000
3000
0000
;

//---------------dance-single - Medium Grc-009----------------
#NOTES:
     dance-single:
     Medium Grc-009:
     Medium:
     6:
     0.471,0.479,0.010,0.193,0.000:
0000
0000
0000
0000
,
0000
0000
0000
0000
,
0000
0000
0000
0000
,
0000
0000
0000
0000
,
0001
1000
0000
0010
0000
0100
0100
0000
,
0010
1000
0000
0001
0000
0010
0010
0000
,
0100
1000
0000
0001
0000
0100
0100
0000
,
0000
0001
0100
0001
0100
0001
0100
0000
,
0010
1000
0000
0100
0000
0010
0010
0000
,
0010
0001
0000
1000
0000
0100
0100
0000
,
1000
0100
1000
0100
0000
0010
0010
0000
,
0000
0001
0010
0001
0010
0001
0010
0000
,
0100
1000
0001
0100
,
0020
0100
0100
0130
,
0001
1000
0100
0010
,
0001
1000
0000
0010
0000
0100
0100
0000
,
0001
0001
0000
0100
0000
0010
0100
0010
,
0100
0010
0000
1010
0000
1000
0010
1000
,
0010
1000
0000
0002
0000
0100
0000
0100
,
0000
0100
0000
0100
0000
0100
0103
0000
,
0010
1000
0000
0100
0000
1000
0100
1000
,
0100
1000
0000
0001
0000
1000
0001
1000
,
0001
1000
0000
0020
0000
0100
0000
0100
,
0000
0100
0000
0100
0000
1000
1030
0000
,
0001
1000
0001
1000
0001
1000
0001
1000
,
0000
0100
0000
0010
0001
0000
1000
0000
,
0001
0010
0001
0010
0001
0010
0001
0010
,
0001
0010
0000
0100
0010
0000
0001
0000
,
1000
0000
1000
0001
0000
0100
0010
0000
,
0000
1000
0000
0001
1000
0000
0010
0000
,
0100
0000
0001
1000
0000
1000
0001
0000
,
0000
0010
0000
0100
1000
0000
0100
0000
,
0010
0000
0001
0002
0000
0000
0010
0000
,
0010
0010
0010
0013
,
0100
0000
1000
0020
0000
0000
0100
0000
,
0100
0100
0100
0130
,
0001
0000
1000
0001
0000
0100
0001
0100
,
0000
0010
0000
1000
0001
0000
0010
0000
,
0200
0000
0000
1300
2000
0000
3100
0000
,
0010
0001
1000
0010
,
0100
0000
0001
0200
0000
0000
0001
0000
,
0001
0001
0001
0301
,
0100
0000
0010
2000
0000
0000
0001
0000
,
0001
0001
0001
3001
,
1000
0001
1000
0001
1000
0001
0000
0100
,
0000
0010
0000
1000
0100
0000
0010
0000
,
0001
1000
0010
0100
0000
0000
0000
0001
,
1000
0001
1000
0020
0000
0000
0030
0000
,
1000
0000
0001
2000
0000
0000
3000
0100
,
0010
0000
0001
2000
0000
0000
3010
0000
,
0200
0010
0010
0310
,
1000
0000
0001
0020
0000
0030
0000
0100
,
1000
0000
0001
0100
0000
0010
0010
0000
,
1000
0000
0010
0000
0100
0001
0000
2000
,
0000
0001
0000
0001
0000
0001
3001
0000
,
0100
0010
1000
0100
,
0020
0100
0100
0130
,
1000
0001
0100
0001
,
1000
0001
0000
0100
0000
0010
0010
0000
,
1000
0001
0000
0010
0000
0001
0010
0001
,
0010
0001
0000
0001
0000
1000
0001
1000
,
0001
1000
0000
0002
0000
1000
0000
1000
,
0000
1000
0000
1000
0000
1000
1003
0000
,
0010
0100
0000
0001
0000
1000
0010
1000
,
0010
1000
0000
0001
0000
0010
0001
0010
,
0001
0010
0000
0002
0000
0010
0000
0010
,
0000
0010
0000
0010
0000
0010
0013
0000
,
0200
0000
0300
0000
;

//---------------dance-single - Beginner Itsugo15----------------
#NOTES:
     dance-single:
     Beginner Itsugo15:
     Beginner:
     1:
     0.099,0.204,0.041,0.081,0.000:
0000
0000
0000
0000
,
0000
0000
0000
0000
,
0000
0000
0000
0000
,
0000
0000
0000
0000
,
0000
0000
0000
0000
,
0000
0000
0000
0000
,
0000
0000
0000
0000
,
0000
0000
0000
0000
,
1000
0000
0000
0000
,
0000
0000
0000
0000
,
0001
0000
0000
0000
,
0000
0000
0000
0000
,
0010
0000
0000
0000
,
0100
0000
0000
0000
,
1000
0000
0000
0000
,
0001
0000
0000
0000
,
0100
0000
0000
0000
,
0010
0000
0000
0000
,
1000
0000
0000
0000
,
0001
0000
0000
0000
,
0010
0000
0000
0000
,
0100
0000
0000
0000
,
1000
0000
0000
0000
,
1000
0000
0000
0000
,
1000
0000
0000
0000
,
0001
0000
0000
0000
,
0010
0000
0000
0000
,
0100
0000
0000
0000
,
1000
0000
0000
0000
,
0001
0000
0000
0000
,
0100
0000
0000
0000
,
0010
0000
0000
0000
,
1010
0000
0000
0000
,
2000
0000
3000
0000
,
0101
0000
0000
0000
,
0002
0000
0003
0000
,
0010
0000
0000
0000
,
0100
0000
0000
0000
,
1000
0000
0000
0000
,
0100
0000
0000
0000
,
0011
0000
0000
0000
,
0002
0000
0000
0003
,
1100
0000
0000
0000
,
2000
0000
3000
0000
,
0001
0000
0000
0000
,
0100
0000
0000
0000
,
0020
0000
0000
0030
,
0100
0000
0000
0000
,
0001
0000
0000
0000
,
0100
0000
0000
0000
,
0010
0000
0000
0000
,
1000
0000
0000
0000
,
0001
0000
0000
0000
,
0010
0000
0000
0000
,
0100
0000
0000
0000
,
1000
0000
0000
0000
,
2000
0000
0000
0000
,
3001
0000
0000
0000
,
0002
0000
0000
0000
,
0103
0000
0000
0000
,
0010
0000
0000
0000
,
1000
0000
0000
0000
,
0001
0000
0000
0000
,
0010
0000
0000
0000
,
0100
0000
0000
0000
,
2000
0000
0000
0000
,
0000
0000
0000
0000
,
3000
0000
0000
0000
;
