#TITLE:booklet choir;
#SUBTITLE:Sacred Factor;
#ARTIST:EastNewSound;
#TITLETRANSLIT:booklet choir;
#SUBTITLETRANSLIT:Sacred Factor;
#ARTISTTRANSLIT:EastNewSound;
#GENRE:Touhou Mahouyou ~ Magical Dance Phantasm;
#CREDIT:Itsugo15;
#BANNER:boklet choir-bn.png;
#BACKGROUND:boklet choir-bg.png;
#LYRICSPATH:boklet choir.lrc;
#CDTITLE:Itsugo15 SimifileS.png;
#MUSIC:boklet choir.ogg;
#OFFSET:0.985;
#SAMPLESTART:78.427;
#SAMPLELENGTH:12.799;
#SELECTABLE:YES;
#LISTSORT:;
#DISPLAYBPM:150.000;
#BPMS:0.000=75.000,20.000=150.000;
#STOPS:;
#TICKCOUNT:0.000=6;
#BGCHANGES:1.500=boklet choir-bg2.jpg=1.000=1=1=0,
20.000=boklet choir-bg3.jpg=1.000=1=1=0,
116.000=boklet choir-bg4.jpg=1.000=1=1=0,
180.000=boklet choir-bg5.jpg=1.000=1=1=0,
244.000=boklet choir-bg.png=1.000=1=1=0,
276.000=blank.bmp=1.000=1=1=0,
99999=-nosongbg-=1.000=0=0=0 // don't automatically add -songbackground-
;
#KEYSOUNDS:;
#ATTACKS:;

//---------------dance-single - Itsugo----------------
#NOTES:
     dance-single:
     Itsugo:
     Challenge:
     11:
     0.826,0.817,0.800,0.392,0.429: // measure 1
0000
0000
0000
0000
,  // measure 2
0000
0000
0000
0000
,  // measure 3
0000
0000
0000
0000
0000
0000
0000
0000
1001
0000
0000
0001
1000
0100
0010
0002
,  // measure 4
0000
0000
0003
0010
0001
0100
0010
2000
0000
0000
3000
0010
0100
0001
1000
0001
,  // measure 5
0100
0010
0000
0010
1000
0001
0100
0010
0100
0000
0001
0000
1000
0000
0200
0000
0000
0000
0000
0000
0000
0000
0000
0000
0000
0000
0000
0000
0310
0001
1000
0000
,  // measure 6
0001
0000
0000
0101
0000
0000
1100
0000
0000
0110
0000
0000
0010
0000
0001
0000
,  // measure 7
0011
0000
0000
1010
0000
0000
0110
0000
0000
0101
0000
0000
0001
0000
1000
0000
,  // measure 8
1001
0000
0000
1100
0000
0000
1010
0000
0000
0101
0000
0000
0001
0000
0010
0000
,  // measure 9
0011
0000
0000
0101
0000
0000
1010
0000
0000
1100
0000
0000
1000
0000
0001
0000
,  // measure 10
1001
0000
0000
1010
0000
0000
1100
0000
0000
0110
0000
0000
1100
0000
1000
0000
,  // measure 11
1001
0000
0000
0101
0000
0000
0110
0000
0000
1010
0000
0000
0110
0000
0010
0000
,  // measure 12
1010
0000
0000
1001
0000
0000
1100
0000
0000
0110
0000
0000
1100
0000
0100
0000
,  // measure 13
0110
0000
0000
0000
0000
0000
0000
0000
0000
0011
0000
0000
0000
0000
0000
0000
0000
0000
1001
0000
0000
0000
0000
0000
1000
0000
0000
0010
0000
0000
0100
0000
0000
0001
0000
0000
1000
0000
0000
0100
0000
0000
0010
0000
0001
0000
0010
0000
,  // measure 14
0001
1000
0001
0100
0010
1000
0100
0001
,  // measure 15
0100
1000
0010
0100
0001
0100
0010
1000
,  // measure 16
0100
0010
0001
1000
0100
0010
0001
0100
,  // measure 17
0010
1000
0010
0100
0001
0010
0001
0100
0010
1000
0100
1000
0010
0100
0001
0010
,  // measure 18
0001
1000
0010
0100
0001
1000
0100
0001
,  // measure 19
0100
0010
0001
0100
0010
1000
0100
1000
,  // measure 20
0010
0100
0001
0010
0001
0100
0010
1000
,  // measure 21
0100
0000
0000
0000
0000
0000
0010
0000
0000
0000
0000
0000
0001
0000
0000
0000
0000
0000
0100
0000
0000
0000
0000
0000
0001
0000
0000
0000
0000
0000
1000
0000
0000
0000
0000
0000
0010
0000
0000
0100
0000
0000
0001
0000
1000
0000
0001
0000
,  // measure 22
1000
0100
1100
0100
0010
0001
0011
0010
,  // measure 23
0001
0100
0101
0100
0010
1000
1010
1000
,  // measure 24
0001
0010
0011
0001
1000
0010
1010
1000
,  // measure 25
0001
0010
0001
0100
0010
1000
0100
1000
0010
0100
0001
0010
0100
1000
0100
0010
,  // measure 26
0001
1000
1001
0001
1000
0100
1100
1000
,  // measure 27
0010
0001
0011
0001
0010
1000
1010
0010
,  // measure 28
1000
0100
1100
0100
1000
0010
1010
0010
,  // measure 29
0100
0000
0000
0000
0000
0000
0001
0000
0000
0000
0000
0000
0101
0000
0000
0000
0000
0000
0001
0000
0000
0000
0000
0000
0010
0000
0000
0100
0000
0000
1000
0000
0000
0001
0000
0000
1000
0000
0000
0010
0000
0000
0100
0000
0001
0000
0100
0000
,  // measure 30
0002
0200
0303
000M
0010
1000
0001
0022
,  // measure 31
0033
0010
0100
1000
0001
0100
1000
0100
,  // measure 32
0002
0013
0200
1300
0020
0130
2000
3001
,  // measure 33
0010
0100
0001
0020
0030
0100
1000
0M00
,  // measure 34
0020
2000
3030
M000
0001
1000
0100
2200
,  // measure 35
3300
0100
0010
0001
1000
0010
0001
0010
,  // measure 36
2000
3100
0020
0031
0200
0310
0002
1003
,  // measure 37
0100
0000
0010
0000
1000
0000
0001
0010
0100
0000
0000
0110
0000
0000
0010
0100
,  // measure 38
2000
0020
3030
M000
0100
0001
1000
2200
,  // measure 39
3300
0100
0010
0001
1000
0010
0001
0010
,  // measure 40
1000
2000
3100
0200
0310
0020
0031
0002
,  // measure 41
0013
0100
1000
0020
0030
0100
0001
0M00
,  // measure 42
0020
0200
0330
00M0
0100
1000
0001
0022
,  // measure 43
0033
0010
0100
1000
0001
0100
1000
0100
,  // measure 44
0001
0002
0013
0020
1030
2000
3010
0001
,  // measure 45
1000
0000
0010
0000
0100
0000
0001
0000
1000
0000
0100
0000
1000
0000
0001
0100
,  // measure 46
0001
0001
0010
0011
0001
0100
0101
0001
,  // measure 47
0010
0011
0001
0100
0101
0100
0020
1030
,  // measure 48
1010
1000
0100
1100
1000
0010
1010
0010
,  // measure 49
0100
0001
0010
0100
1000
0010
0100
0001
0010
0100
1000
0010
,  // measure 50
0100
0001
0010
0011
0001
0100
0101
0001
,  // measure 51
0010
0011
1000
0010
1010
0010
0200
0301
,  // measure 52
0101
1000
0100
1100
0001
0100
0101
0002
,  // measure 53
0023
0000
0000
0000
0000
0000
0230
0000
0000
0000
0000
0000
2300
0000
0000
0000
0000
0000
3020
0000
0000
0000
0000
0000
0230
0000
0000
0000
0000
0000
0302
0000
0000
0000
0000
0000
0013
0000
0000
0100
0000
0000
1000
0000
0001
0000
1000
0000
,  // measure 54
0001
0100
0010
0110
0100
0001
0101
0001
,  // measure 55
0010
0011
0010
0100
0110
0100
2000
3010
,  // measure 56
1010
1000
0100
1100
0100
0010
0110
0010
,  // measure 57
0001
0010
0100
1000
0010
0100
1000
0001
0010
0100
0001
1000
,  // measure 58
0100
1000
0001
1001
0001
0100
0101
0100
,  // measure 59
0010
0110
0010
1000
1010
1000
0001
0010
,  // measure 60
0011
0010
0100
0110
0100
1000
1100
1000
,  // measure 61
0010
0000
0000
0000
0000
0000
1010
0000
0000
0000
0000
0000
0010
0000
0000
0000
0000
0000
0100
0000
0000
0000
0000
0000
0001
0000
0000
0010
0000
0000
0100
0000
0000
1000
0000
0000
0010
0000
0000
0100
0000
0000
0001
0000
0100
0000
0001
0000
,  // measure 62
M100
0000
1000
110M
0000
0001
M011
0000
,  // measure 63
1000
101M
0000
0001
M101
0000
0001
1000
,  // measure 64
110M
0000
0001
M011
0000
1000
101M
0000
,  // measure 65
0010
0000
0100
M000
0001
0000
0010
0000
0100
0000
0001
0000
M100
0000
0010
0000
0001
0000
1M00
0000
0010
000M
0100
0000
,  // measure 66
M001
0000
100M
1010
0000
0001
10M1
0000
,  // measure 67
0010
0M11
0000
0010
M110
0000
0100
1000
,  // measure 68
MM11
0000
1000
110M
0000
0001
1M01
0000
,  // measure 69
0100
0000
0000
0000
0000
0000
M101
0000
0000
0000
0000
0000
0000
0000
0000
0000
0000
0000
0001
0000
0000
0000
0000
0000
0100
0000
0000
0010
0000
0000
1000
0000
0000
0001
0000
0000
0010
0000
0000
0100
0000
0000
1000
0000
0001
0000
1000
0000
,  // measure 70
0002
0000
0000
0000
,  // measure 71
0003
0000
0000
0000
;

//---------------dance-single - Itsugo----------------
#NOTES:
     dance-single:
     Itsugo:
     Beginner:
     1:
     0.044,0.058,0.033,0.000,0.000:
0000
0000
0000
0000
,
0000
0000
0000
0000
,
0000
0000
0000
0000
,
0000
0000
0000
0000
,
0000
0000
0000
0000
,
0010
0000
0000
0000
,
0000
0000
0000
0000
,
0100
0000
0000
0000
,
0000
0000
0000
0000
,
0001
0000
0000
0000
,
0000
0000
0000
0000
,
1000
0000
0000
0000
,
0000
0000
0000
0000
,
0100
0000
0000
0000
,
0000
0000
0000
0000
,
1000
0000
0000
0000
,
0000
0000
0000
0000
,
0001
0000
0000
0000
,
0000
0000
0000
0000
,
0100
0000
0000
0000
,
0000
0000
0000
0000
,
0010
0000
0000
0000
,
0000
0000
0000
0000
,
1000
0000
0000
0000
,
0000
0000
0000
0000
,
0001
0000
0000
0000
,
0000
0000
0000
0000
,
0010
0000
0000
0000
,
0000
0000
0000
0000
,
0011
0000
0000
0000
,
0000
0000
0000
0000
,
0001
0000
0000
0000
,
0000
0000
0000
0000
,
1000
0000
0000
0000
,
0000
0000
0000
0000
,
0010
0000
0000
0000
,
0000
0000
0000
0000
,
1010
0000
0000
0000
,
0000
0000
0000
0000
,
1000
0000
0000
0000
,
0000
0000
0000
0000
,
0010
0000
0000
0000
,
0000
0000
0000
0000
,
0100
0000
0000
0000
,
0000
0000
0000
0000
,
0110
0000
0000
0000
,
0000
0000
0000
0000
,
0100
0000
0000
0000
,
0000
0000
0000
0000
,
0001
0000
0000
0000
,
0000
0000
0000
0000
,
0010
0000
0000
0000
,
0000
0000
0000
0000
,
0100
0000
0000
0000
,
0000
0000
0000
0000
,
1000
0000
0000
0000
,
0000
0000
0000
0000
,
0010
0000
0000
0000
,
0000
0000
0000
0000
,
0100
0000
0000
0000
,
0000
0000
0000
0000
,
0110
0000
0000
0000
,
0000
0000
0000
0000
,
0001
0000
0000
0000
,
0000
0000
0000
0000
,
1000
0000
0000
0000
,
0000
0000
0000
0000
,
0100
0000
0000
0000
,
0000
0000
0000
0000
,
0010
0000
0000
0000
;

//---------------dance-single - Itsugo----------------
#NOTES:
     dance-single:
     Itsugo:
     Easy:
     2:
     0.169,0.230,0.100,0.000,0.000:
0000
0000
0000
0000
,
0000
0000
0000
0000
,
0000
0000
0000
0000
,
0000
0000
0000
0000
,
0000
0000
0000
0000
,
0001
0000
0000
0000
,
0010
0000
0000
0000
,
0100
0000
0000
0000
,
1000
0000
0000
0000
,
0010
0000
0000
0000
,
0100
0000
0000
0000
,
0001
0000
0000
0000
,
1000
0000
0000
0000
,
1001
0000
0001
0000
,
1000
0000
1000
0000
,
0100
0000
0100
0000
,
0001
0000
0001
0000
,
0100
0000
0100
0000
,
0010
0000
0010
0000
,
0001
0000
0001
0000
,
1000
0000
1000
0000
,
1001
0000
0100
0000
,
0001
0000
0010
0000
,
0100
0000
1000
0000
,
0001
0000
0010
0000
,
0100
0000
1000
0000
,
0010
0000
0100
0000
,
0001
0000
0010
0000
,
0001
0000
0100
0000
,
1001
0000
0100
0000
,
0010
0000
0100
0000
,
1000
1000
0001
0001
,
0100
0000
0010
0000
,
1100
0000
0010
0000
,
0100
0000
0001
0000
,
1000
1000
0010
0010
,
0100
0000
0001
0000
,
1001
0000
0100
0000
,
0010
0000
1000
0000
,
0001
0001
0100
0100
,
0010
0000
0100
0000
,
0011
0000
0100
0000
,
0010
0000
1000
0000
,
0100
0100
0001
0001
,
1000
0100
0010
0001
,
0101
0000
0001
0000
,
1000
0000
1000
0000
,
0100
0000
0100
0000
,
0010
0000
0010
0000
,
1100
0000
0001
0000
,
0001
0000
1000
0000
,
0010
0000
0010
0000
,
0100
0000
0100
0000
,
1010
0000
1000
0000
,
0001
0000
0001
0000
,
0100
0000
0010
0000
,
0100
0000
0100
0000
,
0011
0000
0001
0000
,
1000
0000
1000
0000
,
0010
0000
0100
0000
,
0001
0000
1000
0000
,
0110
0000
0100
0000
,
0001
0000
0001
0000
,
1000
0000
1000
0000
,
0000
0000
0001
0000
,
0100
0000
0010
0000
,
1000
0000
0100
0000
,
0010
0000
0001
0000
,
1000
0000
0010
0000
,
0110
0000
0000
0000
;

//---------------dance-single - Itsugo----------------
#NOTES:
     dance-single:
     Itsugo:
     Medium:
     5:
     0.355,0.379,0.283,0.133,0.000:
0000
0000
0000
0000
,
0000
0000
0000
0000
,
0000
0000
0000
0000
,
0000
0000
0000
0000
,
0000
0000
0000
0000
,
1000
1000
0010
0010
,
0100
0100
0001
0001
,
0010
1000
0010
0001
,
0100
1000
0100
0001
,
0101
0001
0001
1000
,
1000
0100
0100
0001
,
0001
0100
0010
0001
,
0100
1000
0100
0010
,
0110
0010
1010
1000
,
0001
0010
1000
0010
,
0002
1000
1000
1000
,
2003
0001
0001
3001
,
1001
0001
0101
0100
,
0010
1000
0001
0010
,
0011
0001
1001
1000
,
0010
0100
0001
1000
,
1001
0001
0011
0010
,
0100
1000
0010
0100
,
0002
0100
0100
0100
,
2003
0010
0010
3010
,
1010
1000
1001
0001
,
0010
0100
0010
0001
,
0011
0001
1001
1000
,
0010
0100
0001
1000
,
1001
0000
0000
0000
0001
0000
0010
0100
,
0000
1000
0010
0100
,
0001
0001
0100
0100
,
0010
1000
0001
0010
,
0011
0000
0000
0000
0001
0000
1000
0010
,
0000
0100
0001
1000
,
0100
0100
0010
0010
,
0001
1000
1001
0110
,
1001
0000
0000
0000
1000
0000
0100
0010
,
0000
0001
0100
0010
,
1000
1000
0010
0010
,
0100
0001
1000
0100
,
1100
0000
0000
0000
1000
0000
0001
0100
,
0000
0010
1000
0001
,
0010
0010
0100
0100
,
1000
1000
0001
0001
,
1001
1000
0010
1010
,
0010
0100
0001
1000
,
1001
0001
0010
0011
,
0001
1001
1000
1010
,
0110
0100
0002
1000
,
1003
0001
0020
0100
,
0130
0010
0001
1000
,
0020
0100
0001
0100
,
1030
0001
0100
0101
,
0100
0010
1000
0001
,
1001
1000
0100
1100
,
1000
1001
0001
0101
,
0110
0010
2000
0001
,
3001
1000
0200
0010
,
0310
0100
1000
0001
,
0200
0010
1000
0010
,
0302
0000
0000
1000
0000
0000
1000
0000
,
0000
1003
0000
0000
0001
0000
1000
0001
,
2000
0000
0000
0001
0000
0000
0001
0000
,
0000
3001
0000
0000
0010
0000
0001
0010
,
0200
0000
0000
0010
0000
0000
0010
0000
,
0000
0310
0000
0000
0100
0000
0010
0100
,
0020
0000
0000
0100
0000
0000
0100
0000
,
0000
0130
0000
0000
1000
0000
1100
0000
,
2002
0000
0000
0000
,
3003
0000
0000
0000
;

//---------------dance-single - Itsugo----------------
#NOTES:
     dance-single:
     Itsugo:
     Hard:
     8:
     0.515,0.496,0.167,0.250,0.075:
0000
0000
0000
0000
,
0000
0000
0000
0000
,
0000
0000
0000
0000
,
0000
0000
0000
0000
,
0000
0000
0000
0000
,
1000
0000
0000
0010
0000
0000
0100
0000
0000
0001
0000
0000
1000
0000
1000
0000
,
0100
0000
0000
0010
0000
0000
0001
0000
0000
1000
0000
0000
0010
0000
0001
0000
,
0010
0000
0000
1000
0000
0000
0100
0000
0000
0001
0000
0000
0100
0000
0010
0000
,
0001
0000
0000
0100
0000
0000
0010
0000
0000
1000
0000
0000
0010
0000
0100
0000
,
0001
0000
0000
0100
0000
0000
0010
0000
0000
1000
0000
0000
0001
0000
0001
0000
,
0010
0000
0000
0100
0000
0000
1000
0000
0000
0001
0000
0000
0100
0000
1000
0000
,
0100
0000
0000
0001
0000
0000
0010
0000
0000
1000
0000
0000
0010
0000
0100
0000
,
1000
0000
0000
0010
0000
0000
0100
0000
0000
0001
0000
0000
0200
0000
0000
0000
,
0310
1000
0001
1000
0010
1000
0001
1000
,
0010
0001
0010
0100
0001
1000
0100
0001
,
0200
1000
0001
1000
,
0310
0001
0010
0100
1000
0100
0010
0001
,
0010
0001
1000
0001
0100
0001
1000
0001
,
0100
1000
0100
0010
1000
0001
0010
1000
,
0020
0000
0031
0000
0200
0000
1300
0100
,
0010
1000
0010
0100
0001
0100
0001
1000
,
1001
0000
1100
0000
0001
0100
0101
0000
,
0010
0000
1001
0000
1000
0100
0010
0001
,
0020
0001
1000
0001
,
0130
1000
0100
0010
1000
0001
0100
0010
,
0001
0000
1010
0000
0001
0010
0110
0000
,
0010
0000
1100
0000
0001
1000
0100
0001
,
0200
0000
1300
0000
0020
0000
0031
0010
,
0100
0001
0100
0010
1000
0010
1000
0001
,
1001
0010
0000
0000
0001
0100
1000
1100
,
0000
1000
0100
0000
0010
0000
1000
0001
,
0020
2030
3200
0302
,
1003
0100
0010
0001
0000
0010
0100
1000
,
1100
0001
0000
0000
0001
1000
0010
0002
,
0000
0013
0100
0000
0001
1000
0100
0001
,
0200
2300
3020
0032
,
0013
0000
1000
0000
0001
0000
0010
0000
0100
0000
0000
0100
0000
0000
0010
0100
,
0010
0100
0000
0000
1000
0010
0001
0011
,
0000
0001
0010
0000
0100
0000
0001
1000
,
0200
0302
0023
2030
,
3001
0010
0100
1000
0000
0100
0010
0001
,
0011
1000
0000
0000
1000
0001
0100
2000
,
0000
3100
0010
1000
0001
0010
1000
0010
,
0002
0203
2300
3020
,
0032
2003
3020
0130
,
0110
0000
0010
1000
0000
0100
0010
0000
,
0001
0010
0000
0100
1000
0000
0001
0100
,
0110
0000
1000
0001
0000
0010
0100
1000
,
0010
0100
0001
0010
0100
1000
0010
0100
,
0001
0000
0100
0010
0000
1000
0100
0000
,
0010
0001
0000
0100
0010
0000
1000
0001
,
1001
0000
1000
0100
0000
0010
0001
0000
,
0010
0100
1000
0001
0010
0100
1000
0001
,
1001
0000
0010
0001
0000
0010
0100
0000
,
1000
0100
0000
0010
0001
0000
1000
0010
,
0110
0000
0001
1000
0000
0100
0010
0001
,
0100
0010
1000
0100
0010
0001
0100
0010
,
1000
0000
0010
0100
0000
0001
0010
0000
,
0100
1000
0000
0010
0100
0000
0001
1000
,
1001
0000
0001
0010
0000
0100
1000
0000
,
0100
0010
0001
1000
0100
0010
0001
1000
,
1001
0000
0001
0001
0000
0100
0100
0000
,
1000
1000
0000
0100
0100
0000
0001
1000
,
0010
0000
0001
0001
0000
0010
0010
0000
,
1000
1000
0000
0001
0001
0000
0010
1000
,
0010
0000
0001
0001
0000
1000
1000
0000
,
0100
0100
0000
0001
0001
0000
0100
1000
,
0001
0000
0010
0010
0000
1000
1000
0000
,
0010
0010
0000
0001
0001
0000
1000
0010
,
0202
0000
0000
0000
,
0303
0000
0000
0000
;
