#TITLE:Zero;
#SUBTITLE:World Destruction Opening;
#ARTIST:AAA;
#TITLETRANSLIT:Zero;
#SUBTITLETRANSLIT:World Destruction Opening;
#ARTISTTRANSLIT:AAA;
#GENRE:Itsugo15 SimifileS 1-30 DDR Version;
#CREDIT:Itsugo15;
#MENUCOLOR:;
#BANNER:Zero-bn.jpg;
#BACKGROUND:Zero-bg1.jpg;
#LYRICSPATH:Zero.lrc;
#CDTITLE:Itsugo15 SimifileS.png;
#MUSIC:Zero.mp3;
#OFFSET:1.425;
#SAMPLESTART:48.558;
#SAMPLELENGTH:30.000;
#SELECTABLE:YES;
#LISTSORT:;
#BPMS:0.000=127.100;
#STOPS:;
#TICKCOUNT:0.000=8;
#BGCHANGES:10.000=Zero-VD1.avi=1.000=1=1=0,
188.000=Zero-bg2.jpg=1.000=1=1=0,
206.000=Zero-VD2.avi=1.000=1=1=0,
219.000=Zero-bg3.jpg=1.000=1=1=0,
99999=-nosongbg-=1.000=0=0=0 // don't automatically add -songbackground-
;
#KEYSOUNDS:;
#ATTACKS:;

//---------------dance-single - Beginner Itsugo15----------------
#NOTES:
     dance-single:
     Beginner Itsugo15:
     Beginner:
     2:
     0.116,0.157,0.105,0.076,0.000:
0000
0000
0000
0000
,
0000
0000
0000
0000
,
0000
0000
0000
0000
,
0001
0000
0000
0000
,
1000
0000
0000
0000
,
0100
0000
0000
0000
,
0010
0000
0001
0000
,
2000
0000
0000
0000
,
0001
0000
0000
0000
,
0001
0000
0000
0000
,
0000
0000
0002
0000
,
3003
1000
0000
0000
,
0000
0010
0000
0000
,
0000
0100
0000
0000
,
0000
0001
0000
0000
,
0000
1000
0000
0000
,
0000
0100
0000
0000
,
0000
0010
0000
0000
,
0000
0001
0000
1000
,
0001
0100
0000
0000
,
0000
0010
0000
0000
,
0000
1000
0000
0000
,
0000
0010
0000
0000
,
0000
0100
0000
0000
,
0000
0001
0000
1000
,
0000
0001
0000
0000
,
0000
0010
0000
0100
,
1100
0000
0000
0020
,
0000
0000
0000
0030
,
1010
0000
0000
0100
,
0001
0000
0000
0000
,
0011
0000
0000
0200
,
0000
0000
0000
0300
,
1100
0000
0000
1000
,
0001
0000
1001
0000
,
0110
0000
0000
0002
,
0000
0000
0000
0003
,
1001
0000
0000
0001
,
0100
0000
0000
0000
,
0101
0000
0000
2000
,
0000
0000
0000
3000
,
1010
0000
0000
0000
,
0100
0001
0000
0001
,
1001
0000
0000
0000
0000
0000
0000
2000
,
0000
0000
0000
0000
,
3002
0000
0000
0003
,
0000
0000
0000
0000
,
1001
0000
0000
0000
,
0001
0000
0000
0000
,
0100
0000
0000
0000
,
0001
0000
0000
0000
,
1000
0000
0100
0000
,
0010
0000
0001
0000
,
0001
0000
0001
0000
,
0001
0000
0001
0000
,
000M
0000
0000
0000
;

//---------------dance-single - Heavy Itsugo15----------------
#NOTES:
     dance-single:
     Heavy Itsugo15:
     Hard:
     9:
     0.484,0.497,0.209,0.209,0.186:
0000
0000
0000
0000
,
0000
0000
0000
0000
,
0000
0000
0000
0000
,
0001
0100
0001
0000
0010
0000
0100
0000
,
1000
0100
1000
0000
0001
0000
1000
0000
,
0010
1000
0010
0000
0100
0000
0001
0000
,
1000
0001
1000
0000
0001
1000
0001
0000
,
1001
0000
0000
1000
0001
0000
1000
0000
0000
1000
0010
0000
,
1000
0000
0000
0010
0100
0000
0010
0000
0000
0100
0001
0000
,
0010
0000
0000
0010
0100
0000
1000
0000
0000
1000
0001
0000
,
0100
0000
0000
0000
0000
0000
0000
0000
0000
0000
0000
0000
0100
0000
0000
0000
0010
0000
0000
0000
0000
0000
0000
0000
1000
0000
0000
0010
0000
0000
1000
0000
0000
0010
0000
0000
1000
0000
0000
0010
0000
0000
1000
0000
0000
0010
0000
0000
,
1000
0000
0000
0001
0000
0000
0010
0000
0000
0010
0000
0000
0100
0000
0000
0000
0010
0000
0000
0000
0000
0001
0000
0000
,
1000
0000
0001
1000
0000
1000
0001
0000
0010
0000
0100
0000
1000
0000
0100
0000
,
0010
0001
1000
0010
0100
0001
0100
0020
,
0000
1030
0001
1001
,
0101
0000
0000
0100
0000
0000
0100
0000
0000
0100
0000
0000
0010
0000
0000
0000
1000
0000
0000
0000
0000
0001
0000
0000
,
0010
0000
0100
1000
0000
0100
0010
0000
0001
0000
1000
0000
0100
0000
0010
0000
,
0001
0000
0000
1000
0000
0000
0020
0000
0000
0000
0000
0000
0100
0000
0000
0000
,
0130
0000
0001
0000
1000
0100
0010
0001
,
0011
0000
0000
0001
0000
0000
1000
0000
0000
0010
0000
0000
0100
0000
0000
0000
0010
0000
0000
0000
0000
1000
0000
0000
,
0100
0000
1000
0010
0000
0100
0001
0000
0100
0000
1000
0000
0100
0000
0001
0000
,
0010
0100
0010
0001
1000
0002
0000
2003
,
0001
3000
0001
0000
0001
0000
1001
0000
,
1000
0000
0000
1000
0000
0000
1000
0000
0000
0010
0000
0000
0100
0000
0000
0000
0001
0000
0000
0000
0000
0100
0000
0000
,
0010
0000
0000
0000
0000
0000
1000
0000
0000
0001
0000
0000
0000
0000
0000
0001
0000
0000
1000
0000
0000
0000
0000
0000
0010
0000
0000
0100
0000
0000
0000
0000
0000
0100
0000
0000
0010
0000
0000
0000
0000
0000
0000
0000
1000
0000
0000
0000
,
0000
0000
0000
0000
0001
0000
0000
0000
0000
0000
0000
0000
0000
0000
0000
0020
0000
0000
0000
0000
0000
0000
0000
0000
0000
0000
0000
0000
0000
0000
0030
0000
0000
0000
0000
0000
0000
0000
0000
0000
0001
0000
0000
0000
0000
0000
0000
0000
,
0000
1000
0000
0000
0100
0000
0000
0000
1000
0000
0010
0000
0100
0000
0001
0000
,
0101
0001
0100
0010
0110
1000
2002
0000
,
0000
0000
0010
3013
,
0001
0000
1000
0000
0010
0000
1000
0000
0001
0000
0010
0000
0100
0000
1000
0200
,
0000
0000
1000
0000
1300
0000
1000
0100
,
0110
0010
0001
0011
0001
0100
0010
2020
,
0000
0001
0001
3130
,
0010
1000
0001
0010
0100
0010
0001
2000
,
0000
0000
3002
0000
0000
0000
0003
0000
0100
0001
0100
0000
0010
1000
0010
0000
,
0100
0110
0010
2000
3000
0001
0020
0100
,
0000
0100
0100
0130
,
0001
0000
1000
0000
0010
0000
1000
0000
0010
0000
0100
0000
0001
0000
0100
0020
,
0000
0100
0100
1030
,
1000
1010
0010
0100
0100
0101
0001
0022
,
0000
1000
1000
0133
,
0010
0001
1000
0010
0100
0010
1000
0002
,
0000
2003
0000
3000
0001
0010
0100
1000
,
2000
0000
0000
0000
0000
0000
0001
0002
,
0000
0000
0000
0000
0000
0000
0100
0200
,
0000
0000
0000
3303
,
0100
1001
1001
0110
,
0010
1000
0100
0000
0100
1000
0010
0000
,
0100
0001
0010
0000
0010
0001
0100
0000
,
0001
0100
1000
0000
1000
0100
0001
0000
,
0010
0100
1000
0000
1000
0100
0010
0000
,
0010
0010
0010
0001
1000
1000
1000
0010
,
0100
0100
0100
0001
1000
0001
0001
0001
,
1001
0000
0000
1000
0100
0000
1100
0000
0000
0100
0010
0000
,
0110
0000
0000
0010
0001
0000
0011
0000
0000
0001
1000
0000
,
1MMM
0000
0000
0000
;

//---------------dance-single - Light Itsugo15----------------
#NOTES:
     dance-single:
     Light Itsugo15:
     Easy:
     4:
     0.199,0.262,0.086,0.114,0.000:
0000
0000
0000
0000
,
1000
0000
0001
0000
,
1000
0000
0001
0000
,
1000
0000
0010
0000
,
0100
0000
0001
0000
,
0010
0000
0100
0000
,
0010
0000
0001
0000
,
1000
0000
1000
0000
,
1000
0000
0001
0000
,
1000
0000
1000
0000
,
1000
0000
0200
0000
,
1300
0000
0001
0000
,
0100
0000
0010
0000
,
0100
0000
0001
0000
,
2000
0000
3000
0001
,
1000
0000
0010
0000
,
0100
0000
0010
0000
,
1000
0000
0002
0000
,
0000
0003
1000
0001
,
0010
0000
0100
0000
,
1000
0000
0001
0000
,
0100
0000
0010
0000
,
2000
0000
3000
0001
,
1001
1000
0000
1000
,
1001
0001
0000
0010
,
0110
0100
0000
0100
,
0110
0010
0000
0001
,
1000
0001
1000
0002
,
0000
1000
1000
0013
,
0100
0000
1000
0000
,
0001
0000
0001
1000
,
0010
0100
0010
0200
,
0000
0000
0001
0001
,
0310
1000
0000
0001
,
0000
0010
0000
0100
,
1100
1000
1001
0002
,
0000
0000
0100
0100
,
1003
0010
0000
1000
,
0000
0001
0000
0010
,
0011
0001
1001
2000
,
0000
0000
0001
0001
,
3010
0100
0000
0010
,
1000
0001
0000
0001
,
2002
0000
3003
0001
,
2000
0000
3000
1000
,
0002
0000
0000
0003
,
1000
0000
0010
0000
,
0100
0000
0010
0000
,
1000
0000
0001
0000
,
0010
0000
0100
0000
,
0010
0000
0001
0000
,
1000
0000
0001
0000
,
1000
0000
0010
0000
,
0100
0000
0010
0000
,
0010
0000
0010
0000
,
00M0
0000
0000
0000
;

//---------------dance-single - Medium Itsugo15----------------
#NOTES:
     dance-single:
     Medium Itsugo15:
     Medium:
     7:
     0.375,0.366,0.162,0.238,0.000:
0000
0000
0000
0000
,
2000
3010
0020
0130
,
0200
0301
0002
1003
,
1001
0000
0001
1000
0001
0000
0010
0000
,
0011
0000
0001
0010
0001
0000
1000
0000
,
1010
0000
1000
0010
1000
0000
0010
0000
,
0110
0000
0010
0100
0010
0000
0010
0100
,
0010
1000
0010
1000
,
0010
1000
0001
1000
,
0100
1000
0100
1000
,
0100
1000
0002
0000
,
1003
0000
1010
0000
0010
0100
0001
0000
,
0001
0000
0101
0000
0100
0010
1000
0000
,
1000
0001
0001
1000
,
0002
0010
0000
1003
,
1000
0000
1100
0000
0100
0010
0001
0000
,
0001
0000
0011
0000
0010
0100
1000
0000
,
1000
0001
0002
1000
,
0000
0010
0000
1003
,
1001
0000
1000
0000
1000
0100
0001
0000
,
0001
0000
0001
0000
0001
0100
1000
0000
,
1000
0010
0100
0001
,
0200
0001
0000
0010
,
0310
1000
1000
1001
,
0001
0010
1000
0000
1000
0010
0001
0000
,
0001
0001
0002
0003
,
1000
0000
1000
0000
2000
3000
0002
0003
,
1001
1000
0001
1000
0000
0010
0200
0000
,
0001
0010
1000
0010
,
0301
0000
0001
0100
0010
0000
1000
0010
,
0100
0001
0100
0010
,
0110
0100
0010
0100
0000
0001
2000
0000
,
0100
0001
0010
0001
,
3100
0000
0100
0010
0001
0000
0010
0100
,
1000
0001
1000
0010
,
1010
1000
0010
0100
0000
0100
0020
0000
,
1000
0100
0001
0100
,
1030
0000
1000
0010
0100
0000
0001
1000
,
0100
0010
0001
1000
,
1100
0100
1000
0001
0000
0001
2000
0000
,
0010
0001
0100
0001
,
3010
0000
0010
1000
0001
0000
0001
1000
,
0200
2300
3200
0320
,
0200
0000
0000
0000
0000
0030
0010
0020
,
0000
0000
0000
0000
0000
0300
0100
0200
,
0000
0000
0000
0330
,
0010
0001
1000
0100
,
1100
0100
0100
1000
,
0001
0001
0001
1000
,
0010
0010
0010
0100
,
0001
0001
0001
1000
,
1001
0000
0001
0010
0001
0000
0001
0000
,
1000
0000
1000
0100
1000
0000
0100
0000
,
0110
0010
0020
0031
,
0002
1003
2000
3100
,
0M00
0000
0000
0000
;

//---------------dance-single - Challenge Itsugo15----------------
#NOTES:
     dance-single:
     Challenge Itsugo15:
     Challenge:
     10:
     0.630,0.604,0.409,0.305,0.395:
0000
0000
0000
0000
,
2000
0000
0000
3000
0000
0000
0010
0000
0100
0000
0000
0000
0002
0000
0000
0003
0000
0000
0100
0000
0010
0000
0000
0000
,
2000
0000
0000
3000
0000
0000
0100
0000
0010
0000
0000
0000
0002
0000
0000
0003
0000
0000
0010
0000
0100
0000
0000
0000
,
1100
0000
0100
0000
0010
0001
0000
0000
1000
0000
0000
0000
0010
0000
0000
0000
,
0101
0000
0100
0000
0010
1000
0000
0000
0001
0000
0000
0000
0010
0000
0000
0000
,
1100
0000
1000
0000
0100
0010
0000
0000
0011
0000
0000
0000
0001
0100
0000
0000
,
0101
0000
0100
0000
0010
1000
0000
0000
1010
0000
0010
0000
1000
0001
0000
0000
,
4004
0000
0043
0000
,
3400
0000
0034
0000
,
4300
0000
0403
0000
,
3040
0000
0000
0000
0000
0000
0000
0000
0331
0010
0001
0010
0001
0010
0001
0010
,
0001
0000
1000
0000
0010
0000
0100
0000
0101
0000
0000
1100
0000
0000
1000
0000
,
0010
0000
0100
0001
0000
1000
0100
0000
0010
0000
0001
0010
0001
0000
0100
0000
,
1000
0100
0001
0010
0100
1000
0100
0010
,
0002
0000
1000
0000
0103
0001
0101
0000
,
1001
0000
0001
0000
0100
0000
0010
0000
1010
0000
0000
0011
0000
0000
0001
0000
,
0100
0000
0010
1000
0000
0001
0010
0000
0100
0000
1000
0100
1000
0000
0010
0000
,
0200
0000
0000
0001
0000
0000
0301
0000
0001
0100
0000
0010
1000
0000
0100
0010
,
0000
0010
0001
0000
0001
1000
0000
1000
0010
0000
0100
0000
0001
0100
0001
0100
,
0001
0000
1000
0000
0010
0000
0100
0000
0101
0000
0000
1100
0000
0000
1000
0000
,
0010
0000
0100
0001
0000
1000
0100
0000
0010
0000
0001
0010
0001
0000
0100
0000
,
0010
1000
0010
0100
0001
0010
0100
1000
,
0200
0000
0010
0000
1300
0001
1001
0000
,
0110
0000
0100
0000
0001
0000
1000
0000
0100
0000
0000
1100
0000
0000
0011
0000
,
1001
0000
1000
0010
0000
1000
0100
0000
1000
0001
0000
0001
0010
0000
0001
0200
,
0000
0000
0010
0000
0000
0000
0020
0000
0000
0000
0000
0000
0000
0000
0000
0000
0000
0000
0300
0000
0000
0100
0000
0000
,
0000
1000
0000
0000
0200
0000
0000
0000
0330
0000
0101
0000
1001
0000
1100
0000
,
0110
0000
0010
0100
0010
0000
0100
1000
0100
0000
0010
0001
0010
0000
0012
0000
,
0000
0000
0010
0000
0010
0000
0000
0000
1003
0000
0000
0010
0100
0000
0010
0000
,
1010
0000
1000
0010
1000
0000
0001
0000
0010
0000
0100
0000
0010
0000
0001
2000
,
0000
0010
3010
0000
1010
1000
1001
0001
,
0011
0000
0010
0001
0010
0000
0100
0010
0100
0000
1000
0100
1000
0000
1200
0000
,
0000
0000
1000
0000
1000
0000
0000
0000
0310
0000
0000
0100
0010
0000
0001
0000
,
0010
0000
0010
0000
0100
0000
0100
0000
1000
0000
1000
0000
0001
0000
1000
0010
,
0000
0100
0001
0000
1000
0000
0001
1000
0001
0000
1000
0001
1000
0000
0001
1000
,
0001
0000
0010
0100
0010
0000
1000
0001
1000
0000
0010
0100
0010
0000
2010
0000
,
0000
0000
0001
0000
0001
0000
0000
0000
3010
0000
0000
0100
0001
0000
1000
0000
,
1001
0000
1000
0000
0100
0000
0010
0000
0100
0000
1000
0000
0010
0000
0100
0001
,
0000
1000
0100
0000
0010
0001
0000
1000
0010
0000
0100
0000
0001
0100
0001
0100
,
0001
0000
0100
0001
0100
0000
0010
0100
0010
0000
1000
0010
1000
0000
2000
0000
,
0000
0000
0001
0000
0001
0000
0000
0000
3100
0000
0000
0010
0001
0000
1000
0000
,
0010
0000
0100
0000
0010
0000
1000
0000
0001
0000
0010
0000
0100
0000
0010
0001
,
0000
2000
0000
0000
3010
0100
0001
1000
,
2000
0000
0000
0000
0000
0000
0001
0002
,
0000
0000
0000
0000
0000
0000
0010
0040
,
0000
0000
3033
1001
,
0001
1000
1010
1000
0001
0010
0011
0001
,
1001
0000
1000
0010
0100
0000
0001
0000
1000
0000
0100
0000
0010
0000
0001
0000
,
0011
0000
0001
0000
0101
0000
0000
0000
1100
0000
0100
0010
0001
0000
1000
0000
,
1001
0000
0000
0000
0110
0000
0000
1000
0010
0000
0100
0000
0001
0000
1000
0000
,
0000
0000
0010
0000
1010
0000
0000
0000
0101
0000
0000
0001
0010
0000
0100
0000
,
1000
1000
1000
0100
0010
0010
0010
0100
,
1000
1000
1000
1000
0010
0100
0100
0100
,
0020
0000
0000
0030
0000
0000
1000
0000
0001
0000
0000
0000
0020
0000
0000
0030
0000
0000
0001
0000
1000
0000
0000
0000
,
0200
0000
0000
0300
0000
0000
0010
0000
0001
0000
0000
0000
2000
0000
0000
3000
0000
0000
0010
0000
0100
0000
0000
0000
,
M002
0M00
00M3
000M
0000
0000
0000
0000
0000
0000
0000
0000
0000
0000
0000
0000
;
