#TITLE:君の声と、;
#SUBTITLE:And, I wake up under the cherry blossoms tonight;
#ARTIST:回路-kairo-;
#TITLETRANSLIT:With your voice,;
#SUBTITLETRANSLIT:And, I wake up under the cherry blossoms tonight;
#ARTISTTRANSLIT:回路-kairo-;
#GENRE:Touhou;
#CREDIT:Itsugo15;
#BANNER:Your Voice-bn.png;
#BACKGROUND:Your Voice-bg.jpg;
#LYRICSPATH:Your Voice.lrc;
#CDTITLE:Itsugo15 SimifileS.png;
#MUSIC:Your Voice.ogg;
#OFFSET:1.163;
#SAMPLESTART:64.048;
#SAMPLELENGTH:30.000;
#SELECTABLE:YES;
#LISTSORT:;
#BPMS:0.000=92.000,116.750=184.000,123.250=92.000,124.000=184.000,130.500=92.000,131.250=184.000,137.750=92.000,138.500=184.000,145.000=92.000,145.750=184.000,152.250=92.000,153.000=184.000,159.500=92.000,160.250=184.000,166.750=92.000,167.500=184.000,174.000=92.000,204.000=368.000,208.000=92.000,209.000=184.000,265.000=92.000,273.000=46.000,276.625=184.000;
#STOPS:;
#TICKCOUNT:0.000=6;
#BGCHANGES:3.875=Your Voice.avi=1.000=1=1=0,
272.000=Your Voice-bg.jpg=1.000=1=1=0,
99999=-nosongbg-=1.000=0=0=0 // don't automatically add -songbackground-
;
#KEYSOUNDS:;
#ATTACKS:;

//---------------dance-single - Challenge Itsugo15----------------
#NOTES:
     dance-single:
     Challenge Itsugo15:
     Challenge:
     12:
     0.825,0.917,0.503,0.408,0.908: // measure 1
0000
0000
0000
0000
,  // measure 2
0000
0000
0000
0000
,  // measure 3
0000
0000
0000
0000
,  // measure 4
1001
0001
1000
0010
1010
0000
0010
0100
0001
0000
1000
0000
1001
0000
0001
0000
,  // measure 5
0010
0000
0100
0000
1000
0000
0001
0000
1001
0000
0000
0000
0110
0000
0000
0000
0010
1000
0001
0010
0100
1000
0010
0100
0001
0000
0000
0000
0010
0000
0000
0000
,  // measure 6
0100
1000
1100
0000
1010
0000
0010
0100
0110
0000
0101
0000
0001
1000
1100
0000
,  // measure 7
0100
0010
0110
0000
0011
0000
0001
0100
0101
0000
1010
0000
1000
0001
0011
0000
,  // measure 8
1001
0000
0000
0000
0001
0000
0100
0001
0100
0000
0000
0000
0010
0000
0000
0000
1000
0000
0100
0000
0010
0000
0000
0000
0110
0000
0000
0000
0011
0000
0000
0000
,  // measure 9
1001
0000
0000
0000
1000
0000
0100
1000
0100
0000
0000
0000
0010
0000
0000
0000
0001
0000
0100
0000
0010
0000
0000
0000
1000
0000
0100
0000
0010
0000
0100
0000
,  // measure 10
1000
0001
2002
3000
0200
0303
0100
0010
0220
0300
2000
3030
1000
0001
2002
3003
,  // measure 11
0001
1000
2002
0003
0200
3300
0100
0010
0220
0300
0002
0033
0001
1000
2002
3003
,  // measure 12
1001
0000
0000
0000
0001
0000
0010
0100
1000
0000
0000
0000
0001
0000
0000
0000
0100
0000
0010
0000
1000
0000
0000
0000
0100
0000
0000
0000
1100
0000
0000
0000
,  // measure 13
0110
0000
0000
0000
0010
0000
0001
1000
0010
0000
0000
0000
0100
0000
0001
1000
0100
0000
0000
0000
0010
0000
0001
0100
0010
0000
0000
0000
0110
0000
0000
0000
,  // measure 14
2001
0000
0000
0000
0010
0000
0000
0000
3010
1000
0001
0000
1001
0000
0001
0010
,  // measure 15
0200
0000
0000
0000
1000
0000
0000
0000
1300
0100
0010
0000
0110
0000
0010
0001
,  // measure 16
0200
0000
0000
0000
1000
0000
0000
0000
1300
0100
0010
0000
0110
0000
0010
1000
,  // measure 17
0002
0000
0000
0000
0010
0000
0000
0000
0013
0001
0100
0000
0101
0000
0100
0010
,  // measure 18
2000
0000
0000
0000
0001
0000
0000
0000
3100
0010
0001
0000
0011
0000
0001
0100
,  // measure 19
0020
0000
0000
0000
1000
0000
0000
0000
1030
0001
0100
0000
0101
0000
0100
0001
,  // measure 20
0020
0000
0000
0000
1000
0000
0000
0000
1030
0010
0001
0000
0011
0000
0001
1000
,  // measure 21
0100
0000
0000
0000
1100
0000
0100
1000
0001
0000
0000
0000
0100
0000
0010
1000
0001
0000
0010
0000
0001
0000
1000
0000
0001
0000
0100
0000
0010
0000
1000
0000
,  // measure 22
0001
0010
0011
0000
1010
0000
1000
0001
0101
0000
1100
0000
0100
0010
0002
0000
,  // measure 23
1003
0000
0010
0000
1010
0000
0000
0000
0011
0000
0000
0000
0001
0000
1000
0000
1100
0000
0000
0000
0101
0000
0000
0000
0001
0000
0100
0000
0010
0000
1000
0010
,  // measure 24
1000
0010
1000
0001
1000
0010
1000
0001
0100
0010
0100
0001
0100
0010
0100
0001
,  // measure 25
1000
0000
0001
0000
0010
0000
0001
0000
1000
0000
0001
0000
0010
0000
0001
0000
1000
0000
0100
0000
0010
0000
0001
0000
1000
0001
1000
0000
0001
1000
0001
0000
,  // measure 26
1000
0001
1101
0000
1101
0000
0001
0010
0111
0000
0111
0000
0010
0001
0200
0000
,  // measure 27
0310
0000
1000
0000
1110
0000
0000
0000
1110
0000
0000
0000
1000
0000
0001
0000
1101
0000
0000
0000
1101
0000
0000
0000
0001
0000
1000
0000
0100
0000
0010
0001
,  // measure 28
0010
0001
1000
0100
1100
0000
1000
0001
0100
0000
0010
0000
1000
0000
1010
0000
,  // measure 29
1000
0000
0010
0000
0100
0000
0001
0100
0001
0000
0100
0000
0010
0000
1000
0000
0100
0000
0010
0000
0001
0000
0100
0000
0010
1000
0100
1000
0010
0100
0001
0010
,  // measure 30
0001
0100
0010
1000
0001
1000
0000
0100
0000
0020
0000
0031
0000
0100
0000
0010
,  // measure 31
0000
2000
0000
3010
0000
0100
0000
0001
0000
2000
0000
3100
0000
0010
0001
1000
,  // measure 32
0100
1000
0001
0000
1000
0000
0020
0000
0130
0000
0001
0000
1000
0000
0200
0000
,  // measure 33
0310
0000
0001
0100
0010
1000
0100
0000
0010
0000
0001
1000
0010
0100
0001
0100
,  // measure 34
0000
0010
0000
2000
0000
3010
0000
0100
0000
0001
0000
2000
0000
3100
0000
0010
,  // measure 35
0000
0001
0000
0200
0000
0310
0000
1000
0001
0010
0100
1000
0100
0000
0010
0000
,  // measure 36
0002
0000
1003
0000
0010
0000
0100
0000
0002
0000
1003
0000
0001
1000
0001
1000
,  // measure 37
0001
0000
0010
0000
0100
1000
0001
0100
0010
0100
0000
0010
0000
2000
0000
3010
,  // measure 38
0000
0100
0000
0001
0000
2000
0000
3100
0000
0010
0000
0001
0000
2000
0000
3010
,  // measure 39
0000
0100
0001
1000
0100
0010
0100
0000
0010
0000
0002
0000
0013
0000
0100
0000
,  // measure 40
1000
0000
0002
0000
0103
0000
0010
1000
0100
0010
0001
0000
1000
0000
0010
0100
,  // measure 41
0001
1000
0100
1000
0000
0100
0000
0020
0000
0031
0000
1000
0000
0010
0000
0200
,  // measure 42
0000
0310
0000
1000
0000
0100
0000
0020
0000
0031
0000
1000
0010
0100
0001
1000
,  // measure 43
0001
0000
0010
0000
0100
0000
1000
0001
0100
0000
0010
0000
1000
0000
0001
0010
,  // measure 44
0100
1000
0100
0010
0002
0000
0000
0000
2003
0000
3010
0001
0000
0010
1000
0000
,  // measure 45
0100
0001
0000
0100
1000
0000
1100
0000
0011
0000
0010
1000
0000
0010
0001
0000
,  // measure 46
0100
1000
0000
0100
0001
0000
0101
0000
0021
0000
0130
1000
0000
0001
0100
0000
,  // measure 47
0102
0000
0103
0001
0000
1000
0100
0000
2100
0000
3100
0010
0000
0001
1000
0000
,  // measure 48
1002
0000
0103
0010
0000
1000
0100
0000
0012
0000
0103
1000
0000
0100
0001
0000
,  // measure 49
0010
1000
0000
0010
0001
0000
0011
0000
1100
0000
0100
0001
0000
0100
1000
0000
,  // measure 50
0010
0001
0000
0010
1000
0000
1010
0000
1200
0000
0310
0001
0000
1000
0010
0000
,  // measure 51
2010
0000
3010
1000
0000
0001
0010
0000
0012
0000
0013
0100
0000
1000
0001
0000
,  // measure 52
0200
0000
0000
0000
,  // measure 53
0310
0000
1000
0010
0100
0001
1000
0100
,  // measure 54
0020
0000
0001
0000
0031
0000
1000
0000
0010
0000
0100
0000
0001
0100
0001
1000
,  // measure 55
0001
0010
0100
0010
0001
1000
0100
0010
,  // measure 56
0002
0000
1000
0000
1003
0000
0010
0000
0100
0000
0001
0000
0100
0010
0100
1000
,  // measure 57
0100
0010
1000
0100
0010
0100
0001
0100
,  // measure 58
0010
0000
0001
1000
0010
0000
0100
0000
0010
0000
0001
0000
0010
0000
0100
0000
,  // measure 59
0010
0000
1000
0001
0010
0000
0100
0000
0010
0000
1000
0000
0010
0000
0100
0000
,  // measure 60
0010
0000
0001
0010
0001
1000
0001
0100
0001
1000
0100
0010
0001
0100
0010
1000
,  // measure 61
0010
0100
0001
1000
0100
0000
0100
0000
0100
0000
1000
0001
0100
0000
0100
0000
,  // measure 62
0100
0000
0001
0100
0010
0000
0010
0000
0010
0000
1000
0001
0010
0000
0010
0000
,  // measure 63
0010
0000
0001
1000
0100
0000
0100
0000
0100
0000
1000
0001
0100
0000
0100
0000
,  // measure 64
0100
0000
0010
1000
0001
0000
0001
0000
0001
0000
0010
0100
1000
0000
1000
0000
,  // measure 65
1000
0000
0100
0010
0001
0000
1000
0000
0010
0000
0100
0001
1000
0000
0100
0000
,  // measure 66
0010
0000
0001
0100
0010
0000
1000
0000
0001
0000
0010
0100
1000
0000
0001
0000
,  // measure 67
0010
0000
0100
0000
1000
0000
0001
0100
0000
0001
1000
0000
0001
0010
0000
0100
,  // measure 68
1000
0000
1100
0000
1010
0000
1000
0010
0000
1000
0001
0000
1000
0100
0000
0010
,  // measure 69
0001
0000
0000
0000
0011
0000
0000
0000
0101
0001
2000
0000
3100
0000
0010
0001
2000
0000
3010
0000
0100
0001
1000
0000
0100
0010
0002
0000
1003
0000
0010
0100
,  // measure 70
0002
0000
0013
0000
0100
0100
0000
0000
0000
0000
0000
0000
0000
0000
0000
0000
0000
0000
0000
0000
0000
0000
0000
0000
0000
0000
0000
0000
0000
0000
0000
0000
;

//---------------dance-single - Heavy Itsugo15----------------
#NOTES:
     dance-single:
     Heavy Itsugo15:
     Hard:
     9:
     0.633,0.776,0.238,0.252,0.581:
0000
0000
0000
0000
,
0000
0000
0000
0000
,
0000
0000
0000
0000
,
0001
0010
0100
1000
0010
0000
0001
0000
0010
0000
1000
0000
0001
0000
0010
0000
,
0100
1000
0001
0100
0010
0000
2000
0000
0004
0000
0000
0000
3003
0000
0000
0000
,
0001
0200
0010
0000
0310
0000
1000
0002
0010
0000
0013
0000
0001
1000
1001
0000
,
0001
0020
0100
0000
0130
0000
0001
2000
0100
0000
3100
0000
1000
0001
1001
0000
,
1001
0000
0000
0000
1000
0000
0000
0100
1000
0000
0000
0000
0100
0000
0000
0000
0010
0000
0000
0000
0100
0000
0000
0000
1000
0000
0000
0000
0001
0000
0000
0000
,
1001
0000
0000
0000
0001
0000
0000
0100
0001
0000
0000
0000
0100
0000
0000
0000
0010
0000
0000
0000
0100
0000
0000
0000
0001
0000
0100
0000
0001
0000
1000
0000
,
0001
0020
0001
0000
0130
0000
0001
2000
0010
0000
3001
0000
0001
1000
0001
0000
,
1000
0200
1000
0000
0310
0000
1000
0002
0100
0000
1003
0000
1000
0001
1000
0000
,
1001
0000
0000
0000
0001
0000
0000
0010
0100
0000
0000
0000
1000
0000
0000
0000
0100
0000
0000
0000
0010
0000
0000
0000
0011
0000
0000
0000
0001
0000
0000
0000
,
1001
0000
0000
0000
1000
0000
0000
0010
0100
0000
0000
0000
0001
0000
0000
0000
0102
0000
0000
0000
1000
0000
0000
0000
0010
0000
0000
0000
1003
0000
0000
0000
,
1001
0000
0000
0000
1100
0000
0000
0000
0100
1000
0001
0000
1001
0000
0001
0000
,
0100
0000
0000
0000
0101
0000
0000
0000
0100
0001
1000
0000
1001
0000
0001
0000
,
0010
0000
0000
0000
0011
0000
0000
0000
0010
0001
1000
0000
1001
0000
1000
0000
,
0010
0000
0000
0000
1010
0000
0000
0000
0010
1000
0002
0000
0023
0000
0230
0000
,
1300
0000
0000
0000
1100
0000
0000
0000
1000
0100
0010
0000
0001
0000
1000
0000
,
1001
0000
0000
0000
0101
0000
0000
0000
0001
0100
0010
0000
1000
0000
0001
0000
,
1001
0000
0000
0000
0011
0000
0000
0000
0001
0010
0100
0000
1000
0000
0001
0000
,
1001
0000
1000
0000
1010
0000
1000
0010
1000
0001
1000
0100
0010
0001
0100
0000
,
0001
0200
0001
0000
0301
0000
0001
2000
0100
0000
3100
0000
0100
0010
0002
0000
,
1003
0020
0100
0000
0130
0000
0100
0002
1000
0000
1003
0000
1000
0001
0020
0000
,
0031
0010
0001
0010
0001
1000
0001
1000
0001
0100
0001
0100
0001
1000
0001
1000
,
0001
0010
0001
0010
0100
0010
0100
0010
0100
1000
0100
1000
0001
0100
0001
1000
,
0100
0010
0110
0000
0110
0000
0010
0001
0011
0000
0011
0000
0001
1000
0020
0000
,
0130
0001
0101
0000
0101
0000
0001
1000
1001
0000
1001
0000
0001
1000
0200
0000
,
1300
0100
1000
0100
1000
0001
1000
0001
1000
0010
1000
0010
1000
0001
1000
0001
,
1000
0100
1000
0100
0010
0100
0010
0100
0010
0001
0100
0010
2000
0000
0001
0000
,
3001
1000
0001
0100
0000
0001
0000
0100
0000
0001
0000
0100
0000
0001
0000
0100
,
0000
0001
0000
0100
0000
0001
0000
0100
0000
0001
0000
0100
0000
0001
0100
0001
,
1000
0001
0010
0001
1000
0001
0010
0001
,
1000
0000
0001
0000
0010
0000
0100
0000
1000
0000
0100
1000
0100
0010
0000
0100
,
0000
0010
0000
0100
0000
0010
0000
0100
0000
0010
0000
0100
0000
0010
0000
0100
,
0000
0010
0000
0100
0000
0010
0000
0100
0010
0100
1000
0000
0100
0000
1000
0000
,
0001
1000
0100
1000
0001
1000
0100
0010
,
0001
0000
1000
0000
0010
1000
0010
0100
0000
0010
0000
0100
0000
0010
0000
0100
,
0000
0010
0000
0100
0000
0010
0000
0100
0000
0010
0000
0100
0000
0010
0000
0100
,
0000
0010
0100
0010
1000
0000
0010
0000
0100
0000
0010
0000
1000
0000
0010
0000
,
0100
0000
0010
0000
1000
0000
0010
0000
0100
0000
0001
0000
1000
0000
0001
1000
,
0001
0010
0000
0001
0000
0010
0000
0001
0000
0010
0000
0001
0000
0010
0000
0001
,
0000
0010
0000
0001
0000
0010
0000
0001
0000
0010
0000
0001
0010
0001
1000
0000
,
0001
0100
0010
1000
0100
0010
0100
1000
,
0001
0000
0010
0000
0100
0000
0010
0000
0002
0000
0000
1000
0000
0000
1000
0000
,
0003
1000
0000
0000
0010
0000
0200
0000
0001
0000
0000
0001
0000
0000
0001
0000
,
0300
0010
0000
0000
1000
0000
0200
0000
0001
0000
0300
0001
0000
0000
0200
0000
,
1000
0000
0300
1000
0000
0000
0020
0000
0001
0000
0030
0001
0000
0000
0020
0000
,
1000
0000
0030
1000
0000
0000
0001
0000
2000
0000
0000
0001
0000
0000
0001
0000
,
3000
0001
0000
0000
0100
0000
0020
0000
1000
0000
0000
1000
0000
0000
1000
0000
,
0030
0100
0000
0000
0001
0000
0020
0000
1000
0000
0030
1000
0000
0000
0020
0000
,
0001
0000
0030
0001
0000
0000
0200
0000
1000
0000
0300
1000
0000
0000
0100
0000
,
0002
0000
0000
0000
,
1003
0000
0100
0010
0001
1000
1001
0000
,
1000
0010
0100
0001
0010
0100
0110
0000
,
0100
1000
0001
0010
0001
1000
1001
0000
,
0001
0100
0010
1000
0100
0010
0001
0001
,
1000
1000
1001
0000
0001
0010
1000
0010
,
0001
0100
0010
0000
0001
1000
0100
0001
,
1000
0100
0001
0000
0100
0010
0001
1000
,
0100
0010
0100
1000
0001
0100
0010
1000
,
0100
0010
0001
0010
0001
0010
0001
1000
,
0001
1000
0001
0100
0001
0100
0001
0100
,
0010
0100
0010
1000
0010
1000
0001
1000
,
0001
1000
0100
1000
0100
1000
0100
0010
,
0100
0010
0100
0010
0001
1000
0010
0100
,
0001
0100
1000
0100
0010
1000
0001
0010
,
0100
0000
1000
0000
0002
0000
0000
1000
0000
0000
1000
0000
0000
1000
0000
0000
,
1003
0000
0001
0000
2000
0000
0000
0001
0000
0000
0001
0000
0000
0001
0000
0000
,
3001
0000
0000
0000
1000
0000
0000
0000
1000
0001
0100
0000
0100
0000
0100
0010
1000
0000
1000
0000
0100
0010
0001
0000
1000
0001
1000
0000
1000
0000
0001
0010
,
0100
0000
0100
0000
1000
0001
0000
0000
0000
0000
0000
0000
0000
0000
0000
0000
0000
0000
0000
0000
0000
0000
0000
0000
0000
0000
0000
0000
0000
0000
0000
0000
;

//---------------dance-single - Medium Itsugo15----------------
#NOTES:
     dance-single:
     Medium Itsugo15:
     Medium:
     7:
     0.421,0.517,0.272,0.184,0.190:
0000
0000
0000
0000
,
0000
0000
0000
0000
,
0000
0000
0000
0000
,
1000
1000
1010
0100
0001
0010
0011
0000
,
0001
0001
0011
0100
1000
0010
1010
0000
,
0020
0100
0130
2000
0001
3001
0010
0200
,
2300
0010
3010
0200
0001
0301
0010
0110
,
1001
0001
0101
0000
1000
0100
1100
0000
,
0001
0010
0011
0000
1000
0010
1010
1000
,
0002
1000
1003
0020
0100
0130
1000
0200
,
0320
0001
0031
0200
1000
1300
0100
0110
,
1001
1000
1010
0000
0100
0001
0101
0000
,
1000
0100
1100
0000
0001
0010
0011
0000
,
1001
0000
0001
0000
1000
0010
1010
0000
,
0100
0000
0110
0000
0100
0001
1000
0000
,
0100
0000
1100
0000
1000
0010
0100
0000
,
0001
0000
0101
0000
0001
0010
0100
1000
,
0010
0000
1010
0000
1000
0001
0010
0000
,
0100
0000
0110
0000
0010
0001
1000
0000
,
0100
0000
1100
0000
1000
0001
0100
0000
,
0010
0000
0110
0000
0100
0001
0010
0100
,
1000
0001
0100
0010
1000
0010
0100
0110
,
0010
1000
0100
0010
0001
0010
0100
0110
,
1000
1000
1000
1000
0001
0001
0001
0001
,
0100
0100
0100
0100
0010
0010
0010
0010
,
1000
1010
1010
0100
0101
0101
0001
1001
,
0100
1100
1100
0010
0011
0011
0001
1001
,
1000
0010
0001
0010
1000
0001
0010
1000
,
0010
0100
1000
0001
0100
1000
0100
0001
,
1000
0000
0200
0000
0000
0010
0000
0000
0000
0010
0000
0000
0000
0010
0000
0000
,
0000
0010
0000
0000
0000
0310
0000
0000
0000
0001
0000
0000
0000
1000
0000
0020
,
0000
0100
0000
0100
0000
1000
0000
1000
,
0000
0000
0130
0000
0000
0000
0001
0000
0000
0000
1000
0000
0200
0000
0000
0010
,
0000
0000
0000
0010
0000
0000
0000
0001
0000
0000
0000
0001
0000
0000
0000
0310
,
0000
0000
0000
0001
0000
0000
0000
1000
0000
0020
0000
0000
0100
0000
0000
0000
,
1000
0100
0001
0130
,
0001
0000
0000
0000
1000
0000
0200
0000
0000
0010
0000
0000
0000
0001
0000
0000
,
0000
0010
0000
0000
0000
1000
0000
0000
0000
0310
0000
0000
0000
0001
0000
0000
,
0000
1000
0000
0020
0000
0000
0100
0000
0000
0000
1000
0000
0000
0000
0100
0000
,
0000
1000
0000
0130
0000
0001
0000
1000
,
0200
0000
0000
0010
0000
0000
0000
1000
0000
0000
0000
0010
0000
0000
0000
1000
,
0000
0000
0000
0310
0000
0000
0000
0001
0000
0000
0000
1000
0000
0020
0000
0000
,
0100
0001
0001
0001
,
0130
0000
0000
0000
0001
0000
0000
0000
1000
0000
0000
0100
0000
0000
0010
0000
,
0000
0002
0000
0000
0100
0000
0103
0000
0010
0000
0000
1000
0000
0000
0010
0000
,
0000
0200
0000
0000
0001
0000
0301
0000
1000
0000
0000
0100
0000
0000
0010
0000
,
1000
0000
0000
0100
0000
0000
0010
0000
1000
0000
0000
0001
0000
0000
0010
0000
,
0001
0000
0000
1000
0000
0000
1000
0000
0001
0000
0000
0010
0000
0000
0100
0000
,
0000
2000
0000
0000
0010
0000
3010
0000
0100
0000
0000
0001
0000
0000
0100
0000
,
0000
0020
0000
0000
1000
0000
1030
0000
0001
0000
0000
0010
0000
0000
0100
0000
,
0001
0000
0000
0010
0000
0000
0100
0000
0001
0000
0000
0010
0000
0000
0100
0000
,
2000
0000
0000
0000
,
3001
0100
0010
1000
,
1010
1000
1001
0001
,
0011
0100
1000
0001
,
0100
1000
0100
0010
,
1000
0001
0010
1000
,
0010
0100
1000
0001
,
0100
0010
1000
0010
,
0100
0002
0013
2000
,
3010
0001
0001
0010
,
0100
0100
1000
0010
,
0010
0100
0100
0001
,
1000
1000
0100
0010
,
0010
0001
1000
0010
,
0100
0001
0100
1000
,
0100
0000
0000
0000
0001
0000
0000
0100
0000
0000
0010
0000
0000
1000
0000
0000
,
0100
0000
0100
0000
0010
0000
0000
0001
0000
0000
1000
0000
0000
0100
0000
0000
,
0010
0000
0010
0000
0002
1000
1000
0000
1000
1003
0000
2000
0000
0001
0001
0000
,
0001
3001
0000
0000
0000
0000
0000
0000
0000
0000
0000
0000
0000
0000
0000
0000
;

//---------------dance-single - Easy Itsugo15----------------
#NOTES:
     dance-single:
     Easy Itsugo15:
     Easy:
     5:
     0.170,0.211,0.102,0.122,0.054:
0000
0000
0000
0000
,
0000
0000
0000
0000
,
0000
0000
0000
0000
,
1000
0100
0000
0000
,
0010
0001
0000
0000
,
2000
3010
0200
1300
,
0002
0103
0020
0031
,
1000
0000
1000
0000
,
0001
0000
0001
0000
,
0020
0130
0002
1003
,
0200
0310
2000
3001
,
0010
0000
0100
0000
,
1000
0000
0001
0000
,
1001
0000
0000
0001
,
0100
0000
0000
1000
,
0010
0000
0000
0001
,
0100
0000
0000
0010
,
1000
0000
0000
0100
,
0001
0000
0000
0010
,
1000
0000
0000
0001
,
0010
0000
0100
0000
,
2000
3010
0002
0013
,
0200
0310
0002
0013
,
0100
0000
1000
0000
,
0001
0000
0100
0000
,
0020
0130
2000
3100
,
0002
0103
0020
0130
,
0001
0000
1000
0000
,
0100
0000
0010
0000
,
0001
0000
0000
0000
0000
0100
0000
0000
0000
0000
0000
0000
0000
0100
0000
0000
,
0000
0000
0000
0000
0000
0100
0000
0000
0000
0000
0000
0000
0000
0010
0000
0000
,
0000
1000
0000
0000
0000
1000
0000
0000
,
0000
0000
1000
0000
0000
0000
0000
0000
0000
0000
0100
0000
0000
0000
0000
0010
,
0000
0000
0000
0000
0000
0000
0000
0010
0000
0000
0000
0000
0000
0000
0000
0010
,
0000
0000
0000
0000
0000
0000
0000
0001
0000
0000
0000
0000
0100
0000
0000
0000
,
0000
0100
0000
0100
,
0000
0000
0000
0000
0010
0000
0000
0000
0000
1000
0000
0000
0000
0000
0000
0000
,
0000
1000
0000
0000
0000
0000
0000
0000
0000
1000
0000
0000
0000
0000
0000
0000
,
0000
0100
0000
0000
0000
0000
0010
0000
0000
0000
0000
0000
0000
0000
0010
0000
,
0000
0000
0000
0010
0000
0000
0000
0001
,
0000
0000
0000
0100
0000
0000
0000
0000
0000
0000
0000
0100
0000
0000
0000
0000
,
0000
0000
0000
0100
0000
0000
0000
0000
0000
0000
0000
0010
0000
0000
0000
0000
,
1000
0000
0100
0000
,
0010
0000
0001
0000
,
0000
0000
0011
0000
,
0000
0000
1001
0000
,
0000
0000
1010
0000
,
0000
0000
0110
0000
,
0000
0000
0101
0000
,
0000
0000
1001
0000
,
0000
0000
1100
0000
,
0020
0000
0000
0000
,
0030
0001
0000
0100
,
0000
0010
0000
0110
,
0000
1000
0000
0001
,
0000
0010
0000
0011
,
0000
1000
0000
1100
,
0000
0001
0000
0101
,
0000
0010
0000
0100
,
0000
1000
0000
0010
,
0000
1010
0000
1000
,
0000
1000
0000
1000
,
0000
1001
0000
0001
,
0000
0001
0000
0001
,
0000
0011
0000
0001
,
0000
0100
0000
0010
,
0000
2000
0000
0000
,
0000
0000
0000
0000
,
3000
0010
0010
0100
,
0100
0000
0000
0000
;

//---------------dance-single - Beginner Itsugo15----------------
#NOTES:
     dance-single:
     Beginner Itsugo15:
     Beginner:
     3:
     0.102,0.187,0.048,0.068,0.014:
0000
0000
0000
0000
,
0000
0000
0000
0000
,
0000
0000
0000
0000
,
1000
0000
0000
0000
,
0001
0000
0000
0000
,
1000
0000
0100
0000
,
0010
0000
0001
0000
,
0100
0000
0100
0000
,
0010
0000
0010
0000
,
1000
0000
0010
0000
,
0100
0000
0001
0000
,
0010
0000
0010
0000
,
0100
0000
0100
0000
,
0110
0000
0000
1000
,
1100
0000
0000
0001
,
0101
0000
0000
1000
,
1010
0000
0000
0001
,
0011
0000
0000
0000
,
0110
0000
0000
0000
,
1001
0000
0000
0000
,
0001
0000
0100
0000
,
0010
0000
1000
0000
,
0001
0000
0010
0000
,
0001
0000
0100
0000
,
0010
0000
1000
0000
,
0100
0100
0010
0000
,
0010
0010
0001
0000
,
0001
0001
0100
0000
,
0100
0100
0010
0000
,
2000
0000
0000
3000
0000
0000
0000
0000
0000
0000
0000
0000
0000
0000
0000
0000
,
0000
0000
0000
0000
0000
0000
0000
0000
0000
0000
0000
0000
0000
0020
0000
0000
,
0030
0000
0000
0000
,
0000
0000
0000
0000
0000
0000
0000
0000
0000
0000
0200
0000
0000
0300
0000
0000
,
0000
0000
0000
0000
,
0000
0000
0000
0000
0000
0000
0000
0002
0000
0000
0003
0000
0000
0000
0000
0000
,
0000
0000
0000
0000
,
0000
0000
0000
0000
0020
0000
0000
0030
0000
0000
0000
0000
0000
0000
0000
0000
,
0000
0000
0000
0000
,
0000
0200
0000
0000
0300
0000
0000
0000
0000
0000
0000
0000
0000
0000
0000
0000
,
0000
0000
0000
0000
0000
0000
0000
2000
,
0000
3000
0000
0000
0000
0000
0000
0000
0000
0000
0000
0000
0000
0000
0000
0000
,
0000
0000
0000
0000
0000
0000
0000
0000
0000
0000
0000
0002
0000
0000
0003
0000
,
0000
0000
0000
0000
,
0000
0000
0100
0000
,
0000
0000
0001
0000
,
0000
0000
1000
0000
,
0000
0000
0100
0000
,
0000
0000
0010
0000
,
0001
0000
0100
0000
,
0010
0000
1000
0000
,
0001
0000
0010
0000
,
0200
0000
0000
0000
,
0300
1000
0000
0000
,
0000
0010
0000
0000
,
0000
0100
0000
0000
,
0000
0001
0000
0000
,
0000
0100
0000
0000
,
0000
1000
0000
0000
,
0000
0010
0000
0000
,
0000
0001
0000
0000
,
0000
1000
0000
0000
,
0000
0010
0000
0000
,
0000
0100
0000
0000
,
0000
0001
0000
0000
,
0000
0010
0000
0000
,
0000
0100
0000
0000
,
0000
2000
0000
0000
,
0000
0000
0000
0000
,
3000
0010
0000
0100
;
