#TITLE:嘘;
#SUBTITLE:鋼の錬金術師 FULLMETAL ALCHEMIST 1st Ending;
#ARTIST:シド;
#TITLETRANSLIT:Uso;
#SUBTITLETRANSLIT:Fullmetal Alchemist Brotherhood 1st Ending;
#ARTISTTRANSLIT:Sid;
#GENRE:Anime;
#CREDIT:Itsugo15;
#MENUCOLOR:;
#BANNER:Uso-bn.jpg;
#BACKGROUND:Uso-bg.jpg;
#LYRICSPATH:Uso.lrc;
#CDTITLE:Itsugo15 SimifileS.png;
#MUSIC:Uso.ogg;
#OFFSET:0.125;
#SAMPLESTART:68.413;
#SAMPLELENGTH:30.000;
#SELECTABLE:YES;
#LISTSORT:;
#BPMS:0.000=90.100,32.000=180.200,160.000=90.100,164.000=360.400,168.000=180.200,171.000=90.100,171.500=180.200;
#STOPS:164.000=0.180
,165.000=0.180
,166.000=0.080
,166.500=0.100
,167.500=0.200
;
#TICKCOUNT:0.000=6;
#BGCHANGES:-0.200=Uso.avi=1.000=0=1=0,
241.500=Uso-bg.jpg=1.000=1=1=0,
352.000=Uso-bg.png=1.000=0=0=1,
99999=-nosongbg-=1.000=0=0=0 // don't automatically add -songbackground-
;
#KEYSOUNDS:;
#ATTACKS:;

//---------------dance-single - Beginner Itsugo15----------------
#NOTES:
     dance-single:
     Beginner Itsugo15:
     Beginner:
     1:
     0.086,0.130,0.020,0.030,0.000: // measure 1
0000
0000
0000
0000
,  // measure 2
0000
0000
0000
0000
,  // measure 3
0000
0000
0000
0000
,  // measure 4
0000
0000
0000
0000
,  // measure 5
0000
0000
0000
0000
,  // measure 6
0000
0000
0000
0000
,  // measure 7
0000
0000
0000
0000
,  // measure 8
0000
0000
0000
0000
,  // measure 9
0001
0000
0000
0000
,  // measure 10
1000
0000
0000
0000
,  // measure 11
0010
0000
0000
0000
,  // measure 12
0100
0000
0000
0000
,  // measure 13
0001
0000
0000
0000
,  // measure 14
0001
0000
0000
0000
,  // measure 15
1000
0000
0000
0000
,  // measure 16
1000
0000
0000
0000
,  // measure 17
0100
0000
0000
0000
,  // measure 18
0100
0000
0000
0000
,  // measure 19
0010
0000
0000
0000
,  // measure 20
0010
0000
0000
0000
,  // measure 21
0001
0000
0000
0000
,  // measure 22
0100
0000
0000
0000
,  // measure 23
0010
0000
0000
0000
,  // measure 24
1000
0000
0000
0000
,  // measure 25
0100
0000
0000
0000
,  // measure 26
0010
0000
0000
0000
,  // measure 27
0001
0000
0000
0000
,  // measure 28
1000
0000
0000
0000
,  // measure 29
1001
0000
0000
0000
,  // measure 30
0001
0000
0000
0000
,  // measure 31
1000
0000
0000
0000
,  // measure 32
0010
0000
0000
0000
,  // measure 33
0100
0000
0000
0000
,  // measure 34
0001
0000
0000
0000
,  // measure 35
1000
0000
0000
0000
,  // measure 36
0100
0000
0000
0000
,  // measure 37
1100
0000
0000
0000
,  // measure 38
0100
0000
0000
0000
,  // measure 39
0010
0000
0000
0000
,  // measure 40
0001
0000
0000
0000
,  // measure 41
1000
0000
0000
0000
,  // measure 42
0002
0000
0000
0000
0000
0000
0000
0003
,  // measure 43
1000
0000
0000
0000
0000
0000
0000
0001
,  // measure 44
0000
0000
0000
0000
0000
0000
0000
1000
,  // measure 45
0000
0000
0000
0000
0000
0000
0000
0001
,  // measure 46
0000
0000
0000
0000
0000
0000
0000
0010
,  // measure 47
0000
0000
0000
0000
0000
0000
0000
0100
,  // measure 48
0000
0000
0000
0000
0000
0000
0000
1000
,  // measure 49
0000
0000
0000
0000
0000
0000
0000
0001
,  // measure 50
0000
0000
0000
0000
0000
0000
0000
0100
,  // measure 51
0000
0000
0000
0000
0000
0000
0000
0010
,  // measure 52
0000
0000
0000
0000
0000
0000
0000
1000
,  // measure 53
0000
0000
0000
0000
0000
0000
0000
0100
,  // measure 54
0000
0000
0000
0000
0000
0000
0000
1000
,  // measure 55
0000
0000
0000
0000
0000
0000
0000
0010
,  // measure 56
0000
0000
0000
0000
0000
0000
0000
0100
,  // measure 57
0000
0000
0000
0000
0000
0000
0000
0002
,  // measure 58
0000
0000
0000
0000
,  // measure 59
0000
0000
0000
0000
,  // measure 60
0000
0000
0000
0000
,  // measure 61
0000
0000
0000
0003
0000
0000
0000
0100
,  // measure 62
0000
0000
0000
0000
0000
0000
0000
0010
,  // measure 63
0000
0000
0000
0000
0000
0000
0000
1000
,  // measure 64
0000
0000
0000
0000
0000
0000
0000
0100
,  // measure 65
0000
0000
0000
0000
0000
0000
0020
0030
;

//---------------dance-single - Challenge Itsugo15----------------
#NOTES:
     dance-single:
     Challenge Itsugo15:
     Challenge:
     10:
     0.721,0.747,0.479,0.230,0.155:
0000
0000
0000
0000
,
0000
0000
0000
0000
,
0000
0000
0000
0000
,
0000
0000
0000
0000
,
0000
0000
0000
0000
,
0000
0000
0000
0000
,
0000
0000
0000
0000
,
0000
0000
0000
0000
,
1000
0000
0001
0100
0000
0101
0000
1010
,
0000
1001
0000
0110
0000
1001
0001
1000
,
0200
0000
0310
0002
0000
1003
0020
0000
,
0130
0000
0001
0000
1000
0000
0100
0000
0010
0000
0100
1000
0001
0010
0100
1000
,
0100
1100
1000
0001
0010
0011
0000
0001
,
1001
0000
1010
0000
1001
1000
1100
0100
,
1000
0010
1010
0010
0100
0110
0000
0001
,
0101
0000
1001
0000
1001
1000
1010
0010
,
0100
0001
0101
0001
0010
0011
0000
0010
,
0110
0000
0110
0000
0100
1000
1100
0000
,
1001
0000
0001
0100
1000
0000
1000
0100
,
0001
0000
1000
0000
0010
0000
0100
0000
0001
0000
0010
0000
1000
0000
0010
0100
,
1000
1100
1000
0001
0100
0101
0000
0001
,
1001
0000
0011
0000
1001
0001
0101
0100
,
0001
0010
0011
0001
1000
1001
0000
1000
,
1010
0000
1001
0000
1001
0001
0011
0100
,
2000
0000
3001
0100
0020
0000
1030
0001
,
1001
0000
0110
0000
1001
0001
1000
0010
,
1010
0000
0010
0001
0000
0010
1000
0000
,
1000
0000
0001
0000
0100
0000
0010
0000
1000
0000
0100
0000
0001
0000
0100
0010
,
0001
1000
0001
0010
0001
1000
0001
0100
,
0001
1000
0001
0010
0001
0002
2000
3003
,
0202
0303
1000
0010
1000
0001
1000
0100
,
1000
0001
1000
0010
0100
0010
0001
0011
,
0000
0010
1000
0000
0001
0000
0010
0010
,
0000
0100
1000
0001
0000
0100
0010
2000
,
0000
3001
0010
1000
0010
0001
0100
0020
,
0000
1030
0100
0002
0000
0103
0010
0000
,
0110
0100
1000
0100
0010
0100
0001
0100
,
0010
0100
1000
0100
0010
0020
0002
0033
,
2002
3003
1000
0001
1000
0010
1000
0001
,
1000
0100
0010
1000
0010
0001
0100
0010
,
0110
0000
0100
0000
0010
0000
1000
0001
0000
0001
1000
0000
1001
0000
1100
0000
,
0011
0000
0001
0000
0001
2000
0000
3000
,
0100
1000
0010
0000
0010
0100
0001
1000
0100
0000
0020
0000
0002
0033
1001
0000
,
0001
0100
0010
1000
0010
0001
0010
0100
,
1000
0100
0010
1000
0001
0010
0100
0001
,
0100
1000
0100
0010
0001
1000
0100
0010
,
0100
0001
0100
0010
0001
2000
3020
0130
,
0001
0100
0010
0100
1000
0100
0010
1000
,
0001
0000
0010
0000
0100
0000
0010
0000
1000
0000
0010
0000
0001
0000
0010
0001
,
0010
0000
0001
0000
1000
0000
0001
1000
0001
0000
1000
0000
0010
0000
1000
0010
,
1000
0000
0001
0100
0001
0000
0100
0010
1000
0100
0010
0001
1000
0010
0100
0000
,
0001
0100
0010
1000
0010
0100
1000
0100
,
0001
1000
0100
0010
0001
1000
0100
0010
,
0001
1000
0001
0010
0001
0000
0010
0000
0100
1000
0001
1000
0100
0000
0010
0000
,
0001
1000
0010
1000
0001
0010
0001
1000
0010
1000
0001
0000
0010
0000
1000
0000
,
0010
0001
1000
0010
0100
0001
0100
0010
,
1000
0000
0100
0000
0010
0000
0001
0100
0010
1000
0100
1000
0010
0100
0001
0000
,
1000
0100
0010
0001
1000
0010
0100
0001
,
1000
0001
0010
0100
1000
0001
0100
0010
,
1000
0001
1000
0010
0100
0001
1000
0100
,
0010
0001
1000
0001
0100
0010
1000
0001
,
0010
0100
1000
0100
0010
0001
1000
0100
,
0001
0100
1000
0010
0001
0010
1000
0001
,
0010
0100
1000
0010
0100
0001
0100
0010
,
1000
0100
0010
0001
2000
0100
0200
0000
,
3300
0000
0000
0000
;

//---------------dance-single - Heavy Itsugo15----------------
#NOTES:
     dance-single:
     Heavy Itsugo15:
     Hard:
     8:
     0.611,0.584,0.280,0.260,0.000:
0000
0000
0000
0000
,
0000
0000
0000
0000
,
0000
0000
0000
0000
,
0000
0000
0000
0000
,
0000
0000
0000
0000
,
0000
0000
0000
0000
,
0000
0000
0000
0000
,
0000
0000
0000
0000
,
1001
0000
1000
0010
0000
0200
0000
0302
,
0000
0023
0000
0230
0000
2300
0000
3000
,
1100
0000
1000
0001
0000
0001
0100
0000
,
0100
0010
0000
0010
1000
0001
0010
0001
,
1000
0100
1100
1000
0001
1001
0000
0001
,
0100
0000
0101
0000
0010
1000
1010
0000
,
1000
0001
0010
0100
1000
1100
0000
0100
,
0010
0000
0110
0000
0001
1000
1001
0000
,
0001
0100
0010
1000
0001
1001
0000
1000
,
0100
0000
1100
0000
0010
0001
0100
0000
,
0101
0000
1000
0010
1010
0000
1000
0001
,
1001
0000
0001
0010
0100
1000
0100
0010
,
0001
0010
0011
0001
1000
1001
0000
1000
,
0010
0000
1010
0000
0100
0001
0101
0000
,
0001
1000
0100
0010
0001
0011
0000
0010
,
0100
0000
0110
0000
1000
0001
1001
0000
,
1000
0010
0100
0000
0001
0010
0100
0000
,
0010
0000
0001
0000
1000
0010
0100
0001
,
0100
0000
0010
1000
0000
1000
0001
0000
,
0001
0010
0100
0010
0001
1000
0100
0010
,
0001
0001
1000
0000
0001
0001
1000
0000
,
0001
0001
1000
0000
2000
3010
0000
1001
,
1000
1000
0001
0000
1000
1000
0001
0000
,
1000
1000
0001
0000
1000
1000
0010
0200
,
0000
0301
1000
0100
0020
0000
0130
2000
,
0000
3001
0100
0020
0000
1030
0001
0020
,
0000
0130
1000
0100
0010
0100
1000
0002
,
0000
0103
0010
2000
0000
3100
0010
0100
,
1000
1000
1100
0000
1000
1000
1100
0000
,
1000
1000
1100
0000
0100
1000
0001
0100
,
0001
0001
0101
0000
0001
0001
0101
0000
,
0001
0001
0101
0100
0010
1000
0001
0010
,
0100
1000
0001
2000
0000
3010
0100
0001
,
1000
0000
0001
0000
0002
2000
0000
0003
,
0010
0000
0001
0000
0100
0000
3002
1003
,
0010
1000
0010
1000
0001
1000
0001
0010
,
0100
1000
0100
0010
0001
1000
0100
0010
,
0001
0010
0001
1000
0001
1000
0001
0100
,
0010
1000
0001
0010
0100
2000
0100
3100
,
0100
1000
0010
0100
0010
0001
0010
0100
,
0010
1000
0001
0010
0100
0010
1000
0010
,
0100
0010
0001
1000
0100
0010
0001
2000
,
0000
0000
0000
3001
0000
1000
0000
0010
,
0100
0001
0010
0100
0001
0100
0010
0001
,
0100
0010
1000
0001
0010
0100
1000
0002
,
0000
0103
0010
2000
0000
3100
0010
0200
,
0000
1300
0001
0020
0000
0031
1000
0020
,
0000
1000
0000
0001
0000
1030
0001
0010
,
0100
1000
0100
0010
0001
1000
0100
0010
,
0001
0010
0001
1000
0001
1000
0001
1000
,
0010
1000
0010
1000
0001
1000
0001
0100
,
0001
0100
0001
1000
0001
1000
0001
1000
,
0100
1000
0100
0010
0100
0010
0100
0010
,
0001
1000
0010
0100
0010
1000
0001
0010
,
0100
0010
0001
1000
0100
0001
0100
1000
,
0010
0100
0001
0100
1000
0100
0001
0010
,
0100
1000
0100
0010
0001
2000
0020
0000
,
3030
0000
0000
0000
;

//---------------dance-single - Medium Itsugo15----------------
#NOTES:
     dance-single:
     Medium Itsugo15:
     Medium:
     5:
     0.327,0.388,0.040,0.350,0.000:
0000
0000
0000
0000
,
0000
0000
0000
0000
,
0000
0000
0000
0000
,
0000
0000
0000
0000
,
0000
0000
0000
0000
,
0000
0000
0000
0000
,
0000
0000
0000
0000
,
0000
0000
0000
0000
,
1001
0000
1000
0100
0000
0010
0000
0001
,
0000
1000
0000
0010
0000
0100
0000
0000
,
0110
0000
0100
0001
0000
1000
0000
0100
,
0000
0010
0000
0001
0000
1000
0001
1000
,
0001
1000
0010
0100
0000
0100
0000
0001
,
0000
0001
0000
1000
0000
0100
0010
0001
,
1000
0000
1000
0001
0000
0001
0000
0100
,
0000
0101
0000
0100
,
0002
0000
0003
0010
0000
0000
0100
0000
,
2000
0000
0000
3001
0000
0000
0100
0000
,
0020
0000
2030
0000
,
3002
0000
0003
0010
,
0200
0000
0000
1300
0000
0000
0010
0000
,
0200
0000
0000
0301
0000
0000
1000
0000
,
0100
0000
0010
0001
0000
1000
0000
0020
,
0000
0130
0001
1000
,
0200
0000
0320
0000
,
0031
1000
0010
0100
,
0002
0000
0000
0103
0000
0000
0010
0000
,
2000
0000
0000
3100
0000
0000
0010
0000
,
0110
0000
0000
0000
0020
0030
0000
0000
0000
0000
0000
0000
0002
0003
0000
0000
,
0000
0000
0000
0000
2000
3000
0000
0000
0000
0000
0000
0000
0010
0000
0000
0000
,
0100
0000
0000
0000
0002
0003
0000
0000
0000
0000
0000
0000
2000
3000
0000
0000
,
0000
0000
0000
0000
0200
0300
0000
0000
0000
0000
0000
0000
0010
0000
0000
0000
,
0001
2000
0000
0010
,
3010
1000
0002
0000
,
1003
0010
0100
0001
,
0100
0010
1000
0001
,
0010
0000
0000
0000
0200
0300
0000
0000
0000
0000
0000
0000
2000
3000
0000
0000
,
0000
0000
0000
0000
0002
0003
0000
0000
0000
0000
0000
0000
0100
0000
0000
0000
,
0010
0000
0000
0000
2000
3000
0000
0000
0000
0000
0000
0000
0002
0003
0000
0000
,
0000
0000
0000
0000
0020
0030
0000
0000
0100
0000
0000
0000
1000
0000
0000
0000
,
0001
0200
0000
0310
,
2000
0000
0000
0000
0000
0000
0000
3000
,
0001
0000
1000
0000
0001
0000
2000
0010
,
3000
0010
0000
0100
0000
0100
0000
0001
,
0000
1000
0000
0100
0000
0010
0000
0001
,
0000
0001
0000
1000
0000
1000
0000
0010
,
0000
0100
0000
0001
0000
2000
0000
3100
,
0000
0000
0000
0010
0000
0001
0000
1000
,
0000
0010
0000
0100
0000
0001
0000
0100
,
0000
0010
0000
1000
0000
0001
0000
0020
,
0000
0000
0000
0130
0000
1000
0000
0001
,
0000
0001
0000
0100
0000
0100
0000
0010
,
0000
1000
0000
0100
0000
0010
0000
0001
,
0000
0001
0000
1000
0000
1000
0000
0010
,
0000
0010
0000
0100
0000
0100
0000
0001
,
0000
1000
0000
0100
0000
0010
0000
0001
,
0000
1000
0000
0010
0000
0100
0000
0002
,
0000
0100
0000
0000
0000
1000
0000
0000
,
0000
0010
0000
0000
0000
1003
0000
0010
,
0000
0200
0000
0000
0000
0010
0000
0000
,
0000
1000
0000
0000
0000
0301
0000
1000
,
0000
0020
0000
0000
0000
0100
0000
0000
,
0000
0001
0000
0000
0000
1030
0000
0001
,
0000
0020
0000
0000
0000
1000
0000
0000
,
0000
0100
0000
0000
0000
0031
1000
0000
;

//---------------dance-single - Easy Itsugo15----------------
#NOTES:
     dance-single:
     Easy Itsugo15:
     Easy:
     3:
     0.167,0.227,0.000,0.190,0.000:
0000
0000
0000
0000
,
0000
0000
0000
0000
,
0000
0000
0000
0000
,
0000
0000
0000
0000
,
0000
0000
0000
0000
,
0000
0000
0000
0000
,
0000
0000
0000
0000
,
0000
0000
0000
0000
,
1000
0000
0001
0000
,
0010
0000
0100
0000
,
0010
0000
0001
0000
,
1000
0000
0010
0000
,
0100
0000
0000
0200
0000
0300
0000
0000
,
0001
0000
0000
0002
0000
0003
0000
0000
,
1000
0000
0100
0000
,
0010
0000
0001
0000
,
1000
0000
0000
2000
0000
3000
0000
0000
,
0001
0000
0000
0002
0000
0003
0000
0000
,
0100
0000
0010
0000
,
1000
0000
0000
0000
,
0100
0000
0000
0020
0000
0030
0000
0000
,
0001
0000
0000
2000
0000
3000
0000
0000
,
0010
0000
0100
0000
,
0001
0000
0000
0000
,
1000
0000
0100
0000
,
0001
0000
0100
0000
,
0020
0000
0000
0000
,
0032
0000
0000
0000
,
1003
0000
1000
0000
,
1000
0000
2000
0000
,
3001
0000
0001
0000
,
0001
0000
0001
0000
,
0100
0000
0000
0000
,
0010
0000
0000
0000
,
1000
0000
0000
0000
,
0001
0000
0000
0000
,
0010
0000
0010
0000
,
0010
0000
0020
0000
,
0130
0000
0100
0000
,
0100
0000
0100
0000
,
2000
0000
0000
0000
,
3001
0000
0000
0000
,
1000
0000
0000
0000
0001
0000
0000
1000
,
0000
0000
0000
0100
0000
0000
0000
0010
,
0000
0000
0000
0001
0000
0000
0000
0100
,
0000
0000
0000
0010
0000
0000
0000
2000
,
0000
0000
0000
0000
0000
0000
0000
3100
,
0000
0000
0000
0010
0000
0000
0000
0001
,
0000
0000
0000
0100
0000
0000
0000
0010
,
0000
0000
0000
1000
0000
0000
0000
0020
,
0000
0000
0000
0000
0000
0000
0000
0130
,
0000
0000
0000
0001
0000
0000
0000
1000
,
0000
0000
0000
0100
0000
0000
0000
0010
,
0000
0000
0000
0001
0000
0000
0000
2000
,
0000
0000
0000
0000
0000
0000
0000
3001
,
0000
0000
0000
1000
0000
0000
0000
0010
,
0000
0000
0000
0100
0000
0000
0000
0002
,
0000
0000
0000
0000
0000
0000
0000
2003
,
0000
0000
0000
0000
0000
0000
0000
3200
,
0000
0000
0000
0000
0000
0000
0000
0320
,
0000
0000
0000
0000
0000
0000
0000
0031
,
0000
0000
0000
0001
0000
0000
0000
0100
,
0000
0000
0000
0100
0000
0000
0000
0010
,
0000
0000
0000
0010
0000
0000
0000
1000
,
0000
0000
0000
1000
0000
0000
0002
0003
;
