#TITLE:明星ロケット;
#SUBTITLE:幻想事変;
#ARTIST:岸田教団 & The 明星ロケッツ;
#TITLETRANSLIT:The Brilliant Star Rocket;
#SUBTITLETRANSLIT:Gensou Jihen;
#ARTISTTRANSLIT:Kishida Brigade & the Morning Star Rockets;
#GENRE:;
#CREDIT:Itsugo15 feat NinjaFoxX;
#MENUCOLOR:;
#BANNER:The Brilliant Star Rocket-bn.jpg;
#BACKGROUND:The Brilliant Star Rocket-bg1.jpg;
#LYRICSPATH:The Brilliant Star Rocket.lrc;
#CDTITLE:Collab.png;
#MUSIC:The Brilliant Star Rocket.ogg;
#OFFSET:1.445;
#SAMPLESTART:59.632;
#SAMPLELENGTH:30.000;
#SELECTABLE:YES;
#LISTSORT:;
#BPMS:0.000=163.010,72.000=81.505,88.000=163.010,120.000=81.505,128.000=163.010,140.000=200.000,144.000=163.030,208.000=81.505;
#STOPS:140.000=0.100
,140.500=0.120
,141.000=0.060
;
#TICKCOUNT:0.000=8;
#BGCHANGES:2.000=The Brilliant Star Rocket.avi=1.000=0=1=1,
215.250=The Brilliant Star Rocket-bg2.jpg=1.000=1=1=0,
99999=-nosongbg-=1.000=0=0=0 // don't automatically add -songbackground-
;
#KEYSOUNDS:;
#ATTACKS:;

//---------------dance-single - Heavy Itsugo15----------------
#NOTES:
     dance-single:
     Heavy Itsugo15:
     Hard:
     8:
     0.532,0.717,0.378,0.378,0.111:
0000
0000
0000
0000
,
0000
0000
0000
0000
,
2000
3000
1000
0000
0200
0300
0100
0000
,
0020
0030
0010
0000
0002
0003
0001
0000
,
2000
3000
1000
0000
0020
0030
0010
0000
,
0200
0010
1000
0301
,
0020
0030
0010
0000
2000
3000
1000
0000
,
0002
0003
0001
0000
0020
0030
0010
0000
,
0200
0300
0100
0000
2000
3000
1000
0000
,
0002
0000
0000
0000
0000
0000
0000
0003
,
0011
1001
1000
0010
,
0000
0100
0000
0001
0100
1000
0100
0001
,
0101
1001
0001
0010
,
0000
0100
0000
0010
0001
1000
0001
0010
,
0011
1001
1000
0010
,
0000
0100
0000
0001
0100
1000
0100
0001
,
0101
1001
0001
0010
,
0000
0000
0100
0000
0000
0000
0010
0000
0001
0000
1000
0000
0001
1000
0001
1000
,
0002
0000
0000
0000
2000
0000
0000
3000
,
0010
0010
0010
0010
0010
0010
0013
0100
,
2000
0000
0002
0003
,
0010
0000
0010
0000
0010
0000
0010
0000
3010
1000
0000
0001
0010
0000
0011
0000
,
1100
0000
1000
0100
0000
0001
0100
0000
,
0101
0000
0010
1000
0000
0001
0010
0000
,
0011
0000
0001
0100
0000
0010
1000
0000
,
1010
0000
1000
0100
0000
0010
0001
0000
,
0011
0001
1000
0010
,
1010
0010
1000
0100
,
0201
0010
1000
0010
,
0001
0000
0010
0000
2300
0000
0002
3003
,
1001
0000
0000
0000
1000
0000
0000
0000
0010
0100
0000
0010
1000
0000
1001
0000
,
0110
0000
0000
0000
0010
0000
0000
0000
0001
1000
0000
0001
0010
0000
0110
0000
,
2000
3000
1000
0000
0200
0300
0100
0000
,
0020
0030
0010
0000
0002
0003
0002
0000
,
2000
0000
0000
0000
0000
0000
0000
3003
,
1001
0110
1001
0000
0000
0000
0000
0000
,
0001
0010
0100
0010
0001
1000
0010
0100
,
0001
0100
1000
0100
0001
1000
0100
0010
,
0001
1000
0000
1000
0010
0000
0010
0100
,
0000
0100
0001
0000
0101
0000
1010
0000
,
0010
1000
0001
0010
0100
1000
0100
0010
,
0100
1000
0001
0010
0100
0010
0001
1000
,
0002
0010
1000
0100
,
0010
0000
0000
0000
0100
0000
0000
0000
1003
0000
0000
0000
1000
0001
1000
0001
,
1000
0100
0010
0100
1000
0001
0100
0010
,
1000
0010
0001
0010
1000
0001
0010
0100
,
1000
0001
0000
0001
0100
0000
0100
0010
,
0000
0010
1000
0000
1010
0000
0101
0000
,
0100
0001
1000
0100
0010
0001
0020
0030
,
0200
0300
1100
0000
1000
0000
1001
0000
,
0202
0000
0000
0003
0020
0000
0000
0300
,
2000
0000
0000
0000
0000
0000
0000
3030
,
0010
1000
0001
0010
0000
0000
0010
0001
1000
0100
0000
0000
1100
1100
0000
0000
,
1000
0001
0100
0010
0000
0000
0010
1000
0001
0100
0000
0000
0101
0101
0000
0000
;

//---------------dance-single - Oni - FoxX----------------
#NOTES:
     dance-single:
     Oni - FoxX:
     Challenge:
     10:
     0.746,1.000,0.766,0.444,0.222: // measure 1
0000
0000
0000
0000
,  // measure 2
0001
0100
0000
0010
1000
0000
0010
0000
0010
0100
0000
0001
1000
0001
1000
0001
,  // measure 3
2000
3100
1000
0100
0020
0130
1000
0100
,  // measure 4
0020
0031
0010
0001
0020
0130
0010
0001
,  // measure 5
0020
0130
0010
0100
0020
0031
1000
0001
,  // measure 6
2000
0010
3200
0310
,  // measure 7
0002
0013
0001
0010
0200
0310
0001
0010
,  // measure 8
0200
1300
0100
1000
0200
0310
0100
1000
,  // measure 9
0200
0310
0100
0010
0200
1300
0001
1000
,  // measure 10
0002
0000
0000
0000
0000
0000
0000
0000
0000
0000
0000
0000
0000
0000
0000
0000
0010
0000
0000
0000
0000
0000
0000
0000
0000
0000
0000
0000
0000
0000
0000
0000
2000
0000
0000
0000
0000
0000
0000
0000
3003
0000
0000
0000
0000
0000
0000
0000
0001
1000
0000
0000
0000
0000
0000
0000
0000
0000
0000
0000
0000
0000
0000
0000
,  // measure 11
0001
1001
1000
1100
,  // measure 12
1000
0100
0010
0100
1000
0001
1001
1001
,  // measure 13
0001
0101
0100
0110
,  // measure 14
0010
1000
0001
1000
0010
0100
0110
0110
,  // measure 15
0010
1010
1000
1001
,  // measure 16
0001
0010
0100
0010
0001
1000
1001
1001
,  // measure 17
1000
1100
0100
0110
,  // measure 18
0010
0000
0001
0000
1000
0000
0001
0000
0010
0000
0100
0010
0001
0010
0100
0010
,  // measure 19
0002
0000
0103
0000
0020
0000
1030
0000
0002
0000
0103
0000
0010
0200
0301
0200
,  // measure 20
0310
1000
0010
0100
0001
1000
0100
0010
,  // measure 21
0002
0000
0000
0000
0000
0000
0013
0000
0000
0000
0000
0000
0200
0000
0000
0000
0000
0000
1300
0000
0000
0000
0000
0000
0002
0000
0000
0000
0000
0000
1003
0000
0000
0000
0000
0000
0020
0000
0000
0030
2000
0000
0000
0000
3000
0002
0000
0000
,  // measure 22
0013
0000
0000
0000
0000
0000
0000
0000
0100
0000
0000
0000
0000
0000
0000
0000
0010
0000
0000
0000
0000
0000
0000
0000
0001
0000
0000
0000
0000
0000
0000
0000
1000
0000
0000
0000
0001
0000
0000
0000
0000
0000
0000
0000
0001
0000
0000
0000
1000
0000
0000
0000
0000
0000
0000
0000
1000
0001
0000
0000
0000
0000
0000
0000
,  // measure 23
1001
0000
0101
0000
0100
0001
0101
0100
,  // measure 24
0010
0110
0010
1010
,  // measure 25
1000
1001
0001
0011
,  // measure 26
0100
0000
1100
0000
1000
0100
0010
0100
,  // measure 27
1000
0000
0000
0000
1100
0000
0000
0000
1000
0000
0000
0001
1000
0000
0010
0000
,  // measure 28
0100
0000
0000
0000
0101
0000
0000
0000
0001
0000
0000
1000
0001
0000
0010
0000
,  // measure 29
0100
1100
1000
1001
,  // measure 30
0001
0101
0100
0110
,  // measure 31
1001
0000
0000
0000
0110
0000
0000
0000
0010
0011
0000
0001
1001
0000
0110
0000
,  // measure 32
1001
0000
0000
0000
0110
0000
0000
0000
0010
1010
0000
1000
1001
0000
0110
0000
,  // measure 33
0020
0030
0011
0000
0200
0300
1100
0000
,  // measure 34
0002
0003
0101
0000
2000
3000
1010
0000
,  // measure 35
2002
0010
0100
3013
,  // measure 36
1001
0110
1001
0000
0000
0000
0000
0000
,  // measure 37
0001
0010
0100
0010
0001
1000
0010
0100
,  // measure 38
0001
0000
0100
0000
0010
0000
1000
0000
0001
1000
0001
0000
1000
0000
0100
0000
,  // measure 39
1000
0100
1000
0000
0100
0000
0010
0000
0001
0000
1000
0000
0100
0000
0010
0000
,  // measure 40
0001
0010
0010
0100
0100
1000
1000
0001
,  // measure 41
0001
0100
0010
0100
0001
1000
0010
0100
,  // measure 42
0010
1000
0010
0001
0010
1000
0001
1000
,  // measure 43
0200
0010
0001
0010
,  // measure 44
1000
0000
0000
0000
0010
0000
0000
0000
1300
0000
0100
1000
0100
1000
0100
1000
,  // measure 45
0100
0010
0001
0010
0100
1000
0001
0100
,  // measure 46
0010
0000
1000
0000
0010
0000
0100
0000
0001
0100
0001
0000
0100
0000
0010
0000
,  // measure 47
0100
0010
0100
0000
0010
0000
1000
0000
0001
0000
0100
0000
0010
0000
1000
0000
,  // measure 48
0001
0100
0100
0010
0010
1000
1000
0001
,  // measure 49
0001
0010
0100
0010
0001
0000
1000
0100
,  // measure 50
0010
0100
1000
0001
0010
0100
1000
0001
,  // measure 51
2002
0000
0000
3003
0202
0000
0000
0303
,  // measure 52
2020
0000
0000
0000
0000
0000
0000
3030
,  // measure 53
1010
0110
1010
0110
0000
0000
0110
0101
0110
0101
0000
0000
1001
1001
0000
0000
,  // measure 54
1100
0110
1100
0110
0000
0000
0110
0011
0110
0011
0000
0000
0011
1001
0000
0000
;

//---------------dance-single - Beginner Itsugo15----------------
#NOTES:
     dance-single:
     Beginner Itsugo15:
     Beginner:
     2:
     0.114,0.180,0.067,0.067,0.000:
0000
0000
0000
0000
,
0000
0000
0000
0000
,
1001
0000
0000
0000
,
0000
0000
0000
0000
,
0000
0000
0000
0000
,
0000
0000
0000
0000
,
1001
0000
0000
0000
,
0000
0000
0000
0000
,
0000
0000
0000
0000
,
0002
0000
0000
0000
,
1003
0000
0000
0000
,
0010
0000
0000
0000
,
0100
0000
0000
0000
,
0001
0000
0000
0000
,
0100
0000
0000
0000
,
0010
0000
0000
0000
,
1000
0000
0000
0000
,
0001
0000
0000
0000
,
1001
0000
0000
0000
,
2000
0000
0000
3000
,
0100
0000
0000
0000
,
0020
0000
0000
0030
,
0110
0000
0000
0000
,
0010
0000
0000
0000
,
0001
0000
0000
0000
,
1000
0000
0000
0000
,
0010
0000
0000
0000
,
0100
0000
0000
0000
,
0001
0000
0000
0000
,
1000
0000
0000
0000
,
1001
0000
0000
0000
,
0110
0000
0000
0000
,
1000
0000
0010
0000
,
0100
0000
0001
0000
,
1000
0000
0000
0000
,
0001
0000
0000
0000
,
1000
0000
0000
0000
,
1000
0000
0100
0000
,
0010
0000
0000
0000
,
0010
0000
0001
0000
,
1000
0000
0000
0000
,
1000
0000
0010
0000
,
0200
0000
0000
0000
,
0300
0000
0010
0010
,
1000
0000
0000
0000
,
1000
0000
0001
0000
,
0010
0000
0000
0000
,
0010
0000
0100
0000
,
1000
0000
0001
0000
,
0100
0000
0000
0000
,
0010
0000
1000
0000
,
0002
0000
0000
0000
,
1003
0000
0000
0100
0000
0000
0000
0000
,
0010
0000
0000
0001
0000
0000
2000
0000
,
3000
0000
0000
0000
;

//---------------dance-single - Light Itsugo15----------------
#NOTES:
     dance-single:
     Light Itsugo15:
     Easy:
     4:
     0.187,0.210,0.100,0.144,0.000:
0000
0000
0000
0000
,
0000
0000
0000
0000
,
1001
0000
2000
0000
,
0000
0000
0000
0000
,
0000
0000
0000
0000
,
3002
0000
0000
0003
,
1001
0000
0002
0000
,
0000
0000
0000
0000
,
0000
0000
0000
0000
,
2000
0000
0000
3003
,
1001
0000
1000
0000
,
0010
0000
0100
0000
,
0001
0000
1000
0000
,
0100
0000
0010
0000
,
0110
0000
0100
0000
,
1000
0000
0001
0000
,
0100
0000
0010
0000
,
0100
0000
0001
0000
,
1000
0000
0100
0000
,
2000
0000
0000
0000
,
3001
0000
0100
0000
,
0002
0000
0000
0003
,
1001
0000
1000
0000
,
0001
0000
0100
0000
,
0010
0000
1000
0000
,
0100
0000
0010
0000
,
0110
0000
0010
0000
,
0001
0000
0100
0000
,
0010
0000
0100
0000
,
0001
0000
1000
0000
,
1001
0000
0000
0000
,
1010
0000
0000
0000
,
0011
0000
0001
0000
,
1000
0000
0010
0000
,
0200
0000
0000
0000
,
0020
0330
0000
0000
,
1000
0000
0001
0000
,
0010
0000
0100
0100
,
0010
0000
0001
0000
,
1000
0000
0001
0001
,
0100
0000
0010
0000
,
1000
0000
0010
0010
,
0200
0000
0001
0000
,
0010
0000
0001
0301
,
1000
0000
0100
0000
,
0010
0000
0001
0001
,
1000
0000
0010
0000
,
0100
0000
0010
0010
,
1000
0000
0001
0000
,
1000
0000
1000
1000
,
0002
0000
0023
0000
,
0230
0000
0000
0000
,
1300
0000
0000
1000
0000
0000
0001
0000
,
0100
0000
0000
0100
0000
0000
0020
0000
,
0030
0000
0000
0000
;

//---------------dance-single - Medium Itsugo15----------------
#NOTES:
     dance-single:
     Medium Itsugo15:
     Medium:
     7:
     0.398,0.598,0.211,0.289,0.067:
0000
0000
0000
0000
,
0000
0000
0000
0000
,
1001
0001
1000
1000
,
0001
0001
1000
1000
,
0001
0001
1000
0001
,
1000
1000
1000
1000
,
1001
1000
0001
0001
,
1000
1000
0001
0001
,
1000
1000
0001
1000
,
0002
0000
0000
0000
,
1003
0010
1000
0001
,
0000
1000
0100
0010
,
0001
1000
0001
0010
,
0000
0100
1000
0001
,
1000
0010
0100
0010
,
0000
1000
0001
0010
,
0100
0010
0100
1000
,
0000
0001
0010
0100
,
2000
0000
3200
0000
,
0310
0010
0010
0010
,
0020
0000
0032
0000
,
1003
1000
1000
0001
,
1001
1000
0001
1000
,
0010
0100
0010
1000
,
0002
1000
0000
1000
,
0000
1000
1003
0100
,
0020
0100
0000
0130
,
2000
0001
0000
3100
,
0010
0002
0000
0010
,
0000
0010
0000
1003
,
1001
0000
1000
1010
,
1001
0000
0001
0011
,
2001
0000
3020
0000
,
0230
0000
0302
0000
,
2000
0000
0000
0000
0000
0000
0000
0003
,
0001
0000
0000
0000
0000
0000
0000
0000
0000
0000
0000
0000
0000
0000
0000
0000
0000
0000
0000
0000
0000
0000
0000
0000
0001
0000
0000
0000
0000
0000
0000
0000
0000
0000
0000
0000
0000
0000
0000
0000
0000
0000
0000
0000
0000
0000
0000
0000
3001
0000
0000
0000
0000
0000
0000
0000
0000
0000
0000
0000
0000
0000
0000
0000
0000
0000
0000
0000
0000
0000
0000
0000
0000
0000
0000
0000
0000
0000
0000
0000
0000
0000
0000
0000
0000
0000
0000
0000
0000
0000
0010
0000
0000
0000
0000
0000
0000
0000
0000
0000
0000
0000
0000
0000
0000
0000
0000
0000
0000
0000
0000
0000
0000
0000
0000
0000
0000
0000
0000
0000
0000
0000
0000
0000
0000
0000
0000
0000
0100
0000
0000
0000
0000
0000
0000
0000
0000
0000
0000
0000
0000
0000
0000
0000
0000
0000
0000
0000
0000
0000
0000
0000
0000
0000
0000
0000
0000
0000
0000
0000
0000
0000
0000
0000
0000
0000
0000
0000
0000
0000
0000
0000
0000
0000
0000
0000
0000
0000
0000
0000
0000
0000
0000
0000
0000
0000
0000
0000
0000
0000
0000
0000
,
0210
0001
1000
0010
,
1300
0001
1000
0010
0100
0001
0100
0010
,
2010
0100
0010
0001
,
3001
1000
0010
0100
0001
1000
0100
0010
,
0012
1000
0010
0103
,
0101
0100
0110
0010
,
2010
0001
0001
0100
,
0100
0000
0001
0000
3010
1000
0010
1000
,
1002
0100
0010
0100
,
1003
0001
0100
0010
1000
0100
0010
0001
,
0021
0100
1000
0100
,
0031
0010
0100
1000
0100
0010
0100
1000
,
2100
0100
3001
1001
,
0202
0303
0001
0100
,
0020
0000
2030
0000
,
0002
0000
0000
3003
,
1000
0001
1000
0001
0000
0000
1000
0001
1000
0001
0000
0000
0100
0010
0000
0000
,
0100
0010
0100
0010
0000
0000
0100
0010
0100
0010
0000
0000
0100
0001
0000
0000
;
