#TITLE:Subject to Change;
#SUBTITLE:Broken Right Hand (MAD);
#ARTIST:Sum 41;
#TITLETRANSLIT:Subject to Change;
#SUBTITLETRANSLIT:Broken Right Hand (MAD);
#ARTISTTRANSLIT:Sum 41;
#GENRE:To Aru ___ no ___ Pack;
#CREDIT:Itsugo15;
#MENUCOLOR:;
#BANNER:Subject to Change-bn.jpg;
#BACKGROUND:Subject to Change-bg.jpg;
#LYRICSPATH:Subject to Change.lrc;
#CDTITLE:Itsugo15 SimifileS.png;
#MUSIC:Subject to Change.mp3;
#OFFSET:-0.215;
#SAMPLESTART:57.688;
#SAMPLELENGTH:30.000;
#SELECTABLE:YES;
#LISTSORT:;
#DISPLAYBPM:196.000;
#BPMS:0.000=98.000,48.000=196.000,416.000=49.000,424.000=98.000,456.000=196.000,520.000=98.000;
#STOPS:;
#TICKCOUNT:0.000=8;
#BGCHANGES:-0.900=Subject to Change.avi=1.000=1=1=0,
99999=-nosongbg-=1.000=0=0=0 // don't automatically add -songbackground-
;
#KEYSOUNDS:;
#ATTACKS:;

//---------------dance-single - Challenge Itsugo15----------------
#NOTES:
     dance-single:
     Challenge Itsugo15:
     Challenge:
     13:
     0.889,1.000,0.490,0.505,0.250:
0000
0000
0000
0000
,
0000
0000
0000
0000
,
0001
0001
0001
0000
0000
0000
0001
0000
0000
0000
0000
0000
1000
0000
0000
0000
,
0001
0000
0000
1000
0000
0000
0001
0000
,
1000
1000
2000
0000
0001
0000
0001
0000
0100
0000
0100
0000
0010
0000
0010
0000
,
3002
0100
0100
0010
0010
1000
1003
1001
,
1001
0001
0010
1000
0010
0100
1000
0001
,
1001
0001
0100
1000
0100
0010
1000
0001
,
1001
0001
1000
0001
0010
0001
1000
0100
1000
0001
1000
0010
1000
0001
0100
0001
,
1000
0010
0001
0010
0100
0001
0100
1000
0100
0001
0010
0100
1000
0100
0010
0001
,
1000
0001
1000
0001
0010
0001
1000
0100
1000
0001
1000
0010
1000
0001
0100
0001
,
1000
0100
0001
0100
0010
0001
0010
0100
1000
0010
0001
0010
1000
0000
0000
0000
,
0010
0100
0001
1000
0100
0010
0100
1000
,
0001
0100
1000
0100
0001
1000
0100
0010
,
0001
0010
1000
0010
0001
0010
0100
1000
,
0001
0010
0100
1000
0100
0010
0001
1000
,
0100
0010
0100
0010
0001
1000
0100
0010
,
0100
1000
0001
0100
1000
0100
0001
1000
,
0100
0000
0010
0000
0001
0000
0010
0000
1000
0000
0010
0000
0001
0000
0010
0100
,
1000
0000
0001
0000
0010
0000
0100
1000
0100
0000
0010
0000
0001
0000
1000
0000
,
1001
1000
0001
0100
0001
1000
0001
0100
,
0001
1000
0001
0100
0001
1000
0001
0010
,
0011
0001
0010
0100
0010
0001
0010
0100
,
0010
0001
0010
0100
0010
0001
1000
0010
,
1010
1000
0010
0100
0010
1000
0010
0100
,
0010
1000
0010
0100
0010
1000
0001
0100
,
0101
0001
0100
0010
1000
0010
0001
0010
,
0100
1000
0100
0001
1000
0100
0010
0001
,
0011
0000
0001
1001
0000
0001
0011
0010
,
0100
1000
1100
0000
1001
0000
0101
0000
,
1010
0000
1000
1001
0000
1000
1010
0010
,
0100
0001
0101
0000
1001
0000
1100
0000
,
0012
0000
1003
1020
0000
0130
0102
0100
,
0103
0010
1000
0001
0010
0100
1000
0100
,
0020
0031
2000
0010
,
3010
1000
0010
1000
0001
1000
0001
0010
0001
0100
0010
0100
0010
0001
0010
0100
,
1000
0001
0100
0010
1000
0001
0010
0022
,
0033
0001
0010
0100
0010
0001
1000
2002
,
3003
0001
1000
0010
0100
0001
0100
1000
,
0100
0001
0010
0100
1000
0001
1000
0010
,
2020
3030
1000
0010
0100
0001
1000
2002
,
3003
1000
0001
0010
0100
1000
0100
2200
,
3300
1000
0100
0010
1000
0010
0001
1000
,
0001
1000
0001
1000
0001
0100
0001
0100
0001
0100
0010
1000
0010
0100
0001
1000
,
0100
0010
0001
1000
0010
0100
0001
0100
,
1000
0100
0001
0010
0100
1000
0001
0010
,
0100
1000
0100
0010
0001
0010
1000
0010
,
0001
1000
0100
0010
0001
0100
0010
1000
,
2020
3030
0010
1000
0100
0010
0001
0022
,
0033
0010
0001
1000
0001
1000
0010
2020
,
3030
1000
0010
0100
0001
1000
0100
0010
,
0001
0010
0100
1000
1100
0000
0101
0000
,
1001
0001
1000
0001
0100
0010
1000
0100
,
0010
0001
1000
0010
0100
0001
0100
1000
,
0100
0000
0001
0000
1000
0000
0100
0000
0010
0000
0001
0000
0010
0000
0100
1000
,
0001
0000
0100
0000
0010
0000
1000
0001
0010
0000
0100
0000
0010
0000
0001
0000
,
0011
0001
0010
0100
1000
0001
0100
0010
,
1000
0010
0100
0010
1000
0001
0010
0100
,
0110
0010
0001
1000
0100
0010
0100
1000
,
0100
0010
0001
1000
0010
0100
0001
1000
,
1001
1000
0100
0001
0100
1000
0100
0010
,
0001
1000
0010
0001
0010
1000
0010
0100
,
0110
0100
0001
0010
0001
0100
0010
1000
,
0100
1000
0010
0100
0001
1000
0100
0010
,
0220
0000
0330
0000
0010
0000
0022
0000
0033
0000
0100
0000
2200
3000
1300
0000
,
0100
0010
0001
0000
0011
0000
0101
0000
,
0220
0000
0330
0000
0010
0000
2020
0000
3030
0000
0100
0000
0202
0003
0301
0000
,
0100
0010
1000
0000
1010
0000
1100
0000
,
0210
0000
1300
1002
0000
0103
0120
0100
,
0130
0010
1000
0001
0010
0100
0010
0001
,
2000
3010
0200
0301
,
0100
0001
0100
0001
1000
0001
1000
0100
1000
0010
0100
0010
0100
1000
0100
0010
,
0001
1000
0010
0100
0001
1000
0100
2200
,
3300
1000
0100
0010
0100
1000
0001
2002
,
3003
1000
0001
0100
0010
1000
0010
0001
,
0010
1000
0100
0010
0001
1000
0001
0100
,
0202
0303
0001
0100
0010
1000
0001
2002
,
3003
0001
1000
0100
0010
0001
0010
0022
,
0033
0001
0010
0100
0001
0100
1000
0001
,
1000
0001
1000
0001
1000
0010
1000
0010
1000
0010
0100
0001
0100
0010
1000
0001
,
0010
0100
1000
0001
0100
0010
1000
0010
,
0001
0010
1000
0100
0010
0001
1000
0100
,
0010
0001
0010
0100
1000
0100
0001
0100
,
1000
0001
0010
0100
1000
0010
0100
0001
,
0202
0303
0100
0001
0010
0100
1000
2200
,
3300
0100
1000
0001
1000
0001
0100
0202
,
0303
0001
0100
0010
1000
0001
0010
0100
,
1000
0100
0010
0001
0011
0000
1010
0000
,
1001
1000
0001
0010
1000
0010
0001
1000
,
0000
0001
1000
0010
0001
0010
1000
0001
,
0000
1000
0100
0010
0001
0010
0100
1000
,
0001
0010
0100
1000
0100
0010
0001
0001
,
0011
0010
0001
0100
0010
1000
0100
0010
,
0000
0001
1000
0010
0100
0001
0100
0010
,
0000
1000
0010
0100
0001
1000
0100
0010
,
0001
0001
1000
1000
2002
0000
0000
3003
,
1001
0001
0100
1000
0100
0001
0010
1000
,
0000
0010
0001
0100
1000
0100
0001
1000
,
0000
0001
0010
0100
0010
0001
1000
0010
,
0100
0010
1000
0001
0010
0010
0100
0100
,
0110
0000
0010
0001
1000
0010
0100
0001
,
0000
0100
0010
1000
0001
0010
0100
1000
,
0000
0100
2200
3300
0022
0033
0202
0303
,
2020
0000
0000
3030
0220
0000
0000
0330
,
2002
0000
0000
0000
0000
0000
0000
3003
0022
0000
1000
0033
2200
0000
0001
3300
,
2002
0000
0000
0000
0000
0000
0000
3003
2020
0000
0100
3030
0202
0000
0010
0303
,
1001
0001
0010
0001
1000
0001
0100
0001
,
0101
0100
0010
1000
1010
0010
1000
0001
,
1001
1000
0010
1000
0001
1000
0100
1000
,
1100
0100
0010
0001
0011
0010
0001
1000
,
1001
0000
1000
0000
0010
0000
0100
0001
0100
0001
0100
0000
0001
0000
1000
0001
,
1000
0001
1000
0000
0100
0000
1000
0100
0010
0001
1000
0010
0100
0001
1000
0100
,
0010
0000
0001
0000
1000
0000
0001
1000
0001
1000
0001
0000
0100
0000
0001
0100
,
0001
0000
0100
0000
0001
0000
0100
0000
0010
0000
1000
0000
0001
0000
0010
0000
0100
1000
0100
0010
0001
0010
0100
1000
0001
0000
0000
0000
1000
0000
0000
0000
,
1001
0001
0100
0010
1000
0001
0010
0022
,
0033
0001
0010
0100
0010
0001
1000
2002
,
3003
0001
1000
0010
0100
0001
0100
1000
,
0100
0001
0010
0100
1000
0001
1000
0010
,
2020
3030
1000
0010
0100
0001
1000
2002
,
3003
1000
0001
0010
0100
1000
0100
2200
,
3300
1000
0100
0010
1000
0010
0001
1000
,
0001
1000
0001
1000
0001
0100
0001
0100
0001
0100
0010
1000
0010
0100
0001
1000
,
0100
0010
0001
1000
0010
0100
0001
0100
,
1000
0100
0001
0010
0100
1000
0001
0010
,
0100
1000
0100
0010
0001
0010
1000
0010
,
0001
1000
0100
0010
0001
0100
0010
1000
,
2020
3030
0010
1000
0100
0010
0001
0022
,
0033
0010
0001
1000
0001
1000
0010
2020
,
3030
1000
0010
0100
0001
1000
0100
0010
,
0001
0010
0100
1000
1100
0000
0101
0000
,
2202
0003
0300
3000
0000
0000
0000
0000
;

//---------------dance-single - Heavy Itsugo15----------------
#NOTES:
     dance-single:
     Heavy Itsugo15:
     Hard:
     10:
     0.690,0.865,0.357,0.373,0.087:
0000
0000
0000
0000
,
0000
0000
0000
0000
,
1000
0010
1000
0000
0000
0000
0000
0000
0000
0000
0000
0000
0000
0000
0000
0000
,
0000
0000
0000
0000
,
0001
0100
0002
0000
1000
0000
1000
0000
1000
0000
1000
0000
1000
0000
1000
0000
,
2003
0001
0001
0001
0001
0001
0001
0001
,
3001
0010
0100
0001
0100
1000
0001
1000
,
0010
0100
1000
0100
0001
0010
0100
1000
,
1100
0000
1000
0000
0010
0000
0100
0001
0000
1000
0100
0000
0010
0000
0001
1000
,
0000
0010
0100
0000
0001
0000
0010
0000
1000
0000
0100
0000
0001
0000
1000
0100
,
0000
0000
0010
0000
0001
0000
1000
0010
0000
0100
0001
0000
0010
0000
0100
1000
,
0000
0001
0100
0000
0010
0000
1000
0000
0001
1000
0010
0100
0001
0000
0000
0000
,
0100
0001
0100
0001
1000
0010
1000
0010
,
1000
0001
1000
0001
0010
0001
0010
0001
,
1000
0100
1000
0100
0010
0100
0010
0100
,
0010
0001
1000
0100
1000
0010
0100
0001
,
0100
0001
0100
0001
0100
0010
0100
0010
,
1000
0010
1000
0010
0100
0001
0100
0001
,
1000
0001
1000
0001
0010
0001
0010
0001
,
1000
0001
0100
0010
1000
0010
0100
0001
,
1000
0001
1000
0001
0000
0001
0000
0010
,
0100
1000
0001
0200
0000
0300
0101
0000
,
0001
0100
0010
1000
0000
1000
0000
0100
,
0010
0001
0000
2000
0000
3001
0000
1001
,
1000
0001
1000
0100
0000
0100
0000
0010
,
0001
1000
0000
0020
0000
0000
0130
0000
,
0100
0001
0100
1000
0000
0100
0001
1000
,
0100
0010
0001
0020
0000
0030
0100
0000
,
0110
0000
0010
0001
0000
0001
2000
0000
,
0000
3000
1001
0000
0110
0000
1001
0000
,
0110
0000
0010
1000
0000
1000
0002
0000
,
0000
0003
1001
0000
0110
0000
1001
0000
,
0110
0000
0010
0001
0000
1000
0020
0000
,
0000
0030
1010
0000
1001
0000
0011
0000
,
0020
0130
0200
0310
,
0010
0001
1000
0001
0010
0001
1000
0001
,
0010
0001
1000
0100
1000
0010
0100
0002
,
0000
0000
0010
0003
0010
0100
0000
0220
,
0000
0330
0010
0000
0100
0000
1000
0010
,
0000
0100
0001
1000
0100
0010
0100
1000
,
0001
0000
1001
0000
1000
0010
0000
2020
,
0000
3030
1000
0000
0001
0010
0000
0022
,
0000
0033
0010
0000
0001
0000
1000
0000
,
0100
0010
0001
1000
0010
0100
0001
1000
,
0100
1000
0100
1000
0001
1000
0001
1000
,
0010
1000
0010
1000
0001
0100
0001
0100
,
0010
0100
0010
1000
0010
0100
0001
1000
,
0100
0010
0001
0010
0100
1000
0001
0100
,
0101
0000
0001
0100
0010
0100
1000
0100
,
0000
0010
1000
0000
1000
0001
0000
2002
,
0000
3003
0002
0003
0010
0000
0001
1000
,
0000
0010
0100
0000
0110
0000
0101
0000
,
0010
1000
0010
1000
0010
0100
0010
0100
,
0001
0100
0001
0100
0010
1000
0010
1000
,
0001
1000
0001
1000
0100
1000
0100
1000
,
0001
1000
0010
0100
0001
0100
0010
1000
,
0001
1000
0001
1000
0000
1000
0000
0100
,
0010
0001
1000
0020
0000
0030
1010
0000
,
1000
0010
0100
0001
0000
0001
0100
0010
,
1000
0001
0010
0200
0000
1300
0000
1100
,
1000
0100
0010
0001
0000
0010
0000
0001
,
1000
0010
0100
0002
0000
0000
0103
0000
,
0010
1000
0010
0100
0000
0001
1000
0001
,
0010
0200
0000
0320
0000
0030
0001
0000
,
0011
0000
0100
1000
0000
1000
0020
0000
,
0000
0030
1010
0000
0110
0000
0101
0000
,
1100
0000
0010
0001
0000
0001
0200
0000
,
0000
0300
0101
0000
0110
0000
1010
0000
,
0101
0000
1000
0100
0000
0010
0002
0000
,
0000
0003
0011
0000
1001
0000
1100
0000
,
2000
3001
0002
1003
,
0001
1000
0001
0100
0001
1000
0001
0100
,
0001
1000
0001
0010
0001
0100
0010
2000
,
0000
0000
0100
3000
0100
0010
0000
0220
,
0000
0330
0100
0000
0010
0000
0001
0100
,
0000
0010
1000
0001
0010
0100
0010
0001
,
1000
0000
1001
0000
0001
0100
0000
0202
,
0000
0303
0001
0000
1000
0100
0000
2200
,
0000
3300
0100
0000
1000
0000
0001
0000
,
0010
0100
1000
0001
0100
0010
1000
0001
,
0010
0001
0010
0001
1000
0001
1000
0001
,
0100
0001
0100
0001
1000
0010
1000
0010
,
0100
0010
0100
0001
0100
0010
1000
0001
,
0010
0100
1000
0100
0010
0001
1000
0010
,
1010
0000
1000
0010
0100
0010
0001
0010
,
0000
0100
0001
0000
0001
1000
0000
2002
,
0000
3003
2000
3000
0100
0000
0010
0001
,
0000
0010
0100
0000
0110
0000
1100
0000
,
1001
0000
0001
0000
0100
0001
0100
0001
,
0000
1000
0000
0100
1000
0100
0010
0001
,
0000
1000
0010
0000
0100
0010
1000
0001
,
0010
0100
1000
0100
0010
0001
0010
0001
,
2000
0000
3010
0100
0001
1000
0100
0020
,
0000
0031
1000
0010
0100
0001
1000
0100
,
0000
0010
0100
1000
0001
0010
0100
0010
,
0001
1000
0001
1000
0002
0000
0000
0000
,
0103
0010
1000
0001
0010
0100
1000
0002
,
0000
1003
0010
0100
1000
0100
0001
0020
,
0000
0031
0100
0010
1000
0100
0010
0001
,
0010
0100
1000
0010
0100
0001
0100
0010
,
2000
0000
3010
0100
0001
1000
0100
0020
,
0000
0130
1000
0001
0100
1000
0100
0002
,
0000
0003
0101
0000
1001
0000
1100
0000
,
0110
0000
0011
0000
,
2002
0000
0000
0000
0000
0000
0000
3003
2020
0000
0000
3030
0202
0000
0000
0303
,
2002
0000
0000
0000
0000
0000
0000
3003
0022
0000
0000
0033
2200
0000
0000
3300
,
1001
0000
0001
0000
1000
0010
1000
0000
0010
0000
1000
0000
0001
0000
0010
0000
,
0011
0000
0010
0000
0001
0010
0001
1000
0001
0000
0010
0000
0100
0000
1000
0000
,
1100
0000
0100
0000
1000
0001
0100
0000
0010
0000
1000
0000
0001
0000
0010
0000
,
0011
0000
0001
0000
1000
0010
0100
0001
0100
0001
1000
0100
1000
0001
0100
0001
,
1000
0000
0001
0000
0100
0000
0010
1000
0000
0001
0010
0000
0100
0000
1000
0001
,
0000
0100
0010
0000
1000
0000
0100
0000
0001
0000
0010
0000
1000
0000
0001
0010
,
0000
0000
0100
0000
1000
0000
0001
0100
0000
0010
1000
0000
0100
0000
0010
0001
,
0000
1000
0010
0000
0100
0000
0001
0000
1000
0001
0010
0100
1000
0000
0000
0000
,
0100
1000
0001
0010
0001
0100
0010
2000
,
0000
0000
0100
3000
0100
0010
0000
0220
,
0000
0330
0100
0000
0010
0000
0001
0100
,
0000
0010
1000
0001
0010
0100
0010
0001
,
1000
0000
1001
0000
0001
0100
0000
0202
,
0000
0303
0001
0000
1000
0100
0000
2200
,
0000
3300
0100
0000
1000
0000
0001
0000
,
0010
0100
1000
0001
0100
0010
1000
0001
,
0010
0001
0010
0001
1000
0001
1000
0001
,
0100
0001
0100
0001
1000
0010
1000
0010
,
0100
0010
0100
0001
0100
0010
1000
0001
,
0010
0100
1000
0100
0010
0001
1000
0010
,
1010
0000
1000
0010
0100
0010
0001
0010
,
0000
0100
0001
0000
0001
1000
0000
2002
,
0000
3003
2000
3000
0100
0000
1000
0001
,
0000
0100
0010
0000
0110
0000
1001
0000
,
0220
0000
0000
0330
0000
0000
0000
0000
;

//---------------dance-single - Beginner Itsugo15----------------
#NOTES:
     dance-single:
     Beginner Itsugo15:
     Beginner:
     4:
     0.083,0.166,0.046,0.020,0.000:
0000
0000
0000
0000
,
0000
0000
0000
0000
,
0000
0000
0000
0000
,
0000
0000
0000
0000
,
0000
0000
0000
0000
,
0000
0000
0000
0000
,
0000
0000
0000
0000
,
0000
0000
0000
0000
,
0010
0000
0000
0000
,
0100
0000
0000
0000
,
0001
0000
0000
0000
,
1000
0000
0000
0000
,
1001
0000
0000
0000
,
1000
0000
0000
0000
,
0100
0000
0000
0000
,
0010
0000
0000
0000
,
0001
0000
0000
0000
,
1000
0000
0000
0000
,
0010
0000
0000
0000
,
0100
0000
0000
0000
,
0001
0000
0000
0000
,
0000
0000
0000
0000
,
0001
0000
0000
0000
,
0000
0000
0000
0000
,
1000
0000
0000
0000
,
0000
0000
0000
0000
,
1000
0000
0000
0000
,
0000
0000
0000
0000
,
1001
0000
0000
0000
,
1000
0000
0000
0000
,
0010
0000
0000
0000
,
0100
0000
0000
0000
,
0001
0000
0000
0000
,
1000
0000
0000
0000
,
0100
0000
0000
0000
,
0020
0000
0000
0000
,
0031
0000
0000
0000
,
1000
0000
0000
0000
,
0001
0000
0000
0000
,
0000
0000
0000
0000
,
0100
0000
0000
0000
,
0010
0000
0000
0000
,
1000
0000
0000
0000
,
0000
0000
0000
0000
,
0001
0000
0000
0000
,
1000
0000
0000
0000
,
0010
0000
0000
0000
,
0000
0000
0000
0000
,
0100
0000
0000
0000
,
0010
0000
0000
0000
,
1000
0000
0000
0000
,
0001
0000
0000
0000
,
1001
0000
0000
0000
,
0001
0000
0000
0000
,
0100
0000
0000
0000
,
0010
0000
0000
0000
,
1000
0000
0000
0000
,
0000
0000
0000
0000
,
1000
0000
0000
0000
,
0000
0000
0000
0000
,
0001
0000
0000
0000
,
0000
0000
0000
0000
,
0001
0000
0000
0000
,
0000
0000
0000
0000
,
1001
0000
0000
0000
,
0001
0000
0000
0000
,
0100
0000
0000
0000
,
0010
0000
0000
0000
,
1000
0000
0000
0000
,
0001
0000
0000
0000
,
0010
0000
0000
0000
,
0200
0000
0000
0000
,
1300
0000
0000
0000
,
0001
0000
0000
0000
,
1000
0000
0000
0000
,
0000
0000
0000
0000
,
0010
0000
0000
0000
,
0100
0000
0000
0000
,
0001
0000
0000
0000
,
0000
0000
0000
0000
,
1000
0000
0000
0000
,
0001
0000
0000
0000
,
0100
0000
0000
0000
,
0000
0000
0000
0000
,
0010
0000
0000
0000
,
0100
0000
0000
0000
,
0001
0000
0000
0000
,
1000
0000
0000
0000
,
1001
0000
0000
0000
,
1000
0000
0000
0000
,
0000
0000
0000
0000
,
0100
0000
0000
0000
,
0000
0000
0000
0000
,
0010
0000
0000
0000
,
0000
0000
0000
0000
,
0001
0000
0100
0000
,
0101
0000
0000
0000
,
0000
0000
0000
0000
,
0100
0000
0000
0000
,
0000
0000
0000
0000
,
0010
0000
0000
0000
,
0000
0000
0000
0000
,
1000
0000
0000
0000
,
0001
0000
0000
0000
,
2002
0000
3003
0000
,
0000
0000
0000
0000
,
1000
0000
0000
0000
,
0001
0000
0000
0000
,
0100
0000
0000
0000
,
0010
0000
0000
0000
,
1000
0000
0000
0000
,
0100
0000
0000
0000
,
0010
0000
0000
0000
,
0001
0000
1000
0000
,
1001
0000
0000
0000
,
1000
0000
0000
0000
,
0001
0000
0000
0000
,
0000
0000
0000
0000
,
0100
0000
0000
0000
,
0010
0000
0000
0000
,
1000
0000
0000
0000
,
0000
0000
0000
0000
,
0001
0000
0000
0000
,
1000
0000
0000
0000
,
0010
0000
0000
0000
,
0000
0000
0000
0000
,
0100
0000
0000
0000
,
0010
0000
0000
0000
,
1000
0000
0000
0000
,
0001
0000
0000
0000
,
1001
0000
0000
0000
;

//---------------dance-single - Easy Itsugo15----------------
#NOTES:
     dance-single:
     Easy Itsugo15:
     Easy:
     6:
     0.107,0.299,0.031,0.031,0.000:
0000
0000
0000
0000
,
0000
0000
0000
0000
,
0000
0000
0000
0000
,
0000
0000
0000
0000
,
1000
0000
0000
0000
,
0001
0000
0000
0000
,
0100
0000
0000
0000
,
0010
0000
0000
0000
,
1000
0000
1000
0000
,
0200
0300
0000
0000
,
0010
0000
0010
0000
,
0002
0000
0003
0000
,
1000
0000
0000
0000
,
0010
0000
0000
0000
,
1000
0000
0000
0000
,
0000
0000
0000
0000
,
0001
0000
0000
0000
,
0100
0000
0000
0000
,
0001
0000
0000
0000
,
0000
0000
0000
0000
,
1000
0000
0000
0000
,
0001
0000
0000
0000
,
1000
0000
0000
0000
,
0000
0000
0000
0000
,
0100
0000
0000
0000
,
0010
0000
0000
0000
,
0100
0000
0000
0000
,
0000
0000
0000
0000
,
1000
0000
0000
0000
,
0001
0000
0000
0000
,
0100
0000
0000
0000
,
0010
0000
0000
0000
,
1000
0000
0000
0000
,
0001
0000
0000
0000
,
0010
0000
0000
0000
,
0200
0000
0000
0000
,
1300
0000
0000
0000
,
1000
0000
0000
0000
,
0001
0000
0000
0000
,
0100
0000
0000
0000
,
0010
0000
0000
0000
,
0010
0000
0000
0000
,
1000
0000
0000
0000
,
0001
0000
0010
0000
,
0011
0000
0000
0000
,
0001
0000
0000
0000
,
1000
0000
0000
0000
,
0100
0000
0000
0000
,
0010
0000
0000
0000
,
0100
0000
0000
0000
,
1000
0000
0000
0000
,
0010
0000
0000
0000
,
1010
0000
0000
0000
,
0010
0000
0000
0000
,
1000
0000
0000
0000
,
0000
0000
0000
0000
,
0001
0000
0000
0000
,
1000
0000
0000
0000
,
0001
0000
0000
0000
,
0000
0000
0000
0000
,
0010
0000
0000
0000
,
0100
0000
0000
0000
,
0010
0000
0000
0000
,
0000
0000
0000
0000
,
0001
0000
0000
0000
,
1000
0000
0000
0000
,
0010
0000
0000
0000
,
0100
0000
0000
0000
,
0001
0000
0000
0000
,
1000
0000
0000
0000
,
0100
0000
0000
0000
,
0020
0000
0000
0000
,
0031
0000
0000
0000
,
0001
0000
0000
0000
,
1000
0000
0000
0000
,
0010
0000
0000
0000
,
0100
0000
0000
0000
,
0100
0000
0000
0000
,
0001
0000
0000
0000
,
1000
0000
0100
0000
,
1100
0000
0000
0000
,
1000
0000
0000
0000
,
0001
0000
0000
0000
,
0010
0000
0000
0000
,
0100
0000
0000
0000
,
0010
0000
0000
0000
,
0001
0000
0000
0000
,
1000
0000
0000
0000
,
1001
0000
0000
0000
,
1000
0000
0000
0000
,
0001
0000
0000
0000
,
0100
0000
0100
0000
,
0010
0000
0000
0000
,
1000
0000
0000
0000
,
0001
0000
0000
0000
,
0010
0000
0010
0000
,
0100
0000
0000
0000
,
1000
0000
0000
0000
,
0001
0000
0000
0000
,
0100
0000
0010
0000
,
1000
0000
0000
0000
,
0001
0000
0000
0000
,
0010
0000
0000
0000
,
0100
0000
1000
0000
,
0002
0000
1000
1000
,
2003
0000
0001
0001
,
3001
0000
0000
0000
,
0010
0000
0100
0000
,
1000
0000
0000
0000
,
0010
0000
0100
0000
,
0001
0000
0000
0000
,
0100
0000
0000
0000
,
0010
0000
0000
0000
,
1000
0000
0000
0000
,
0001
0000
0000
0000
,
0001
0000
0000
0000
,
1000
0000
0000
0000
,
0010
0000
0000
0000
,
0100
0000
0000
0000
,
0100
0000
0000
0000
,
0001
0000
0000
0000
,
1000
0000
0100
0000
,
1100
0000
0000
0000
,
1000
0000
0000
0000
,
0001
0000
0000
0000
,
0010
0000
0000
0000
,
0100
0000
0000
0000
,
0010
0000
0000
0000
,
0001
0000
0000
0000
,
0100
0000
0000
0000
,
0101
0000
0000
0000
;

//---------------dance-single - Medium Itsugo15----------------
#NOTES:
     dance-single:
     Medium Itsugo15:
     Medium:
     8:
     0.495,0.632,0.245,0.061,0.010: // measure 1
0000
0000
0000
0000
,  // measure 2
0000
0000
0000
0000
,  // measure 3
0001
1000
0001
0000
0000
0000
0000
0000
0000
0000
0000
0000
0000
0000
0000
0000
,  // measure 4
0000
0000
0000
0000
,  // measure 5
1000
0001
1000
0000
0010
0000
0000
0000
0010
0000
0000
0000
0010
0000
0000
0000
,  // measure 6
1000
1000
1000
1000
,  // measure 7
0001
0001
0001
0001
,  // measure 8
0010
0100
1000
0001
,  // measure 9
1001
0001
0001
1000
0001
0001
0001
1000
,  // measure 10
0001
0100
0010
1000
0001
0010
0100
1000
,  // measure 11
1000
1000
1000
0001
1000
1000
1000
0001
,  // measure 12
1000
0010
0100
0001
1000
0100
0010
0000
,  // measure 13
0110
0000
0010
0100
0010
0000
0001
0010
,  // measure 14
0001
0000
1000
0001
1000
0001
0100
0010
,  // measure 15
1000
0000
0010
1000
0010
0000
1000
0001
,  // measure 16
1000
0000
0100
1000
0100
0010
0001
1000
,  // measure 17
0010
0000
1000
0001
0010
0000
0001
1000
,  // measure 18
0010
0000
1000
0010
0100
0001
0100
0010
,  // measure 19
1000
0000
0001
0010
0100
0000
1000
0100
,  // measure 20
1000
0100
1000
0001
1000
0001
0100
0010
,  // measure 21
1000
1000
0010
0010
,  // measure 22
1000
0010
1000
0002
0000
0003
0000
0000
,  // measure 23
1000
1000
0100
0100
,  // measure 24
1000
0100
0010
0000
,  // measure 25
0001
1000
0010
0100
,  // measure 26
0001
1000
0100
0010
,  // measure 27
0001
0001
0010
0010
,  // measure 28
0100
1000
0001
0100
0010
0000
1000
0000
,  // measure 29
1010
0010
0010
1000
,  // measure 30
0001
1001
1001
1100
,  // measure 31
1000
0100
0010
0001
,  // measure 32
1000
1001
1001
0101
,  // measure 33
0100
0010
1000
0001
,  // measure 34
0010
0011
1001
1010
,  // measure 35
2000
0000
3002
0000
,  // measure 36
1003
0001
1000
0001
1000
0001
1000
0000
,  // measure 37
0010
0000
0100
0000
0001
0100
0001
0000
,  // measure 38
0100
0000
0010
1000
0100
0000
1000
0100
,  // measure 39
0010
0001
0010
0100
,  // measure 40
0010
0001
1000
0001
,  // measure 41
1001
0000
0001
0000
0100
0001
0100
0000
,  // measure 42
0010
0000
1000
0000
0001
1000
0001
0000
,  // measure 43
0010
0010
0100
0100
,  // measure 44
1000
0100
0010
0001
0010
0100
1000
0001
,  // measure 45
1000
1000
0010
0010
,  // measure 46
0001
0001
0100
1000
,  // measure 47
0001
0001
0100
0100
,  // measure 48
0010
1000
0001
0010
,  // measure 49
0011
0001
1000
0100
,  // measure 50
1100
1000
0010
0100
,  // measure 51
0110
0010
1000
0001
,  // measure 52
0010
0100
0110
0110
,  // measure 53
1001
0000
0001
1000
0100
0000
1000
0001
,  // measure 54
0100
0000
0001
0100
0010
1000
0010
0100
,  // measure 55
0001
0000
1000
0100
0010
0000
0001
0010
,  // measure 56
0001
0010
0001
1000
0001
1000
0010
0100
,  // measure 57
0001
0001
0100
0100
,  // measure 58
0001
0100
0001
2000
0000
3000
0000
0000
,  // measure 59
0001
0001
0010
0010
,  // measure 60
0001
0010
0001
2000
0000
0000
3000
0000
,  // measure 61
1000
0001
0100
0010
,  // measure 62
1000
0010
1000
0000
0010
0000
0100
0000
,  // measure 63
0001
0100
0001
0000
0100
0000
0100
0000
,  // measure 64
0010
1000
0001
0010
0100
0000
1000
0000
,  // measure 65
1100
0100
0100
1000
,  // measure 66
0001
1001
1001
1010
,  // measure 67
0001
0010
0100
1000
,  // measure 68
0001
1001
1001
1010
,  // measure 69
0010
0100
0001
1000
,  // measure 70
0100
1100
1001
0101
,  // measure 71
0002
0000
2003
0000
,  // measure 72
3001
1000
0001
1000
0001
1000
0001
0000
,  // measure 73
0100
0000
0010
0000
1000
0010
1000
0000
,  // measure 74
0010
0000
0100
0001
0010
0000
0001
0010
,  // measure 75
0100
1000
0100
0010
,  // measure 76
0100
1000
0001
1000
,  // measure 77
1001
0000
1000
0000
0010
1000
0010
0000
,  // measure 78
0100
0000
0001
0000
1000
0001
1000
0000
,  // measure 79
0100
0100
0010
0010
,  // measure 80
0001
0010
0100
1000
0100
0010
0001
1000
,  // measure 81
0001
0001
0100
0100
,  // measure 82
1000
1000
0010
0001
,  // measure 83
1000
1000
0010
0010
,  // measure 84
0100
0001
1000
0100
,  // measure 85
1100
1000
0001
0010
,  // measure 86
0011
0001
0100
0010
,  // measure 87
0110
0100
0001
1000
,  // measure 88
0100
0010
0110
0110
,  // measure 89
1001
0001
0001
1000
,  // measure 90
0001
1000
1000
0001
,  // measure 91
1000
1000
0100
0001
,  // measure 92
0100
1000
0001
1000
,  // measure 93
1001
1000
1000
0001
,  // measure 94
1000
0001
0001
1000
,  // measure 95
0001
0010
1000
0010
,  // measure 96
0001
1000
0020
0000
,  // measure 97
0130
0100
0010
0100
,  // measure 98
0010
0010
0100
0010
,  // measure 99
0100
0100
0001
0001
,  // measure 100
1000
1000
0100
0010
,  // measure 101
0001
0001
1000
0010
,  // measure 102
0010
1000
0100
0100
,  // measure 103
0010
0001
1000
0010
,  // measure 104
1010
0000
1001
0000
,  // measure 105
0012
0000
1000
0100
,  // measure 106
2003
0000
0100
0010
,  // measure 107
3001
0001
0100
0100
1000
1000
0100
0100
,  // measure 108
0010
0010
1000
1000
0001
0001
0010
0010
,  // measure 109
0100
0100
0001
0001
0100
0100
1000
1000
,  // measure 110
0001
0001
0100
0100
0010
0010
1000
1000
,  // measure 111
0010
0010
0100
0001
1000
1000
0100
0010
,  // measure 112
0001
0001
1000
0010
0100
0001
1000
0100
,  // measure 113
1000
1000
0100
0010
0001
0001
1000
0010
,  // measure 114
0100
0000
0100
0000
0001
0000
1000
0000
0001
0100
0001
0100
0001
0000
0000
0000
,  // measure 115
0101
0000
0100
0000
0001
0100
0001
0000
,  // measure 116
0100
0000
0010
1000
0100
0000
1000
0100
,  // measure 117
0010
0001
0010
0100
,  // measure 118
0010
0001
1000
0001
,  // measure 119
1001
0000
0001
0000
0100
0001
0100
0000
,  // measure 120
0010
0000
1000
0000
0001
1000
0001
0000
,  // measure 121
0010
0010
0100
0100
,  // measure 122
1000
0100
0010
0001
0010
0100
1000
0001
,  // measure 123
1000
1000
0010
0010
,  // measure 124
0001
0001
0100
1000
,  // measure 125
0001
0001
0100
0100
,  // measure 126
0010
1000
0001
0010
,  // measure 127
0011
0001
1000
0100
,  // measure 128
1100
1000
0010
0100
,  // measure 129
0110
0010
1000
0001
,  // measure 130
0010
0100
0110
1001
,  // measure 131
0220
0000
0000
0000
0000
0330
0000
0000
0000
0000
0000
0000
0000
0000
0000
0000
;
