#TITLE:See visionS;
#SUBTITLE:とある魔術の禁書目録 II 2nd Opening;
#ARTIST:川田まみ;
#TITLETRANSLIT:See Visions;
#SUBTITLETRANSLIT:To Aru Majutsu no Index II 2nd Opening;
#ARTISTTRANSLIT:Kawada Mami;
#GENRE:To Aru ___ no ___ Pack;
#CREDIT:Itsugo15;
#MENUCOLOR:;
#BANNER:See VisionS-bn.jpg;
#BACKGROUND:See VisionS-bg.jpg;
#LYRICSPATH:See VisionS.lrc;
#CDTITLE:Itsugo15 SimifileS.png;
#MUSIC:See VisionS.mp3;
#OFFSET:-0.300;
#SAMPLESTART:83.586;
#SAMPLELENGTH:30.000;
#SELECTABLE:YES;
#LISTSORT:;
#BPMS:0.000=82.000,66.500=41.000,67.250=82.000,69.750=41.000,70.500=82.000,74.500=41.000,75.500=20.500,76.000=164.000,140.000=82.000,142.000=164.000,220.000=82.000;
#STOPS:;
#TICKCOUNT:0.000=8;
#BGCHANGES:31.000=See VisionS.avi=1.000=1=0=0,
220.500=See VisionS-bg.jpg=1.000=1=0=0,
99999=-nosongbg-=1.000=0=0=0 // don't automatically add -songbackground-
;
#KEYSOUNDS:;
#ATTACKS:;

//---------------dance-single - Challenge Itsugo15----------------
#NOTES:
     dance-single:
     Challenge Itsugo15:
     Challenge:
     12:
     0.592,0.726,0.135,0.464,1.000: // measure 1
0000
0000
0000
0000
,  // measure 2
0000
0000
0000
0000
,  // measure 3
0000
0000
0000
0000
,  // measure 4
0000
0000
0000
0000
0000
0000
0000
0000
0000
0000
0000
0000
0000
0000
0000
0000
0000
0000
0000
0000
0000
0000
0000
0000
0000
0000
0000
0000
0000
0000
0000
0000
0000
0000
0000
0000
0000
0000
0000
0000
0000
0000
0000
0000
0000
0000
0000
0000
0000
0000
0000
0000
0000
0000
0000
0000
0000
0000
0000
0000
0000
0000
0000
0001
,  // measure 5
2000
0000
0000
0000
0000
0000
0000
0000
0000
0000
0000
0000
0000
0000
0000
0000
01M0
0000
000M
0000
0M00
0000
00M0
0000
000M
0000
0M00
0000
00M0
0000
0M00
0000
001M
0000
0000
0000
0000
0000
0000
0000
0000
0000
0000
0000
0000
0000
0000
0000
30M1
0000
00M0
0000
0M00
0000
000M
0000
0M00
0000
0M00
0000
00M0
0000
M000
0100
,  // measure 6
00M2
0000
0000
0000
0000
0000
0000
0000
0000
0000
0000
0000
0000
0000
0000
0000
1003
0000
0000
0000
0000
0000
0000
0000
0000
0000
0000
0000
0000
0000
0000
0100
2000
0000
0000
0000
0000
0000
0000
0000
0000
0000
0000
0000
0000
0000
0000
0000
3001
0000
0000
0000
0000
0000
0000
0000
0000
0000
0000
0000
0000
0000
0000
1000
,  // measure 7
0002
0000
0000
0000
0000
0000
0000
0000
0000
0000
0000
0000
0000
0000
0000
0000
M010
0000
0M00
0000
00M0
0000
0M00
0000
M000
0000
0M00
0000
00M0
0000
0000
0000
M100
0000
0000
0000
0000
0000
0000
0000
0000
0000
0000
0000
0000
0000
0000
0000
1M03
0000
00M0
0000
0M00
0000
M000
0000
00M0
0000
0M00
0000
M000
0000
0M00
0010
,  // measure 8
0002
0000
0000
0000
0000
0000
0000
0000
0000
0000
0000
0000
0000
0000
0000
0000
1003
0000
0000
0000
0000
0000
0000
0000
0000
0000
0000
0000
0000
0000
0000
0010
2000
0000
0000
0000
0000
0000
0000
0000
0000
0000
0000
0000
0000
0000
0000
0000
3002
0000
0000
0000
0000
0000
0000
0000
0000
0000
0000
0000
0000
0000
0000
0000
,  // measure 9
1003
0000
0100
0000
0010
0000
0000
0000
0100
0000
1000
0000
0000
0000
0M02
M000
0M00
00M0
0M00
M000
0M00
00M0
0M00
M000
02M0
M000
00M0
M000
00M0
M000
03M3
0000
,  // measure 10
0100
0010
1000
0000
0001
0010
0000
0100
0000
0100
0010
0100
1000
0001
0010
0100
,  // measure 11
1000
0000
0100
0000
0010
0000
0001
0000
1000
0000
20M0
0M00
00M0
000M
0M20
000M
0M00
000M
0M00
000M
0M00
000M
3M30
0000
1000
0000
0000
0000
0000
0000
0000
0000
,  // measure 12
0010
0100
0001
0000
1000
0100
0000
0010
0000
0001
0010
0100
1000
0100
0010
0001
,  // measure 13
1000
0000
0100
0000
1000
0000
0100
0000
0010
0000
0002
0000
0000
0000
1003
0000
0000
0000
0010
0000
0100
0000
0001
0000
1000
0000
0100
0000
MM2M
MM0M
MM3M
MM00
,  // measure 14
MMM2
0000
MMM0
0000
MMM0
0000
M0M0
0000
M2M3
0000
M0M0
0000
M0M0
0000
00M0
0000
23M0
0000
00M0
0000
0MM0
0000
0M00
0000
3M20
0000
0000
0000
0200
0000
000M
0000
M000
0000
000M
0000
M000
0000
000M
0000
M000
0000
000M
0000
M000
0000
000M
0000
M000
0000
000M
0000
M000
0000
000M
0000
M330
0000
0000
0000
0000
0000
0000
0010
,  // measure 15
0001
0000
0010
0000
0001
0000
0010
0000
0001
0000
1000
0000
0000
0000
0010
0000
0000
0000
0001
0000
0010
0000
1000
0000
0010
0000
0002
0000
0000
0000
0013
1000
,  // measure 16
00M2
0MM0
MMM0
MM00
MM23
MM00
MM0M
M00M
M23M
M00M
M0MM
00MM
23MM
00MM
02MM
00MM
30MM
000M
M32M
M00M
MM0M
MM00
MM32
MM00
MMM0
MMM0
MMM3
0000
0000
0000
0000
0001
,  // measure 17
0010
0000
0000
0000
0000
0000
0000
0000
0000
0000
0000
0000
0100
0000
0000
0000
0000
0000
0000
0000
0000
0000
0000
0000
1000
0000
0000
0000
0000
0000
0000
0000
0000
0000
0000
0000
0100
0000
0000
0000
0000
0000
0000
0000
0000
0000
0000
0000
0000
0000
0000
0000
0000
0000
0000
0000
0000
0000
0000
0000
0010
0000
0000
0000
0000
0000
0000
0000
0000
0000
0000
0000
0001
0000
0000
0000
0000
0000
0000
0000
0000
0000
0000
0000
1000
0000
0000
0000
0000
0000
0000
0000
0000
0000
0000
0000
0000
0000
0000
0000
0000
0000
0000
0000
0000
0000
0000
0000
0010
0000
0000
0000
0000
0000
0000
0000
0000
0000
0000
0000
0M2M
0000
0000
0000
0000
0000
0M0M
0000
0000
0000
0000
0000
MM0M
0000
0000
0000
0000
0000
MM0M
0000
0000
0000
0000
0000
MM3M
0000
0000
0000
0000
0000
0000
0000
1000
0000
0000
0000
0010
0000
0000
0000
0000
0000
0000
0000
0000
0000
0000
0000
0100
0000
0000
0000
0000
0000
0000
0000
0000
0000
0000
0000
0001
0000
0000
0000
0000
0000
0000
0000
0000
0000
0000
0000
,  // measure 18
0100
0000
0000
0000
0000
0000
0000
0000
0000
0000
0000
0000
0000
0000
0000
0000
0000
0000
0000
0000
0000
0000
0000
0000
0010
0000
0000
0000
0000
0000
0000
0000
0000
0000
0000
0000
1000
0000
0000
0000
0000
0000
0000
0000
0000
0000
0000
0000
0001
0000
0000
0000
0000
0000
0000
0000
0000
0000
0000
0000
0000
0000
0000
0000
0000
0000
0000
0000
0000
0000
0000
0000
0010
0000
0000
0000
0000
0000
0000
0000
0000
0000
0000
0000
MM20
0000
0000
0000
0000
0000
MM00
0000
0000
0000
0000
0000
MM0M
0000
0000
0000
0000
0000
MM0M
0000
0000
0000
0000
0000
MM3M
0000
0000
0000
0000
0000
0000
0000
0010
0000
0000
0000
0001
0000
0000
0000
0000
0000
0000
0000
0000
0000
0000
0000
1000
0000
0000
0000
0000
0000
0000
0000
0000
0000
0000
0000
0100
0000
0000
0000
0000
0000
0000
0000
0000
0000
0000
0000
0010
0000
0000
0000
0000
0000
0000
0000
0000
0000
0000
0000
0000
0000
0000
0000
0000
0000
0000
0000
0000
0000
0000
0000
0001
0000
0000
0000
0000
0000
0000
0000
0000
0000
0000
0000
,  // measure 19
1000
0000
0010
0000
0000
0000
0100
0000
M20M
M00M
M00M
M00M
M0MM
M0MM
M3MM
0000
0101
0000
0000
0000
MMM2
MMM0
MMM0
MMM0
MMM0
MMM0
MMM0
MMM0
2MM0
0MM0
0MM0
3MM3
,  // measure 20
1001
0001
0010
0100
1000
0010
0001
0010
,  // measure 21
1000
0001
0100
0010
1000
0010
0100
0001
,  // measure 22
1000
1000
0100
0100
0010
0010
0001
0001
,  // measure 23
0010
0001
0100
0010
1000
0100
0010
0100
1000
0100
0010
0001
0100
0010
1000
0100
,  // measure 24
0010
0001
1000
0100
0010
0001
0010
1000
,  // measure 25
0010
0000
0001
0000
0010
0000
0100
0000
1000
0000
0001
0000
0010
0000
0100
0010
,  // measure 26
0001
0001
1000
1000
0010
0010
0100
0100
,  // measure 27
0001
0100
0010
1000
0100
0010
0100
1000
0100
0010
0001
0100
0010
1000
0010
0100
,  // measure 28
0001
0002
0103
0200
0310
0020
1030
2000
,  // measure 29
3001
0002
0023
0001
0001
0001
0001
0031
,  // measure 30
0001
0002
1003
2000
3010
0020
0130
0200
,  // measure 31
0001
0001
0001
0001
0010
0010
0310
1000
,  // measure 32
1010
1000
0001
1001
0000
0011
0000
0110
,  // measure 33
0000
0100
1000
0000
4400
0000
0000
3300
,  // measure 34
1100
0100
0110
0010
0011
0001
0101
0100
,  // measure 35
0110
0010
1010
0010
0110
0010
0011
0010
,  // measure 36
M22M
M00M
M00M
M00M
M00M
M00M
M00M
M00M
M00M
M00M
M00M
M00M
M00M
M00M
M00M
M00M
M30M
M00M
M00M
M00M
MM0M
M00M
M00M
M00M
M23M
M00M
M00M
M00M
M00M
M00M
M00M
M00M
M31M
0000
0000
0000
0000
0000
0000
0000
1000
0000
0000
0000
0000
0000
0000
0000
0001
0000
0000
0000
0000
0000
0000
0000
0010
0000
0000
0000
0000
0000
0000
0000
,  // measure 37
0100
1000
0001
0100
0010
0001
0010
1000
,  // measure 38
0001
0010
0100
1000
0100
0010
0001
1000
,  // measure 39
0010
0001
0010
0100
0001
0100
1000
0100
,  // measure 40
0010
1000
0001
0010
0100
0010
1000
0020
,  // measure 41
0000
0031
0000
1000
0010
1000
0001
0020
,  // measure 42
0000
1030
0010
0001
1000
0010
0001
0010
,  // measure 43
0100
1000
0100
0001
1000
0100
0001
0100
,  // measure 44
1000
0001
0010
0100
1000
0001
1000
0100
,  // measure 45
0010
0001
1000
0010
0100
1000
0100
0001
,  // measure 46
1000
0100
0010
0001
0010
0100
1000
0001
,  // measure 47
0100
1000
0100
0010
1000
0010
0001
0010
,  // measure 48
0100
0001
1000
0100
0010
0100
0001
0200
,  // measure 49
0000
1300
0000
0001
0100
0001
1000
0200
,  // measure 50
0000
0301
0100
1000
0001
0100
1000
0200
,  // measure 51
0000
0310
1000
0001
0010
0100
1000
0200
,  // measure 52
0000
0310
0001
1000
0010
0001
0010
1000
,  // measure 53
0100
0001
0100
1000
0001
0010
0100
1000
,  // measure 54
0100
0000
0000
0000
0010
0000
0000
0000
0001
0000
0000
0000
1000
0000
0000
0000
02MM
00MM
00MM
00MM
00MM
00MM
00MM
00MM
00MM
M0MM
M0MM
M0MM
M0MM
M0MM
M0MM
M0MM
,  // measure 55
M0MM
M0MM
M0MM
M0MM
M0MM
M0MM
M0MM
M0MM
M0MM
M0MM
M0MM
M0MM
M0MM
M0MM
M0MM
M000
M32M
M00M
MM0M
MM0M
MM0M
MM0M
MM0M
MM0M
MM0M
MM0M
MM0M
MM0M
MM0M
MM0M
MM0M
MM00
,  // measure 56
MM31
1000
0100
0010
0004
0000
0000
0103
0000
0000
0000
0000
0000
0000
0000
0000
;

//---------------dance-single - Heavy Itsugo15----------------
#NOTES:
     dance-single:
     Heavy Itsugo15:
     Hard:
     9:
     0.537,0.726,0.118,0.448,0.241:
0000
0000
0000
0000
,
0000
0000
0000
0000
,
0000
0000
0000
0000
,
0000
0000
0000
0000
,
2100
0000
0000
0000
3002
0000
0000
0000
0203
0000
0000
0000
0320
0000
0000
0030
,
0210
0000
0000
0000
0302
0000
0000
0003
0201
0000
0000
0000
0302
0000
0000
0003
,
2001
0000
0000
0000
3200
0000
0000
0000
0320
0000
0000
0000
0032
0000
0000
0003
,
0021
0000
0000
0000
0230
0000
0000
0300
2100
0000
0000
0000
3002
0000
0000
0000
,
1003
0010
1000
0000
0010
0100
0000
0020
0000
0000
0000
0000
0000
0000
0030
0000
,
1000
0010
1000
0000
0001
0010
0000
0100
0000
0010
0001
1000
0001
0010
0001
1000
,
0001
0010
0001
0000
0100
0100
0000
0020
0000
0000
0000
0000
0000
0000
0030
0000
,
1000
0010
1000
0000
0001
1000
0000
0200
0000
0000
0000
0000
0000
0000
0300
0000
,
1100
0000
0100
0010
0001
1000
0000
0010
0000
1000
0010
0100
0010
1000
0010
0000
,
0200
0000
0302
0000
0203
0000
0320
2000
0030
0000
0000
0000
0000
0000
3000
0000
,
1010
0000
1000
0000
0010
0000
0100
0000
0010
0000
1000
0000
0000
0000
0100
0000
0000
0000
0010
0000
0100
0000
1000
0000
0100
0000
0010
0000
0000
0000
0001
0010
,
0002
0000
0203
0000
0320
0000
2030
0200
3000
0320
0000
0002
0000
0033
0000
0001
,
1000
0000
0100
0000
0010
0000
0001
0000
0000
0000
1000
0000
0010
0000
0100
0000
0000
0000
0001
0000
0002
0000
0000
0000
0000
0103
0010
0000
1000
0000
0001
0000
,
0010
0000
0000
0000
0100
0000
1000
0000
0001
0000
0000
0000
1000
0000
2000
0000
0000
0000
0000
3001
0100
0000
0010
0000
1000
0000
0001
0000
0000
0000
0010
0000
,
0100
0000
0010
0000
0000
0000
0001
0000
2000
0000
0000
0000
0000
0000
0000
0000
3020
0000
0000
0000
0200
0000
0000
0000
0000
0000
0000
0000
0000
0000
0000
0330
,
0110
0000
0010
1000
0001
0010
0001
0010
,
0100
1000
0100
0010
0100
1000
0100
1000
,
0100
0001
0100
1000
0001
0100
1000
0100
,
0001
0100
0010
1000
0001
0010
0100
1000
,
1100
1000
0100
0010
0001
0100
0001
0010
,
0100
0000
1000
0000
0010
0000
0100
0000
0010
0000
1000
0000
0001
0000
1000
0001
,
1000
0010
0100
0010
1000
0001
0010
0100
,
0010
0001
1000
0100
0010
0001
0010
0100
,
1000
0100
1000
0100
0000
0010
0001
2000
,
0000
0001
3001
0100
0001
1000
0001
0100
,
0010
1000
0001
0010
0000
0001
1000
0020
,
0000
0100
0130
0010
1000
0010
0100
0010
,
0110
0000
0100
0101
0000
1001
0000
1100
,
0000
0010
0002
0000
4000
0000
0000
0003
,
3001
1000
0010
0100
0001
1000
0100
0010
,
0001
0010
0100
1000
0001
0010
0100
1000
,
0002
0000
0000
0000
0000
0000
2003
00M0
3M10
0000
0100
0000
0010
0000
0001
0000
,
0010
1000
0001
0010
0001
1000
0001
0100
,
0010
0001
0010
0100
0010
1000
0001
0100
,
0010
1000
0001
0010
0100
1000
0100
0010
,
0001
1000
0001
0100
0010
1000
0001
0020
,
0000
2030
0000
3010
0001
0100
0010
0002
,
0000
0023
0000
0130
0001
1000
0100
0010
,
0100
1000
0001
0010
0100
1000
0100
0010
,
0001
1000
0100
0010
0100
0010
0100
1000
,
0100
0001
1000
0100
1000
0001
1000
0010
,
0100
1000
0100
0010
0100
0001
1000
0010
,
0100
0001
1000
0100
0010
0001
0010
0100
,
1000
0001
1000
0010
0100
0001
1000
0200
,
0000
0302
0000
0103
1000
0010
0100
2000
,
0000
3200
0000
0310
1000
0001
0010
0100
,
0010
0001
1000
0100
0010
0001
0010
0100
,
1000
0001
0010
0100
1000
0100
1000
0100
,
1000
0100
0010
0001
0010
0100
1000
0001
,
0100
0010
1000
0100
0020
0000
0000
0000
,
0000
0000
0032
0000
,
1003
0010
0100
0004
0000
0000
0000
0103
0000
0000
0000
0000
0000
0000
0000
0000
;

//---------------dance-single - Medium Itsugo15----------------
#NOTES:
     dance-single:
     Medium Itsugo15:
     Medium:
     7:
     0.439,0.609,0.118,0.321,0.186:
0000
0000
0000
0000
,
0000
0000
0000
0000
,
0000
0000
0000
0000
,
0000
0000
0000
0000
,
2000
0000
0000
0000
,
3002
0000
2003
0000
,
3020
0000
0000
0000
,
0230
0000
0320
0000
,
1030
0010
1000
0010
1000
0010
0000
1000
0000
0000
0000
0000
0000
0000
0000
0000
,
0002
0000
0203
0000
,
0301
0100
0001
0100
0001
0100
0000
0001
0000
0000
0000
0000
0000
0000
0000
0000
,
2000
0000
0000
0000
0200
0000
0000
3300
,
1100
0000
1000
0001
1000
0001
0000
0100
0000
0001
0100
0001
0100
0010
1000
0000
,
0002
0000
0023
0000
0230
0000
1300
0002
0000
0000
0000
0000
0003
0000
0000
0000
,
1001
0000
0001
1000
0010
0100
0000
0010
0000
0100
0010
0100
0010
0100
0000
0002
,
1003
0000
0100
0000
0010
0000
0001
1000
0000
0001
0000
0200
0000
0000
0300
0001
,
0100
0000
0001
0000
0100
0000
0010
0000
0000
0000
0100
0000
0010
0000
0100
0000
0000
0000
0010
0000
1000
0000
0000
0000
0000
1000
0010
0000
1000
0000
0010
0000
,
1000
0000
0000
0000
0010
0000
0100
0000
0010
0000
0000
0000
0100
0000
0001
0000
0000
0000
0000
1000
0001
0000
1000
0000
0001
0000
0010
0000
0000
0000
0001
0000
,
0010
0001
0000
0010
0100
0000
0000
0000
1000
0000
0002
0000
0000
0000
0000
0000
,
1003
0001
1000
0001
0100
0001
0100
0001
,
1000
0001
1000
0001
1000
0100
1000
0100
,
0020
0032
0203
0320
,
1000
0100
0001
0100
,
1030
0010
1000
0010
1000
0001
1000
0001
,
0010
0001
0010
0001
1000
0001
1000
0001
,
0200
0320
2030
3002
,
0010
1000
0100
1000
,
0013
0001
0010
0001
0000
1000
0010
1000
,
0000
0001
0002
0000
1000
0000
1003
0000
,
0001
1000
0001
1000
0000
0010
0100
0010
,
0000
1000
2000
0000
0001
0000
3001
0000
,
1001
0000
0000
0001
0000
0100
0000
0101
,
0000
0100
0010
0110
,
1010
1010
1001
1001
,
0011
0011
0110
0011
,
1001
0000
0000
0000
1000
0001
1000
0001
,
1000
0010
1000
0010
1000
0001
1000
0001
,
0010
0001
0010
0001
1000
0001
1000
0001
,
0100
0010
1000
0001
0010
0001
0010
0001
,
1000
0100
1000
0100
0010
0001
0020
0001
,
0000
0031
0000
0001
0010
0001
1000
0002
,
0000
1003
0000
0001
1000
0001
1000
0001
,
0100
0010
0100
0010
1000
0001
1000
0001
,
1000
0100
1000
0100
1000
0001
1000
0001
,
1000
0010
1000
0010
1000
0001
1000
0001
,
0010
0001
0010
0001
1000
0001
1000
0001
,
0100
0010
1000
0001
0010
0001
0010
0001
,
1000
0100
1000
0100
0010
0001
0010
0002
,
0000
1000
0000
1003
0001
1000
0001
2000
,
0000
3001
0000
1000
0001
1000
0001
1000
,
0010
1000
0010
0100
0001
0100
0001
1000
,
0001
1000
0001
0010
0200
0000
1000
0000
,
0010
0001
0010
2300
,
3002
0203
0320
0000
,
0000
0000
0230
0000
,
0310
1000
0001
0400
0000
0000
0000
0300
0000
0000
0000
0000
0000
0000
0000
0000
;

//---------------dance-single - Easy Itsugo15----------------
#NOTES:
     dance-single:
     Easy Itsugo15:
     Easy:
     5:
     0.176,0.234,0.068,0.177,0.013:
0000
0000
0000
0000
,
0000
0000
0000
0000
,
0000
0000
0000
0000
,
0000
0000
0000
0000
,
2000
0000
0000
0000
,
3002
0000
2003
0000
,
3002
0000
0000
0000
,
2003
0000
3002
0000
,
0103
0010
0000
0000
,
1000
0001
0001
1000
,
0100
0010
0010
0000
,
0001
0100
0010
2000
,
3001
0000
0000
0000
,
1000
0000
0100
0000
,
0010
0000
0000
0000
,
0001
0000
0100
0000
,
0010
0000
0000
0000
0010
0000
0000
0000
2000
0000
0000
0000
3000
0001
0000
0000
,
0000
0001
0000
0000
0000
0020
0000
0000
0000
0030
0100
0000
0000
0000
0100
0000
,
0000
2000
0000
0000
0000
0002
0000
3003
,
1001
0000
1000
0000
,
0010
0000
0100
0000
,
0001
0001
1000
1000
,
0100
0100
0010
0001
,
1000
0000
0100
0000
,
0010
0000
0001
0000
,
1000
1000
0010
0010
,
0100
0100
0001
1000
,
0100
0000
0100
0000
,
0020
0000
0031
0000
,
1000
0000
1000
0000
,
0020
0000
0130
0000
,
0110
0000
0010
0000
,
1010
0000
1000
0000
,
1001
0000
0011
0000
,
1001
0000
1010
0000
,
1001
0000
1000
0000
,
0100
0000
0010
0000
,
0100
0000
1000
0000
,
0001
0000
0100
0000
,
0010
0000
2000
0000
,
0001
3002
0000
0000
,
1003
1000
0001
0000
,
0010
0000
0100
0000
,
1000
0000
1000
0000
,
0001
0000
0100
0000
,
0010
0000
1000
0000
,
0001
0000
0010
0000
,
0100
0000
2000
0000
,
0100
3200
0000
0000
,
0010
0310
0001
0000
,
1000
0000
0010
0000
,
0100
0000
0002
0000
,
0000
0000
0103
0000
,
0010
0000
2000
0000
,
0000
0000
3002
0000
,
1003
0002
0003
0000
;

//---------------dance-single - Beginner Itsugo15----------------
#NOTES:
     dance-single:
     Beginner Itsugo15:
     Beginner:
     3:
     0.089,0.117,0.017,0.059,0.008:
0000
0000
0000
0000
,
0000
0000
0000
0000
,
0000
0000
0000
0000
,
0000
0000
0000
0000
,
0001
0000
0000
0000
,
1000
0000
1000
0000
,
0100
0000
0000
0000
,
0010
0000
0010
0000
,
0002
0000
0000
0000
,
1003
0000
1000
0000
,
2000
0000
0000
0000
,
0001
0000
0002
0000
,
3003
0000
0000
0000
,
1000
0000
0100
0000
,
0010
0000
0000
0000
,
0001
0000
0100
0000
,
0010
0000
0000
0000
0000
0000
0000
0000
0000
0000
0000
0000
0000
1000
0000
0000
,
0000
0000
0000
0000
0000
0001
0000
0000
0000
0000
0010
0000
0000
0000
0000
0000
,
0000
0000
0000
0000
0000
0200
0000
0000
,
1300
0000
0000
0000
,
0001
0000
0000
0000
,
0100
0000
0000
0000
,
0100
0000
0000
0000
,
0010
0000
0000
0000
,
1000
0000
0000
0000
,
0001
0000
0000
0000
,
0001
0000
0000
0000
,
0010
0000
0000
0000
,
0010
0000
0000
0000
,
0100
0000
0000
0000
,
0100
0000
0000
0000
,
0110
0000
0000
0000
,
0010
0000
0000
0000
,
0001
0000
0000
0000
,
1000
0000
0000
0000
,
1001
0000
1000
0000
,
0000
0000
0001
0000
,
0000
0000
0100
0000
,
0000
0000
0010
0000
,
0000
0000
1000
0000
,
1000
0000
0001
0000
,
0001
0000
1000
0000
,
0001
0000
1000
0000
,
0001
0000
1000
0000
,
0000
0000
0100
0000
,
0000
0000
0010
0000
,
0000
0000
0001
0000
,
0000
0000
1000
0000
,
1000
0000
0001
0000
,
0001
0000
0100
0000
,
0000
0000
0010
0000
,
0000
0000
2000
0000
,
3000
0000
0001
0000
,
0000
0000
0200
0000
,
0000
0000
0000
0000
,
0020
0000
0330
0000
;
