#TITLE:Oath of Soul;
#SUBTITLE:;
#ARTIST:Sound Holic;
#TITLETRANSLIT:;
#SUBTITLETRANSLIT:;
#ARTISTTRANSLIT:;
#GENRE:;
#CREDIT:Itsugo15;
#MENUCOLOR:;
#BANNER:Oath of Soul - bn copy.png;
#BACKGROUND:Oath of Soul - bg.png;
#LYRICSPATH:Oath of Soul.lrc;
#CDTITLE:Itsugo15 SimifileS.png;
#MUSIC:oath of soul.ogg;
#OFFSET:0.960;
#SAMPLESTART:57.860;
#SAMPLELENGTH:30.000;
#SELECTABLE:YES;
#LISTSORT:;
#BPMS:0.000=147.000;
#STOPS:;
#TICKCOUNT:0.000=2;
#BGCHANGES:1.500=Oath of Soul.avi=1.000=1=0=1,
99999=-nosongbg-=1.000=0=0=0 // don't automatically add -songbackground-
;
#KEYSOUNDS:;
#ATTACKS:;

//---------------dance-single - Itsugo15----------------
#NOTES:
     dance-single:
     Itsugo15:
     Hard:
     8:
     0.546,0.575,0.315,0.384,0.192:
0000
0000
0000
0000
,
0000
0000
0000
0000
,
0000
0000
0000
0000
,
0000
0000
0000
0000
,
0000
0000
0000
0000
,
0000
0000
0002
0000
,
0000
0000
0000
0000
,
0000
0000
0000
0000
,
0000
0000
0003
1000
,
1000
0000
0000
1000
0000
0000
1000
0000
0000
1000
0001
1000
,
0001
0000
0000
0000
1000
0000
0000
0000
0000
0001
0000
0000
0000
0000
0000
0010
0000
0000
0000
0000
0000
0000
0000
0000
0000
0000
0000
0000
0000
0000
0000
0000
0000
0000
0000
0000
0000
0000
0000
0000
0000
0000
0000
0000
0000
0000
0000
0000
,
0011
0000
0010
0001
0010
0001
0010
0100
,
1000
0001
0100
0000
0010
0000
1000
0000
,
1010
0000
0010
1000
0010
1000
0010
0100
,
0002
0000
0100
1003
,
1001
0000
1000
0100
0010
0002
0010
0013
,
0011
0000
0001
0010
0100
2000
0100
3100
,
2200
3300
2002
3003
,
0101
0220
0000
0330
,
1010
0000
1000
0010
1000
0010
1000
0010
,
0100
0001
0200
0000
0302
0000
1003
0000
,
1001
0000
0001
1000
0001
1000
0100
0010
,
0002
0000
0010
1003
,
1001
0000
1000
0010
0100
0002
0100
0103
,
0101
0000
0001
0100
0010
2000
0010
3010
,
2020
0000
3030
0000
0100
0000
0101
0100
,
0110
0010
2010
0000
0010
0000
0001
0000
,
3010
1000
0010
0100
0010
0001
0010
0100
,
0010
1000
0001
1000
0100
1000
0001
1000
,
0010
0010
0000
0000
0100
0100
0000
0110
,
0101
0000
0001
0000
0100
0001
1000
0010
,
1010
0000
1000
0000
0001
0000
0010
0000
0100
0000
0000
0010
0000
0000
0001
0000
,
1000
0000
1001
0000
0101
0000
0001
0100
,
0002
0000
0000
0000
0003
0000
0001
0000
0010
0000
0000
0100
0000
0000
0010
0000
,
0001
0001
0010
0010
0100
0100
1000
1000
,
0100
0010
0001
0100
0010
1000
0001
1000
,
0002
0000
0000
0000
1003
0000
0010
0000
0100
0000
0000
0010
0000
0000
1000
0000
,
0002
0000
0000
0000
0013
0000
0100
0000
1000
0000
0000
0100
0000
0000
0010
0000
,
0002
0000
0000
0000
1003
0000
0010
0000
0100
0000
0000
0001
0000
0000
0100
0000
,
0010
0000
1000
0001
0010
0100
1000
0100
,
0020
0001
1000
0032
,
0203
0320
2030
3002
,
2003
0000
0000
0000
3001
0000
0100
0000
0010
0000
0000
0100
0000
0000
0001
0000
,
2000
0000
0000
0000
3100
0000
0010
0000
0001
0000
0000
0010
0000
0000
0100
0000
,
2000
0000
0000
0000
3001
0000
0100
0000
0010
0000
0000
1000
0000
0000
0010
0000
,
0100
0000
0001
1000
0100
0010
0001
0010
,
0200
1000
0001
1300
,
1000
0000
0000
0000
0100
0000
0000
0000
0010
0000
0000
0000
0001
0000
0000
0000
0000
0000
1000
0000
0000
0000
0000
0000
0010
0000
0000
0000
0000
0000
0000
0000
0000
1000
0000
0000
0000
0000
0000
0000
0000
0000
0001
0000
0000
0000
0000
0000
,
0012
0000
0000
0000
1003
0000
0010
0000
0100
0000
0000
0010
0000
0000
1000
0000
,
1002
0000
0000
0000
0013
0000
0100
0000
1000
0000
0000
0100
0000
0000
0010
0000
,
0012
0000
0000
0000
1003
0000
0010
0000
0100
0000
0000
0001
0000
0000
0100
0000
,
0110
0000
1000
0001
0010
0100
1000
0100
,
0020
0001
1000
0032
,
0203
0320
2030
3001
,
2100
0000
0000
0000
3001
0000
0100
0000
0010
0000
0000
0100
0000
0000
0001
0000
,
2001
0000
0000
0000
3100
0000
0010
0000
0001
0000
0000
0010
0000
0000
0100
0000
,
2100
0000
0000
0000
3001
0000
0100
0000
0010
0000
0000
1000
0000
0000
0010
0000
,
0110
0000
0001
1000
0010
0100
0001
0100
,
0020
1000
0001
1030
,
0001
0000
0000
0000
0010
0000
0000
0000
0100
0000
0000
0000
1000
0000
0000
0000
0000
0000
0001
0000
0000
0000
0000
0000
0010
0000
0000
0000
0000
0000
0000
0000
0000
0100
0000
0000
0000
0000
0000
0000
0000
0000
1000
0000
0000
0000
0000
0000
,
1100
0000
0000
0000
1000
0000
0010
0000
0100
0000
0000
0010
0000
0000
1000
0000
,
1010
0000
0000
0000
0010
0000
0100
0000
0001
0000
0000
1000
0000
0000
0100
0000
,
1100
0000
0000
0000
1000
0000
0100
0000
0010
0000
0000
0001
0000
0000
1000
0000
,
1001
0000
1000
0001
0010
0100
1000
0100
,
1100
0000
0000
0000
0001
0000
0100
0000
0010
0000
0000
0100
0000
0000
0001
0000
,
0101
0000
0000
0000
0100
0000
0010
0000
1000
0000
0000
0001
0000
0000
0010
0000
,
0011
0000
0000
0000
0001
0000
1000
0000
0010
0000
0000
1000
0000
0000
0001
0000
,
1001
0000
0001
1000
0100
0010
0001
0010
,
0100
1000
0100
1000
0100
0010
0001
0010
0001
0010
0100
1000
,
0100
0000
0000
0000
0000
0010
0000
0000
0000
0000
0000
0001
0000
0000
0000
0000
0000
1000
0000
0000
0000
0000
0000
0010
0000
0000
0000
0000
0000
0100
0000
0000
0000
0000
0000
0002
0000
0000
0000
0000
0000
0000
0000
0000
0000
0000
0000
0000
,
0000
0000
0000
0000
,
0003
0000
0000
0000
;

//---------------dance-single - Itsugo15----------------
#NOTES:
     dance-single:
     Itsugo15:
     Beginner:
     1:
     0.077,0.149,0.009,0.000,0.000:
0000
0000
0000
0000
,
0000
0000
0000
0000
,
0000
0000
0000
0000
,
0000
0000
0000
0000
,
0000
0000
0000
0000
,
0000
0000
0000
0000
,
0000
0000
0000
0000
,
0000
0000
0000
0000
,
0000
0000
0000
0000
,
0000
0000
0000
0000
,
0000
0000
0000
0000
,
0010
0000
0000
0000
,
1000
0000
0000
0000
,
0100
0000
0000
0000
,
1000
0000
0000
0000
,
1000
0000
0000
0000
,
0001
0000
0000
0000
,
0100
0000
0000
0000
,
0010
0000
0000
0000
,
0010
0000
0000
0000
,
1000
0000
0000
0000
,
0001
0000
0000
0000
,
1000
0000
0000
0000
,
1000
0000
0000
0000
,
0100
0000
0000
0000
,
0010
0000
0000
0000
,
0001
0000
0000
0000
,
0001
0000
0000
0000
,
0010
0000
0000
0000
,
0001
0000
0001
0000
,
1000
0000
0000
0000
,
0010
0000
0000
0000
,
0100
0000
0000
0000
,
0010
0000
0000
0000
,
1000
0000
0000
0000
,
0001
0000
0000
0000
,
1000
0000
0000
0000
,
1000
0000
0000
0000
,
0100
0000
0000
0000
,
0100
0000
0000
0000
,
0010
0000
0000
0000
,
0001
0000
0000
0000
,
0100
0000
0000
0000
,
0100
0000
0000
0000
,
0010
0000
0000
0000
,
0010
0000
0000
0000
,
1000
0000
0000
0000
,
0001
0000
0000
0000
,
0001
0000
0000
0000
,
0001
0000
0000
0000
,
0010
0000
0000
0000
,
0010
0000
0000
0000
,
0100
0000
0000
0000
,
1000
0000
0000
0000
,
0010
0000
0000
0000
,
0010
0000
0000
0000
,
0100
0000
0000
0000
,
0100
0000
0000
0000
,
0001
0000
0000
0000
,
1000
0000
0000
0000
,
0100
0000
0000
0000
,
0100
0000
0000
0000
,
0100
0000
0000
0000
,
0100
0000
0000
0000
,
0010
0000
0000
0000
,
0010
0000
0000
0000
,
0010
0000
0000
0000
,
0010
0000
0000
0000
,
0001
0000
1000
0000
,
0001
0000
0000
1001
;

//---------------dance-single - Itsugo15----------------
#NOTES:
     dance-single:
     Itsugo15:
     Easy:
     3:
     0.163,0.238,0.119,0.102,0.004:
0000
0000
0000
0000
,
0000
0000
0000
0000
,
0000
0000
0000
0000
,
0000
0000
0000
0000
,
0000
0000
0000
0000
,
0000
0000
0000
0000
,
0000
0000
0000
0000
,
0000
0000
0000
0000
,
0000
0000
0000
0002
,
0000
0000
0003
1000
,
0001
1000
0000
0000
,
1001
0000
1000
0000
,
0001
0000
0010
0000
,
0011
0000
0010
0000
,
0200
0000
0300
0000
,
0010
0000
0010
0000
,
0001
0000
0001
0000
,
1000
0000
0010
0000
,
0100
0010
0000
0000
,
0110
0000
0010
0000
,
0100
0000
0001
0000
,
0101
0000
0001
0000
,
2000
0000
3000
0000
,
0001
0000
0001
0000
,
0010
0000
0010
0000
,
0100
0000
0010
0000
,
0001
2000
0000
3000
,
1001
0000
0001
0000
,
0001
0000
0001
0000
,
1000
0000
0100
0000
,
0020
0000
0130
0000
,
1000
0000
1000
0000
,
0001
0000
0001
0000
,
0100
0000
0100
0000
,
0010
0000
0010
0000
,
0020
0000
0000
0000
,
1030
0000
0001
0000
,
1000
0000
0010
0000
,
0100
0000
0010
0000
,
1000
0000
0001
0000
,
0020
0000
0030
0000
,
0100
0000
1000
0000
,
0010
0000
0100
0000
,
0001
0000
1000
0000
,
0100
0000
0010
0000
,
0001
0000
1000
0000
,
0020
0000
0030
0000
,
0100
0000
0001
0000
,
0101
0000
0100
0000
,
0110
0000
0010
0000
,
1010
0000
1000
0000
,
1001
0000
0001
0000
,
0020
0000
0030
0000
,
0100
0000
1000
0000
,
1100
0000
0100
0000
,
0110
0000
0010
0000
,
0011
0000
0001
0000
,
1001
0000
1000
0000
,
0020
0000
0030
0000
,
0100
0000
0010
0000
,
1000
0000
0002
0000
,
1000
0000
0000
0000
,
1000
0000
0000
0000
,
1000
0000
0000
0000
0000
0003
0000
0000
,
1001
0000
0000
0000
,
0001
0000
0000
0000
,
0001
0000
0000
0000
,
0001
0000
0000
0000
,
0010
0000
0100
0000
,
2000
0000
0000
0000
0000
0000
0000
0000
0000
0000
0000
3001
0000
0000
0000
0000
;

//---------------dance-single - Itsugo15----------------
#NOTES:
     dance-single:
     Itsugo15:
     Medium:
     5:
     0.335,0.357,0.145,0.273,0.013:
0000
0000
0000
0000
,
0000
0000
0000
0000
,
0000
0000
0000
0000
,
0000
0000
0000
0000
,
0000
0000
0000
0000
,
0000
0000
0000
0000
,
0000
0000
0000
0000
,
0000
0000
0000
0000
,
0000
0000
0000
0002
,
0000
0000
0003
0011
,
0000
1010
0000
0000
0000
0000
0000
0000
0000
0000
1001
0000
0000
0000
0000
0000
0000
0000
0000
0000
0000
0000
0000
0000
0000
0000
0000
0000
0000
0000
0000
0000
,
0101
0010
1000
0001
,
1000
0100
1000
0000
0100
0000
0010
0000
,
0001
0000
0010
0001
0010
0000
0100
1000
,
0200
0000
0010
1300
,
1100
0000
1000
0000
0001
0000
1000
0001
,
1000
0000
0010
0000
0100
0000
0010
0100
,
0020
0000
2000
0030
,
0001
0020
0000
3030
,
1010
0100
0001
1000
,
0001
0010
0001
0000
0010
0000
0100
0000
,
1000
0000
0100
1000
0100
0000
0010
0001
,
0020
0000
0100
0031
,
0011
0000
0001
0000
1000
0000
0001
1000
,
0001
0000
0100
0000
0010
0000
0100
0010
,
0200
0000
0002
0300
,
1000
0200
0000
0303
,
0101
0001
0001
0001
,
1000
0001
0001
0001
,
0001
1000
0000
0000
1000
0001
0000
0010
,
0100
1000
0001
1000
,
1010
0000
0010
0000
0100
0000
0001
0100
,
0001
1000
0100
0010
,
0001
0010
0001
0000
1000
0001
1000
0000
,
0001
0100
0002
0000
0100
0000
0100
0000
,
2000
0000
0000
3003
,
1001
2000
0010
3001
,
0100
0020
1000
0130
,
0001
0100
1000
0100
,
0002
0000
0013
0100
,
2000
0000
3000
0100
,
0010
0100
1000
0001
,
1001
0002
0100
1003
,
0010
0200
0001
0310
,
1000
0010
0001
0010
,
2000
0000
3100
0010
,
0002
0000
0003
0010
,
0100
0010
0001
1000
,
1001
0200
1000
0310
,
0001
2000
0010
3001
,
0100
0010
0100
0001
,
2000
0000
3001
1000
,
0200
0000
0300
0010
,
0001
1000
0010
0100
,
0110
0020
0100
1030
,
0001
0020
0100
0031
,
1000
0010
0100
0001
,
0200
0000
0310
1000
,
0002
0000
0003
1000
,
0001
0010
0100
0010
,
0011
0001
1000
0001
,
0100
0010
1000
0001
,
0010
0100
1000
0100
,
0010
0001
1000
0100
,
1100
1000
0001
1000
,
0010
0100
0001
1000
,
0100
0010
0001
0010
,
0100
1000
0001
0010
,
0022
0033
2200
3300
,
0002
0000
0000
0000
0000
0000
0000
0000
0000
0000
0000
0000
0000
0000
0000
0000
0000
0000
0000
0000
0000
0000
0000
0000
0000
0000
0000
0000
0000
0000
0000
0000
0000
0000
0000
1003
0000
0000
0000
0000
0000
0000
0000
0000
0000
0000
0000
0000
;

//---------------dance-single - Itsugo15----------------
#NOTES:
     dance-single:
     Itsugo15:
     Challenge:
     11:
     0.774,0.743,0.827,0.409,0.439: // measure 1
0000
0000
0000
0000
,  // measure 2
0000
0000
0000
0000
,  // measure 3
0000
0000
0000
0000
,  // measure 4
0000
0000
0000
0000
,  // measure 5
0000
0000
0000
0000
0000
0000
0000
0000
0000
0000
0000
0000
0000
1000
0000
0000
0000
1000
0000
0000
0000
0000
0000
0000
0000
0000
0000
0000
0000
0000
0000
0000
,  // measure 6
0000
0000
0000
0001
0001
0010
0000
0010
,  // measure 7
0000
0010
0000
0100
0100
1000
0000
1000
,  // measure 8
0000
1000
0001
0100
0000
0100
0000
0100
,  // measure 9
0100
0000
0100
0000
0000
0000
0200
0000
0000
0000
0300
0000
0100
0001
1000
0100
,  // measure 10
0010
0000
0000
0100
0000
0000
1000
0000
0000
0001
0000
0000
0010
0000
0000
0100
0000
0000
0010
0000
0000
0001
0000
0000
1000
0000
0000
0010
0000
0000
0100
0000
0000
0010
0000
0000
1000
0000
0000
0000
0100
0000
0000
0000
0010
0000
0000
0000
,  // measure 11
0001
0000
0000
0000
0010
0000
0000
0000
0000
0100
0000
0000
0000
0000
0000
1000
0000
0000
0000
0000
0000
0000
0000
0000
0000
0000
0000
0000
0000
0000
0000
0000
0000
0000
0000
0000
1000
0000
0000
0000
0000
0000
0001
0000
0000
0000
0000
0000
,  // measure 12
1001
0000
1000
0001
0010
0100
0010
0001
,  // measure 13
1000
0010
0100
0100
0001
0001
1000
1000
,  // measure 14
1001
0000
0001
0010
0100
1000
0100
0010
,  // measure 15
0001
0000
0010
0100
1000
0100
0010
0001
1000
0010
0100
0010
1000
0000
0010
1000
,  // measure 16
0010
0000
0000
1000
0000
0000
0001
0000
0010
0000
0100
0010
0100
0010
0000
0000
,  // measure 17
0001
0000
0000
1000
0000
0000
0010
0000
0100
0000
0001
0100
0001
0100
0001
0000
,  // measure 18
0101
0000
0000
0100
0000
0000
0010
0000
1010
0000
1000
0100
1000
0010
0100
0001
,  // measure 19
1000
1000
0002
0000
0010
0010
0000
1003
,  // measure 20
1001
0000
0001
1000
0100
0010
0100
1000
,  // measure 21
0001
0100
0010
0010
1000
1000
0001
0001
,  // measure 22
1001
0000
1000
0100
0010
0001
0010
0100
,  // measure 23
1000
0000
0100
0010
0001
0010
0100
1000
0001
0100
0010
0100
0001
0000
0100
0000
,  // measure 24
0101
0000
0000
0001
0000
0000
1000
0000
0100
0000
0010
0100
0010
0100
0010
0000
,  // measure 25
0001
0000
0000
0001
0000
0000
0100
0000
0010
0000
1000
0010
1000
0010
1000
0000
,  // measure 26
1010
0000
0000
0010
0000
0000
0100
0000
0101
0000
0001
0010
0100
0010
0001
0100
,  // measure 27
0010
1000
2100
0000
0010
0000
0002
3000
,  // measure 28
0013
0001
1000
0010
0100
0001
0100
0010
,  // measure 29
1000
0001
0010
0100
0010
0001
1000
0100
,  // measure 30
1100
2002
0000
3003
1001
0202
0303
0101
,  // measure 31
0110
0000
0010
0000
1000
0000
0001
0000
0010
0001
0010
0000
0100
1000
0100
0000
,  // measure 32
1100
0010
0001
1000
0002
0003
1001
1000
,  // measure 33
0010
0000
2020
3030
0202
0303
0001
0100
,  // measure 34
0020
0000
0000
0000
0000
0000
0000
0000
0000
0030
0000
0000
1000
0000
0000
0000
0000
0000
0001
0000
0000
0000
0000
0000
1000
0000
0000
0000
0000
0000
0000
0000
0000
0000
1010
0000
0000
0000
0000
0000
1000
0000
0000
0000
0001
0000
0000
0000
,  // measure 35
1000
0001
0100
0100
0010
0010
1000
0001
,  // measure 36
1000
0001
0010
0100
0010
0001
1000
0010
0100
0001
0100
0010
1000
0001
0010
0100
,  // measure 37
2000
0000
0000
0000
3100
0000
0010
0000
0011
0000
0000
1001
0000
0000
0101
0000
,  // measure 38
0200
0000
0000
0000
0310
0000
1000
0000
1010
0000
0000
1001
0000
0000
1100
0000
,  // measure 39
0200
0000
0000
0000
0310
0000
0001
0000
0011
0000
0000
0110
0000
0000
1100
0000
,  // measure 40
2002
3003
0001
0010
0100
1000
0100
0010
,  // measure 41
0002
0000
0010
0010
1000
1000
0010
0023
,  // measure 42
0130
2000
3010
0200
0301
2000
3100
0020
,  // measure 43
0032
0000
0000
0000
0013
0000
0100
0000
1100
0000
0000
1001
0000
0000
1010
0000
,  // measure 44
0020
0000
0000
0000
0130
0000
0001
0000
0101
0000
0000
1001
0000
0000
0011
0000
,  // measure 45
0020
0000
0000
0000
0130
0000
1000
0000
1100
0000
0000
0110
0000
0000
0011
0000
,  // measure 46
2002
3003
1000
0100
0010
0001
0010
0100
,  // measure 47
2000
0000
0100
0100
0001
0001
0100
3100
,  // measure 48
0001
0000
0000
0000
0010
0000
0000
0000
0100
0000
0000
0000
1000
0000
0000
0000
0001
0000
0000
0000
0100
0000
0000
0000
0010
0000
0000
0000
0000
0000
0000
0000
0000
1000
0000
0000
0000
0000
0000
0000
0000
0000
0010
0000
0000
0000
0000
0000
,  // measure 49
2010
0000
0000
0000
3100
0000
1000
0000
1100
0000
0000
0011
0000
0000
1100
0000
,  // measure 50
2001
0000
0000
0000
3010
0000
1000
0000
1010
0000
0000
0101
0000
0000
1010
0000
,  // measure 51
1002
0000
0000
0000
0103
0000
0010
0000
0110
0000
0000
1001
0000
0000
0110
0000
,  // measure 52
2002
3003
0001
0010
0100
1000
0100
0010
,  // measure 53
0002
0000
0010
0010
1000
1000
0010
0023
,  // measure 54
0130
2000
3010
0200
0301
2000
3100
0020
,  // measure 55
0032
0000
0000
0000
0013
0000
0001
0000
0011
0000
0000
1100
0000
0000
0011
0000
,  // measure 56
1002
0000
0000
0000
0103
0000
0001
0000
0101
0000
0000
1010
0000
0000
0101
0000
,  // measure 57
2001
0000
0000
0000
3010
0000
0100
0000
0110
0000
0000
1001
0000
0000
0110
0000
,  // measure 58
2002
3003
1000
0100
0010
0001
0010
0100
,  // measure 59
2000
0000
0100
0100
0001
0001
0100
3100
,  // measure 60
0001
0000
0000
0000
0010
0000
0000
0000
0100
0000
0000
0000
1000
0000
0000
0000
0001
0000
0000
0000
0100
0000
0000
0000
0010
0000
0000
0000
0000
0000
0000
0000
0000
1000
0000
0000
0000
0000
0000
0000
0000
0000
0010
0000
0000
0000
0000
0000
,  // measure 61
1010
0000
0000
0000
1000
0000
0100
0000
1100
0000
0000
0101
0000
0000
1100
0000
,  // measure 62
1000
0000
0100
0000
0010
0000
0001
0000
0011
0000
0000
1010
0000
0000
0011
0000
,  // measure 63
0001
0000
0100
0000
0010
0000
1000
0000
1010
0000
0000
0101
0000
0000
1010
0000
,  // measure 64
0010
0000
1000
0000
0001
0000
0010
0000
0011
0000
0000
1100
0000
0000
0011
0000
,  // measure 65
1001
0000
0000
0000
0001
0000
0010
0000
0011
0000
0000
1001
0000
0000
1010
0000
,  // measure 66
1000
0000
0010
0000
0100
0000
0001
0000
0101
0000
0000
1001
0000
0000
1100
0000
,  // measure 67
1000
0000
0100
0000
0010
0000
0001
0000
0011
0000
0000
1001
0000
0000
1100
0000
,  // measure 68
1000
0000
0010
0000
0100
0000
0001
0000
0101
0000
0000
0110
0000
0000
1010
0000
,  // measure 69
1000
0010
0100
0001
1000
0100
0010
0100
1000
0001
0010
0100
,  // measure 70
1100
0000
0000
0000
0000
0110
0000
0000
0000
0000
0000
1100
0000
0000
0000
0000
0000
1001
0000
0000
0000
0000
0000
1000
0000
0000
0000
0000
0000
0001
0000
0000
0000
0000
0000
1001
0000
0000
0000
0000
0000
0000
0000
0000
0000
0000
0000
0000
;
