#TITLE:No Buts!;
#SUBTITLE:とある魔術の禁書目録 II;
#ARTIST:川田まみ;
#TITLETRANSLIT:No Buts!;
#SUBTITLETRANSLIT:To Aru Majutsu no Index II;
#ARTISTTRANSLIT:Kawada Mami;
#GENRE:Anime;
#CREDIT:Itsugo15;
#MENUCOLOR:;
#BANNER:No buts!-bn.jpg;
#BACKGROUND:No buts!-bg.jpg;
#LYRICSPATH:No buts!.lrc;
#CDTITLE:Itsugo15 SimifileS.png;
#MUSIC:No buts!.mp3;
#OFFSET:-0.225;
#SAMPLESTART:49.960;
#SAMPLELENGTH:30.000;
#SELECTABLE:YES;
#LISTSORT:;
#DISPLAYBPM:183.000;
#BPMS:0.000=183.000,30.000=366.000,32.000=183.000;
#STOPS:30.000=0.082
,30.500=0.082
,31.000=0.082
,31.500=0.082
,237.500=0.656
,253.500=0.328
;
#TICKCOUNT:0.000=8;
#BGCHANGES:-0.594=No buts!.avi=1.000=0=1=0,
268.500=No buts!-bg.jpg=1.000=0=0=1,
99999=-nosongbg-=1.000=0=0=0 // don't automatically add -songbackground-
;
#KEYSOUNDS:;
#ATTACKS:;

//---------------dance-single - Challenge Itsugo15----------------
#NOTES:
     dance-single:
     Challenge Itsugo15:
     Challenge:
     12:
     0.868,1.000,0.878,0.311,0.289:
0010
1000
0100
0001
0100
0010
0001
1000
,
0010
0000
0100
0000
0001
0000
0100
0000
0102
0000
0000
0003
1001
0000
0000
0000
,
1000
0001
0010
1000
0010
0100
1000
0001
,
0100
0000
0010
0000
1000
0000
0010
0000
2010
0000
0000
3000
1001
0000
0000
0000
,
0001
1000
0100
0001
0100
0010
0001
1000
,
0001
0000
0100
0000
0010
0000
1000
0000
1020
0000
0000
0030
0110
0000
0000
0000
,
0100
0001
0010
0100
0010
0100
1000
0001
,
0100
0001
0100
0000
0001
0000
1000
0000
1MM1
0000
1M01
0000
1MM1
0000
10M1
0000
,
1002
1000
0000
0010
0010
0000
0100
0100
,
0000
1000
1003
0000
1100
0000
0101
0000
,
1001
0000
1001
0000
0000
0000
0001
1000
0010
0100
0001
1000
0100
0010
0001
0010
,
0100
0010
0001
1000
0100
0010
0001
1000
0001
1000
0004
4000
0000
0000
0000
3003
,
1001
0000
1000
0010
1000
0001
1000
0010
,
0100
0010
1000
0001
1001
0000
1100
0000
,
1000
0200
0000
0310
0001
1000
0001
0010
,
0100
0010
0001
4000
0400
0000
0000
3300
,
1100
0000
1000
0100
0010
1000
0010
0001
,
0011
0000
0001
0010
0400
1000
1000
1300
,
1100
0000
1000
0100
1000
0000
0001
0010
0100
0000
1000
0100
0010
0100
1000
0000
,
0100
0010
0001
0000
0010
0001
0010
0000
0100
0010
0001
1000
0200
0000
1000
0300
,
1100
1000
0100
1000
0001
1000
0010
0100
,
0010
1000
0001
0100
0040
0100
0100
0100
,
0130
0010
0100
0001
0100
0010
0100
1000
,
0100
00M0
0010
1M00
00M1
1M00
00M1
0010
,
0001
0010
0001
0000
0010
0000
0100
0000
2000
0000
3001
0000
0200
0000
0310
0000
,
2000
0000
3001
0000
0100
0001
0100
0000
0101
0000
0000
0000
1001
0000
0000
0000
,
1000
0000
0200
0000
0000
0300
0020
0000
0031
0000
2000
0000
3001
0000
0200
0000
,
0301
0000
0200
0000
0310
0100
0010
0000
0110
0000
0000
0000
1001
0000
0000
0000
,
1001
1100
0000
1100
0110
0000
0110
0011
,
0000
0011
1001
0000
1MM1
1MM1
M11M
M11M
,
1001
0101
0000
0101
0110
0000
0110
1010
,
0000
1010
1001
0000
1MM1
1MM1
M11M
M11M
,
1001
0000
1000
0010
0100
0010
0001
0010
,
0100
00M0
0010
1000
0001
0010
0100
1000
,
0100
0001
0100
1000
0001
0100
0010
1000
,
0001
0100
0010
0000
1000
0000
0001
0100
0010
0000
1000
0000
0001
0000
0010
0000
,
0011
0000
0200
2000
0000
0000
0000
0000
,
0000
0000
0000
0000
,
0001
0010
0001
0000
0010
0000
0001
0000
,
0010
0000
0000
0000
0000
0000
0000
0000
0000
0000
0000
0000
000M
0000
0000
0000
00M0
0000
0000
0000
0000
0000
0000
0000
000M
0000
0000
0000
0000
0000
00M0
0000
0000
0000
0000
0000
000M
0000
0000
0000
0000
0000
00M0
0000
000M
0000
0000
0000
00M0
0000
0000
000M
0000
0000
00M0
0000
0000
00MM
0000
0000
00MM
0000
0000
0000
0000
0000
00MM
0000
0000
00MM
0000
0000
0000
0000
0000
00MM
0000
0000
00MM
0000
0000
00MM
0000
0000
00MM
0000
0000
00MM
0000
0000
00MM
0000
0000
00MM
0000
0000
00MM
0000
0000
00MM
0000
0000
00MM
0000
0000
00MM
0000
0000
00MM
0000
0000
00MM
0000
0000
00MM
0000
00MM
0000
0000
0000
33MM
0000
0000
0000
0000
0000
0000
0000
0000
0000
0000
0000
0000
0000
0000
0000
0000
0000
0000
0000
0000
0000
0000
0000
1000
0000
0000
0000
0000
0000
0000
0000
0000
0000
0000
0000
0000
0000
0000
0000
0000
0000
0000
0000
0000
0000
0000
0000
0100
0000
0000
0000
0000
0000
0000
0000
0000
0000
0000
0000
0000
0000
0000
0000
0000
0000
0000
0000
0000
0000
0000
0000
,
1000
0001
0100
0010
0001
0010
1000
0001
,
1000
0100
0001
0100
1000
0100
0010
0001
,
1000
0100
0010
0001
0010
0100
1000
0001
,
0100
0010
0001
0010
1000
1000
0001
0001
,
1001
0000
1000
0010
0100
1000
0100
0001
,
0100
M000
0010
1000
0010
0001
0010
1000
,
0001
0M00
1000
0100
0010
0001
1000
0010
,
0100
0001
0000
0001
0000
4000
0001
0000
,
0004
0000
0000
3003
,
1000
0010
0000
0100
0000
0101
0001
0010
,
1100
0000
0001
1000
0000
0010
0100
0010
,
0000
0100
0001
0000
1010
0000
0011
0000
,
1001
1000
0001
0100
0010
1000
0001
0010
,
000M
1000
0010
0001
1000
0100
0010
0100
,
1000
00M0
0001
0100
0000
0101
0000
1001
,
0001
1000
0000
1100
0000
0000
1010
0000
,
0220
0000
0000
0000
,
0000
0000
0000
0002
,
2000
0000
0000
0000
,
0000
0000
0000
3333
1000
0100
1100
0000
,
1100
1000
0100
0010
0001
0010
0011
0000
,
0011
0001
1000
0001
0100
0001
0101
0000
,
0101
0100
0010
1000
0100
1000
1100
0000
,
1100
0100
0010
MMM1
0011
0000
0011
0001
,
0010
0100
1000
0100
1100
0000
1100
1000
,
0001
1000
0010
1000
1010
0000
1010
0010
,
0100
0001
0010
0001
0011
0000
0011
0010
,
0100
0000
1000
M000
0000
0000
0000
0000
0000
0000
0000
0000
0000
0000
0000
0000
;

//---------------dance-single - Easy Itsugo15----------------
#NOTES:
     dance-single:
     Easy Itsugo15:
     Easy:
     5:
     0.243,0.411,0.144,0.256,0.000:
0001
0000
0010
0000
,
0100
0000
2000
0000
,
3100
0000
0010
0000
,
0001
0000
2000
0000
,
3001
0000
0100
0000
,
0010
0000
2000
0000
,
3010
0000
0100
0000
,
0001
0000
2000
0000
,
3001
0000
0000
0000
,
0000
0000
0000
0000
,
1000
0002
0000
0000
0000
0000
0000
0000
,
0000
0000
0000
0003
,
1001
0000
0001
0000
,
1000
0000
0010
0000
,
0100
0000
0010
0000
,
1000
0000
0001
0000
,
0010
0000
0100
0000
,
1000
0000
1000
0000
,
0100
0000
0010
0000
,
0001
0000
0001
0000
,
1000
0000
0010
0000
,
0100
0000
0100
0000
,
0002
0000
0000
0000
2000
0000
0000
3003
,
1001
0000
1000
0000
,
1100
0000
0100
0000
,
0010
0000
0002
0000
,
1003
0000
0010
0000
,
0100
0000
0002
0000
,
1003
0000
0001
0000
,
1000
0000
0002
0000
,
1003
0000
0001
0000
,
1000
0000
0002
0000
,
1003
0000
0100
0000
,
1100
0000
0100
0000
,
0110
0000
0010
0000
,
0001
0000
1000
0000
,
0010
0000
0200
0000
,
0000
0000
0000
0000
,
0310
0000
0010
0000
,
2000
0000
0000
0000
,
3001
0000
0010
0000
,
0100
0000
1000
0000
,
0010
0000
0100
0000
,
0001
0000
1000
0000
,
1001
0000
0001
0000
,
0101
0000
0100
0000
,
0110
0000
1010
0000
,
1002
0000
2000
3003
,
2002
0000
3003
0000
,
1000
0000
0000
0000
,
0001
0000
0000
0000
,
0100
0000
0000
0000
,
0010
0000
1000
0000
,
0001
0000
0000
0000
,
0010
0000
0001
0000
,
1000
0000
0001
0000
,
2002
0000
0000
0000
,
0000
3003
0000
0000
,
2200
0000
0000
0000
,
0000
0000
0000
3300
0001
0000
0000
0000
,
1000
0000
0010
0000
,
1000
0000
0001
0000
,
0010
0000
0100
0000
,
2000
0000
0000
3000
0001
0000
0000
0000
,
0100
0000
0001
0000
,
1000
0000
0100
0000
,
0010
0000
0001
0000
,
2000
3000
0000
0000
;

//---------------dance-single - Medium Itsugo15----------------
#NOTES:
     dance-single:
     Medium Itsugo15:
     Medium:
     7:
     0.527,0.634,0.144,0.200,0.000: // measure 1
1000
0010
0001
0010
,  // measure 2
1000
1000
0002
1000
,  // measure 3
1003
0100
0001
0100
,  // measure 4
1000
1000
0002
1000
,  // measure 5
1003
0010
0100
0001
,  // measure 6
0010
0010
0200
0010
,  // measure 7
0310
0100
1000
0010
,  // measure 8
0100
0100
0020
0000
,  // measure 9
0130
0000
0000
0000
,  // measure 10
0000
0000
0000
0000
0000
0000
0000
0000
0002
0000
0000
0000
2000
0000
0000
3003
,  // measure 11
1001
0000
1000
0001
0100
0010
1000
0010
,  // measure 12
0100
0001
1000
0100
0010
0001
0010
0000
,  // measure 13
0011
0000
0001
0010
0001
0000
1000
0001
,  // measure 14
1000
0010
0100
0000
0001
0000
0100
0000
,  // measure 15
0101
0000
0001
0100
0001
0000
1000
0001
,  // measure 16
1000
0100
0010
0000
0001
0000
0010
0000
,  // measure 17
0011
0000
0001
0000
0010
0000
0100
0010
,  // measure 18
0000
0010
0200
0000
0010
0000
0310
0000
,  // measure 19
0001
0000
1000
0000
0010
0000
0100
0001
,  // measure 20
0000
1000
0100
0000
0010
0001
0010
0001
,  // measure 21
1000
0000
0010
0000
0100
0000
0001
1000
,  // measure 22
0000
0100
0010
0000
0002
0000
1000
0000
,  // measure 23
1003
0001
0100
0001
1000
0001
0100
0001
,  // measure 24
1000
0000
0010
0100
0001
0100
0010
1000
,  // measure 25
0001
0000
1000
0001
1000
0001
1000
0001
,  // measure 26
1000
0001
2000
0010
,  // measure 27
3010
0000
1000
0010
1000
0010
1000
0010
,  // measure 28
1000
0001
0200
0010
,  // measure 29
0310
0100
0000
0100
0010
0000
0010
0100
,  // measure 30
0000
0100
0010
0000
1000
0010
1000
0010
,  // measure 31
1000
0001
0000
0001
1000
0000
1000
0001
,  // measure 32
0000
0001
1000
0000
0100
1000
0100
1000
,  // measure 33
0100
0000
1100
0000
0000
0100
0010
0000
,  // measure 34
0001
0000
0011
0000
0000
0001
1000
0000
,  // measure 35
0010
0100
0001
1000
0010
0100
0010
1000
,  // measure 36
0002
0000
1003
0200
0000
0310
0002
0000
,  // measure 37
1003
0000
0000
0000
0000
MM0M
M0MM
M00M
,  // measure 38
0000
MMMM
M00M
M00M
MMMM
0000
0000
0000
,  // measure 39
1000
0001
1000
0000
0001
0000
1000
0002
,  // measure 40
0000
0000
0000
0000
,  // measure 41
1003
0001
0100
0010
,  // measure 42
1000
0001
1000
0100
,  // measure 43
0010
1000
0010
0001
,  // measure 44
1000
0000
0100
0000
0010
0001
0010
0001
,  // measure 45
0011
0001
1000
0001
,  // measure 46
1001
1000
0001
0100
,  // measure 47
0101
0000
0100
0000
0010
0001
0000
0010
,  // measure 48
1000
0000
1000
0001
0000
0001
1000
0000
,  // measure 49
2002
0000
0000
3003
,  // measure 50
1000
0001
0000
1000
0000
0001
1000
0000
,  // measure 51
0100
0000
0100
0010
0000
0010
0001
1000
,  // measure 52
0000
0001
1000
0000
1100
0000
0101
0000
,  // measure 53
0001
0100
0010
0100
0001
0100
0001
1000
,  // measure 54
0000
0000
1000
0100
0010
0100
1000
0001
,  // measure 55
1000
0000
0001
1000
0000
1001
0000
0001
,  // measure 56
1000
0001
0000
0010
0000
0000
0100
0000
,  // measure 57
2000
0000
0000
0000
,  // measure 58
0000
0000
0000
0001
,  // measure 59
0002
0000
0000
0000
,  // measure 60
0000
0000
0000
3003
1000
0000
0001
0000
,  // measure 61
0010
0010
0001
1000
,  // measure 62
0100
0100
1000
0010
,  // measure 63
0100
0100
0001
0010
,  // measure 64
0100
0010
0100
0010
0001
0000
1000
0000
,  // measure 65
1000
0001
0100
0010
,  // measure 66
0010
1000
0100
1000
,  // measure 67
1000
0000
0100
0000
0010
0000
0001
0010
,  // measure 68
0001
0010
0000
0000
0000
0000
0000
0000
;

//---------------dance-single - Heavy Itsugo15----------------
#NOTES:
     dance-single:
     Heavy Itsugo15:
     Hard:
     9:
     0.717,1.000,0.444,0.189,0.100:
0100
0001
0010
0100
1000
0100
1000
0100
,
1000
0001
1000
0001
1001
0000
1010
0000
,
1000
0010
0100
0001
0100
0001
0100
0001
,
1000
0001
1000
0001
1001
0000
0011
0000
,
0001
0010
0100
1000
0100
1000
0100
1000
,
0001
1000
0001
1000
1001
0000
0101
0000
,
0001
0100
0010
1000
0010
1000
0010
1000
,
0001
1000
0001
1000
0MM1
0MM1
0MM1
0MM1
,
2002
0000
0000
0000
,
0000
0000
0000
3003
1000
0000
0001
0000
,
1001
0000
0000
0000
0001
1000
0001
1000
0001
1000
0001
1000
0001
1000
0001
1000
,
0001
0000
0000
0000
1000
0000
0000
0000
0001
0000
0000
0000
1000
0000
0000
0000
0001
0000
0000
0000
1000
0000
0000
0000
0001
0000
0000
0000
1000
0000
0000
0000
0002
0000
0000
0000
0000
0000
0000
1000
0000
0000
0000
0000
0000
0000
0000
0000
0000
1000
0000
0000
0000
0000
0000
0000
0003
0000
0000
0000
0000
0000
0000
0000
,
1001
0000
1100
0000
0100
0010
0110
0000
,
1100
0110
0021
0031
,
1001
0000
0101
0000
0100
0010
0110
0000
,
0101
0120
0001
0100
,
1030
0000
0010
1000
0010
1000
0010
1000
,
0001
0000
1000
0001
1000
0001
1000
0001
,
0010
0000
0001
0010
0100
1000
0100
0010
,
0001
0000
1000
0100
0010
0001
0010
0100
,
1000
0000
0100
0010
0001
1000
0010
0100
,
0001
0000
0100
0010
1000
0001
0010
0100
,
1000
1000
0001
0001
,
1001
0000
0001
1000
0010
0100
0001
1000
,
0100
0000
0010
0100
1000
0100
0010
0100
,
1000
0100
0010
0000
0110
0000
0011
0000
,
0001
2000
3000
0010
0100
0001
0100
0010
,
0100
0001
0100
0000
0101
0000
1001
0000
,
0001
0001
0000
1000
1000
0000
0100
0100
,
0000
0010
0010
0000
0010
0100
1000
0100
,
0010
0010
0000
0001
0001
0000
1000
1000
,
0000
0100
0100
0000
1000
0100
0010
0100
,
1000
0000
1100
0000
0000
1000
0001
0000
,
0100
0000
0101
0000
0000
0100
0010
0000
,
1000
0010
0100
0001
1000
0100
0010
0001
,
0020
0130
0010
0001
2000
3100
0010
0001
,
0011
0000
0002
2000
0000
0000
0000
0000
,
0000
0000
0000
0000
0000
0000
0000
3003
,
0001
1000
0001
0000
1000
0000
1000
0002
,
0000
0000
0000
0010
,
1003
0001
0100
0010
0100
0001
0100
1000
,
0100
0001
0100
0010
1000
0001
0010
0100
,
0010
0001
0010
0100
1000
0100
1000
0001
,
0100
0001
0100
0001
0100
0100
0010
0010
,
0110
0000
0010
0100
0010
1000
0001
0010
,
0100
0000
1000
0100
0010
0001
1000
0010
,
0100
0000
0001
0100
0000
0101
0000
0101
,
0100
0010
0000
1010
0000
1010
1000
0000
,
2MM2
0000
0000
0MM0
0000
0000
0MM0
0000
0000
0MM0
0000
0000
0MM0
0000
0000
0MM0
0000
0000
0MM0
0000
0000
0MM0
0000
0000
0MM0
0000
0000
0MM0
0000
0000
0MM0
0000
3003
0MM0
0000
0000
1MM1
0000
0000
0000
0000
0000
0000
0000
0000
0000
0000
0000
,
1000
0001
0000
0001
0000
0001
1000
0000
,
1001
0000
1000
0100
0000
0010
0001
1000
,
0000
0010
0100
0000
0101
0000
1010
0000
,
1000
0010
0100
0001
0000
1000
0000
0001
,
0000
0001
1000
0000
1001
0000
1100
0000
,
0100
0000
0010
0001
0000
0001
0000
0001
,
1000
0100
0000
0010
0000
0000
0001
0000
,
0022
0000
0000
0000
,
0000
0000
0033
0002
,
2000
0000
0000
0000
,
0000
0000
0000
0000
0000
3003
MMMM
0000
0001
0000
1000
0000
0010
0000
1000
0000
,
0010
0010
1000
0010
1000
1000
0010
0100
,
0010
0010
0100
0010
0100
0100
0001
0100
,
0001
0001
0100
0001
0100
0100
0010
1000
,
0010
0100
0001
1000
0100
0100
1000
0100
,
1000
1000
0100
0010
0100
0100
0010
0100
,
0010
0010
0001
0010
0001
0001
0010
0001
,
0010
0010
0001
0010
0100
0010
0001
1000
,
0100
0001
0000
0000
0000
0000
0000
0000
;

//---------------dance-single - Beginner Itsugo15----------------
#NOTES:
     dance-single:
     Beginner Itsugo15:
     Beginner:
     3:
     0.110,0.187,0.011,0.100,0.000:
0001
0000
0000
0000
,
0000
0000
0000
0000
,
1000
0000
0000
0000
,
0000
0000
0000
0000
,
0010
0000
0000
0000
,
0000
0000
0000
0000
,
0100
0000
0000
0000
,
0000
0000
0002
0000
,
1003
0000
0000
0000
,
0000
0000
0000
0000
,
1001
0000
0000
0000
,
0000
0000
0000
0000
,
0001
0000
0000
0000
,
0000
0000
0000
0000
,
1000
0000
0000
0000
,
0000
0000
0000
0000
,
0010
0000
0000
0000
,
0000
0000
0000
0000
,
0010
0000
0000
0000
,
0000
0000
0000
0000
,
0100
0000
0000
0000
,
0000
0000
0000
0000
,
0200
0000
0000
0000
,
0301
0000
0000
0000
,
1000
0000
0000
0000
,
0000
0000
0000
0000
,
0001
0000
0000
0000
,
0000
0000
0000
0000
,
0010
0000
0010
0000
,
0010
0000
0010
0000
,
0100
0000
0100
0000
,
0100
0000
0100
0000
,
1000
0000
0000
0000
,
0001
0000
0000
0000
,
1000
0000
0010
0000
,
0100
0000
0001
0000
,
0100
0000
0020
0000
,
0000
0000
0000
0000
,
2000
0000
0000
0000
,
3030
0000
0000
0000
,
1000
0000
0000
0000
,
0001
0000
0000
0000
,
0010
0000
0000
0000
,
0001
0000
0000
0000
,
1000
0000
0000
0000
,
0001
0000
0000
0000
,
1000
0000
0000
0000
,
0010
0000
0000
0000
,
2000
0000
0000
0000
,
3001
0000
0000
0000
,
0010
0000
0000
0000
,
0100
0000
0000
0000
,
0010
0000
0000
0000
,
0001
0000
0000
0000
,
1000
0000
0000
0000
,
0100
0000
0000
0000
,
0020
0000
0000
0000
,
0000
0030
0000
0000
,
0002
0000
0000
0000
,
0000
0000
0000
0003
1000
0000
0000
0000
,
0000
0000
0010
0000
,
0000
0000
0100
0000
,
0000
0000
0002
0000
,
0000
0000
0000
0003
1000
0000
0000
0000
,
0000
0000
0100
0000
,
0000
0000
0010
0000
,
0000
0000
0002
0000
,
0000
0003
0000
0000
;
