#TITLE:ねぇ;
#SUBTITLE:Natural Basic Beauty;
#ARTIST:Perfume;
#TITLETRANSLIT:Nee;
#SUBTITLETRANSLIT:Natural Basic Beauty;
#ARTISTTRANSLIT:Perfume;
#GENRE:Japanese;
#CREDIT:Itsugo & konacraze22;
#MENUCOLOR:;
#BANNER:Nee-VD2.avi;
#BACKGROUND:Nee-bg.jpg;
#LYRICSPATH:Nee.lrc;
#CDTITLE:Collab.png;
#MUSIC:Nee.mp3;
#OFFSET:0.268;
#SAMPLESTART:59.595;
#SAMPLELENGTH:30.000;
#SELECTABLE:YES;
#LISTSORT:;
#BPMS:0.000=128.000;
#STOPS:;
#TICKCOUNT:0.000=8;
#BGCHANGES:-1.345=Nee-VD1.avi=1.000=0=1=0,
127.500=Nee-VD2.avi=1.000=0=1=0,
194.750=Nee-VD3.avi=1.000=0=1=0,
99999=-nosongbg-=1.000=0=0=0 // don't automatically add -songbackground-
;
#KEYSOUNDS:;
#ATTACKS:;

//---------------dance-single - ----------------
#NOTES:
     dance-single:
     konacraze22 (KB):
     Edit:
     11:
     1.000,1.000,1.000,0.021,0.497:
0000
0000
0000
0000
0000
0000
0000
0000
0000
0000
0000
0000
1101
0010
0100
1000
,
0011
0000
0011
0000
0001
0010
1100
0000
0011
0000
0011
0000
0011
0010
0100
1000
,
1100
0000
0011
0000
0011
0010
0100
1000
1100
0000
0011
0000
0011
0001
0010
0100
,
1100
0000
0011
0000
0011
0010
0100
1000
1100
0000
0011
0000
0011
0010
0100
1000
,
1100
0000
0011
0000
0011
0010
0100
1000
1100
0000
0011
0000
0011
0010
0100
1000
,
1100
0000
0011
0000
0011
0010
0100
1000
1100
0000
0011
0000
0011
0010
0100
1000
,
1100
0000
0011
0000
0011
0010
0100
1000
1100
0000
0011
0000
0011
0010
0100
1000
,
1100
0000
0011
0000
0011
0010
0100
1000
1100
0000
0011
0000
0011
0010
0100
1000
,
1100
0000
0011
0000
0011
0010
0100
1000
1100
0000
0011
0000
0000
0000
0011
0000
,
1100
0000
1000
0100
0010
0000
0010
0000
0000
0001
0010
0100
0010
0000
0100
0000
,
0100
1000
0000
0100
0000
0001
0010
0000
0010
0100
1000
0000
0010
0100
1000
0000
,
1000
0100
0000
0010
0100
0000
0001
0010
0000
0100
0010
0001
0000
0010
0100
0000
,
0100
1000
0000
0010
0100
0000
1000
0100
1000
0100
1000
0100
0011
0000
1100
0000
,
0100
0010
0000
0011
0000
0110
0000
0010
0100
0010
0000
1100
0000
0110
0010
0100
,
0000
1100
0000
0110
0000
0010
0100
1000
0100
1000
0100
0000
0001
0010
0000
0000
,
0100
0010
0000
0001
0110
0000
1100
0000
1000
0100
0010
0000
1000
0100
0010
0000
,
1000
0000
0100
0000
0010
0000
0000
0000
0001
0010
0001
0010
0001
0000
0000
0000
0110
0000
0000
0000
1100
0000
0000
0000
1101
0000
0000
0000
0000
0000
0000
0000
,
1101
0000
0100
0000
0010
0000
0001
0000
1011
0000
0010
0000
0100
0000
1000
0100
,
1000
0000
0100
0000
0010
0000
0100
0000
1101
0000
0100
0000
0010
0000
0001
0010
,
1101
0010
0100
1000
1101
0010
0100
0010
,
1011
0000
0010
0000
0100
0000
1000
0000
1101
0000
0010
0000
1000
0000
0001
0010
,
1101
0010
0001
0010
1101
0100
0010
0001
,
1011
0000
0010
0000
0100
0000
1000
0100
1000
0000
0100
0000
0010
0000
0100
0000
,
1101
0100
0010
0100
1101
0010
0100
1000
,
1011
0000
0100
0000
0001
0010
0100
1000
0001
0010
0100
1000
1011
0000
1101
0000
,
1101
1000
0100
0010
1011
0010
0100
1000
,
1011
0000
0100
0000
0010
0000
0001
0010
1101
0000
0010
0000
0100
0000
1000
0000
,
1101
0000
0010
0000
0100
0000
1000
0100
1011
0000
0100
0000
0010
0000
0001
0010
,
1101
0000
0010
0000
0100
0000
1000
0100
1011
0000
0010
0000
0100
0000
0010
0000
,
1011
0000
0010
0000
0100
0000
1000
0000
1101
0000
0010
0000
0100
0000
1000
0100
,
1011
0000
0100
0000
0010
0000
0010
0100
1011
0000
0100
0000
0010
0000
0001
0000
,
1011
0000
0010
0000
0100
0000
1000
0000
1101
0000
0010
0000
0100
0000
0002
0003
,
0011
0011
0110
0000
0011
0000
1011
0000
1011
0000
0011
0000
1100
0000
0000
0000
,
0001
0010
1011
0000
0011
0000
1100
0000
1000
0100
0110
0000
1100
0000
0110
0000
,
0001
0010
0110
0000
1100
0000
0110
0000
1000
0100
0110
0000
1100
0000
0010
0000
,
0001
0000
0100
1000
1101
0000
0010
0000
1101
0000
0010
0000
0100
0000
1000
0100
,
1101
0000
0100
0000
0010
0000
0001
0010
1011
0000
0010
0000
0100
0000
1000
0000
,
1011
0010
0100
0000
1011
0000
0100
1000
1101
0000
0010
0000
0100
0000
1000
0100
,
1101
0000
0100
0000
1011
0000
0100
1000
1101
0000
0010
0000
0100
0000
0001
0010
,
1011
0000
0010
0000
0100
0000
1000
0100
1101
0000
1000
0000
0100
0000
0010
0000
,
1011
0000
0010
0000
0100
0000
0010
0000
1011
0000
1101
0000
0000
0000
1000
0100
,
1101
0010
0001
0000
0000
0000
0001
0010
1101
0100
1000
0000
0000
0000
1000
0100
,
1101
0010
0001
0000
0000
0000
0001
0010
1101
0100
1000
0000
0100
0000
0010
0000
,
1011
0010
0100
1000
1101
0100
0010
0100
,
1101
0100
0001
0100
1011
0010
0100
1000
,
1101
0010
1101
0010
1101
0100
1011
0100
,
1011
0010
1011
0010
1011
0010
0100
0010
,
1101
0010
0100
1000
1101
0010
0100
1000
,
1011
0000
0000
0000
0100
0000
0000
0000
0001
0010
0001
0010
0001
0000
0000
0000
0011
0000
0000
0000
1100
0000
0000
0000
1101
0000
0000
0000
0000
0000
0000
0000
,
0001
0000
0010
0000
1101
0010
0100
0000
1000
0000
0100
0000
0010
0000
0100
0000
,
1101
0010
0100
0000
1000
0000
0100
0000
0010
0000
0001
0000
1011
1000
0100
0000
,
0010
0000
0001
0000
0010
0000
0100
0000
1101
0010
0100
0000
1000
0000
0100
0000
,
0010
0000
0001
0000
1011
0010
0100
0000
1000
0000
0100
0000
0010
0000
0001
0000
,
1011
0100
0010
0000
0001
0000
0010
0000
0100
0000
1000
0000
1101
0010
0100
0000
,
1000
0000
0100
0000
0010
0000
0001
0000
1011
0100
0010
0000
0001
0000
0010
0000
,
1101
0010
0100
0000
1000
0000
0100
0000
0010
0000
0001
0000
1011
0100
0010
0000
,
0001
0000
0010
0000
0100
0000
1000
0000
1101
0010
0100
0000
1000
0000
0100
0000
,
0010
0000
0001
0000
1011
0100
0010
0000
0001
0000
0010
0000
0100
0000
1000
0000
,
1101
0010
0100
1000
0100
0000
1011
0000
1011
0000
1101
0000
1101
0010
0100
1000
,
0100
0010
0001
0010
1101
0000
1011
0000
1101
0000
1000
0100
1000
0000
0100
0000
,
1101
0010
0100
1000
1101
1000
0100
0010
,
1011
0010
0100
1000
1101
1000
0100
0010
,
1011
0000
0001
0000
0010
0000
0100
0010
1101
0000
1000
0000
0100
0000
0010
0100
,
1011
0000
0001
0000
0010
0000
0100
0010
1101
0000
1000
0000
0100
0000
0010
0100
,
1011
0000
0001
0000
0010
0000
0100
0010
1101
0000
1101
0000
1101
0000
0000
0000
,
1101
0000
0000
0000
1101
0010
0100
0000
1101
0000
0000
0000
1101
0000
0000
0000
,
1101
0000
0000
0000
1101
0010
0100
0000
1101
0000
0000
0000
1101
0000
0000
0000
,
1101
0000
0000
0000
1101
0010
0100
0000
1101
0000
0000
0000
1101
0000
0000
0000
,
1101
0000
0000
0000
1101
0010
0100
0000
1101
0000
0000
0000
1101
0000
0000
0000
,
1011
0000
0000
0000
1011
0100
0010
0000
1011
0000
0000
0000
1011
0000
0000
0000
,
1011
0000
0000
0000
1011
0100
0010
0000
1011
0000
0000
0000
1011
0000
0000
0000
,
1011
0000
0000
0000
1011
0100
0010
0000
1011
0000
0000
0000
1011
0000
0000
0000
,
1011
0000
1100
0110
0011
0000
1100
0000
0011
0000
1100
0000
0220
0000
0000
0000
,
0000
0000
0000
0000
,
0330
0000
0000
0000
;

//---------------dance-single - ----------------
#NOTES:
     dance-single:
     Challenge konacraze22 (KB):
     Challenge:
     10:
     0.639,0.711,0.786,1.000,0.049:
0000
0000
0000
0000
,
0002
0023
0030
0000
0200
2300
3000
0000
,
0002
0023
0030
0000
0200
2300
3000
0100
,
1000
0100
0010
0001
0010
0001
0010
0100
,
0010
0002
0003
2000
3100
1200
0000
0300
,
0002
0023
0030
0000
0200
2300
3000
0000
,
0002
0023
0030
0000
0200
2300
3000
0100
,
1000
0100
0010
0001
0010
1000
0010
0100
,
0010
0220
0000
0330
0011
1100
0000
0010
,
0100
0000
0000
0000
0010
0000
0001
0000
0100
0000
0010
0000
0001
0010
0100
0000
,
0010
0000
1000
0000
0010
0100
1000
0000
0100
0000
0001
0000
0010
0100
1000
0000
,
0100
0000
0010
0000
0100
0000
0010
0000
0001
0100
1000
0000
0010
0000
0001
0000
,
0010
0000
0001
0010
0100
0000
0010
0000
0001
0000
0100
0000
0001
0000
1000
0000
,
0001
0010
0100
0000
0010
0000
0001
0000
1000
0000
0010
0000
0010
0100
1000
0000
,
0100
0000
0010
0000
0001
0010
0100
0000
0010
0000
1000
0000
0001
0010
0100
0000
,
0010
0000
1000
0000
0010
0000
0001
0000
0010
0100
1000
0000
0100
0000
0001
0000
,
0010
0000
0000
0000
0000
0000
0001
0010
0001
0010
0001
0000
0010
0000
0000
0000
0100
0000
0000
0000
1000
0000
0000
0000
0000
0000
0000
0000
0000
0000
0000
0000
,
0010
0100
0010
0100
0001
0002
0000
0000
,
0003
0000
2200
3300
0220
0330
0022
0033
,
0001
0022
0033
0220
0330
2200
3300
1000
,
1000
0000
2200
3300
0220
0330
0022
0033
,
0100
0022
0033
0100
0010
2000
0000
0000
,
0000
3000
0022
0033
0220
0330
2200
3300
,
1000
0220
0000
0000
0000
0330
0022
0033
,
0010
0220
0330
0022
0033
2200
3300
0000
,
0000
1000
0100
0010
0100
2200
0000
0000
,
3300
0000
2200
3300
0220
0330
0022
0033
,
0001
0022
0033
0220
0330
2200
3300
1000
,
1000
0000
0022
0033
0220
0330
2200
3300
,
0100
0022
0033
0220
0330
0110
2200
0000
,
3300
0000
2200
3300
0220
0330
0022
0033
,
0010
0100
0010
0022
0033
2200
0000
3300
,
0000
0000
0000
0000
,
0002
0023
0030
0000
0200
2300
3000
0000
,
0002
0023
0030
0000
0200
2300
3000
0100
,
1000
0100
0010
0001
0010
0100
0010
0001
,
0010
0022
0033
0100
0010
0001
0000
0000
,
0002
0023
0030
0000
0200
2300
3000
0000
,
0002
0023
0030
0000
0200
2300
3000
0100
,
1000
0100
0010
0001
0010
0100
0010
0001
,
0010
0002
0000
0003
0110
0110
0000
0000
,
0002
0023
0030
0000
0200
2300
3000
0000
,
0002
0023
0030
0000
0200
2300
3000
0001
,
0010
0001
0010
0100
0010
0001
0010
0100
,
1000
0200
0300
0010
0100
1000
0000
0110
,
0000
1100
0000
0011
0000
0110
0000
0011
,
0000
0110
0000
0011
0000
0011
0000
0001
,
0001
0001
0000
0110
0000
0101
0000
0001
,
0010
0100
0011
0010
1100
0100
0220
0330
,
0002
0023
0030
0000
0200
2300
3000
0000
,
0002
0023
0030
0000
0200
2300
3000
0000
,
0002
0023
0030
0000
0200
2300
3000
0000
,
0002
0023
0030
0000
0200
2300
3000
0000
,
0002
0023
0030
0000
0200
2300
3000
0000
,
0002
0023
0030
0000
0200
2300
3000
0000
,
0002
0023
0030
0000
0200
2300
3000
0000
,
0002
0023
0030
0000
0200
2300
3000
0000
,
0011
0002
0003
0000
1100
2000
3000
0000
,
0011
0002
0003
0000
1100
2000
3000
0000
,
0011
0002
0003
0000
1100
2000
3000
0000
,
0011
0020
0030
0000
1100
2000
3000
0000
,
0011
0011
1100
1100
,
0011
0011
1100
1100
,
0011
0011
1100
1100
,
0011
0011
1100
1100
,
0011
0011
1100
1100
,
0011
0011
1100
1100
,
0011
0011
1100
1100
,
0011
0110
1100
0011
,
0110
1100
0011
0110
,
1100
0011
0110
1100
,
0011
0110
1100
0011
,
0110
1100
0011
0220
,
0330
0000
0000
0000
;

//---------------dance-single - Heavy Itsugo15----------------
#NOTES:
     dance-single:
     Heavy Itsugo15 (PAD):
     Hard:
     9:
     0.733,0.797,0.549,0.132,0.511:
0000
0000
0000
0000
,
1010
0101
0000
0000
0101
1010
0000
0000
,
0011
1100
0000
0000
1100
0011
0000
0001
,
0010
0100
1000
0100
0010
0001
1000
0010
,
0100
0002
0000
0103
0010
2000
0000
3000
,
1010
1100
0000
0000
1100
1010
0000
0000
,
0101
0011
0000
0000
0011
0101
0000
0001
,
0100
0010
1000
0010
0100
0001
1000
0100
,
0010
0002
0000
0003
0010
0100
0110
0010
,
0001
0000
1000
0100
0010
0000
0001
0010
0000
0100
1000
0100
1100
0000
1000
0000
,
0001
0000
0001
1000
0001
0000
0010
0001
0011
0000
0011
0000
1001
0000
1000
0000
,
0001
0000
0010
0100
0000
0010
0001
0000
1000
0100
0010
0100
2000
0000
0100
0000
,
3100
0000
0100
0010
0000
0001
0010
0100
0010
0001
0010
0100
0110
0000
0110
0000
,
1001
0000
1000
0010
0000
0010
0100
0000
0001
0100
0001
0000
0100
0000
0010
0000
,
0100
0000
1000
0100
0000
0010
0100
0000
0001
0100
0010
0100
0002
0000
0100
0000
,
0103
0000
0001
1000
0000
1000
0100
0000
0010
0000
0001
0000
0010
0000
0100
0000
,
1000
0000
0100
0010
0001
0010
0100
0010
0001
0000
0011
0000
1001
0000
1000
0000
,
0010
0100
0001
0100
0010
2000
0000
3000
,
0100
0010
0100
1000
0100
0010
0001
1000
,
0010
0100
0001
0010
0100
2000
0000
0000
,
3100
0010
0001
1000
0010
0100
0001
0100
,
0010
1000
0010
0100
0002
2000
0003
0000
,
3100
0010
0100
1000
0001
0100
0010
1000
,
0100
0020
0000
0100
0100
0130
0010
0001
,
1000
0100
0010
0001
1000
0100
1100
1001
,
1010
0010
1000
0010
0100
0002
0000
0003
,
0010
0100
0010
0001
0010
0100
1000
0001
,
0100
0010
1000
0100
0010
0002
0000
0000
,
0013
0100
1000
0001
0100
0010
1000
0010
,
0100
0001
0100
0010
2000
0002
3000
0000
,
0013
0100
0010
0001
1000
0010
0100
0001
,
0010
0100
1000
0100
0010
0001
1000
1001
,
0001
1000
0001
0000
0100
0000
0101
0000
1001
0000
0011
0000
0110
0000
0100
0000
,
1000
0100
1000
0000
0100
0000
0010
0000
0001
0010
0001
0000
1000
0000
0001
0000
,
1000
0001
1000
0000
0010
0000
0100
0000
0010
0100
0010
0000
0100
0000
0001
0000
,
0100
0001
0100
0000
0001
1000
0001
0000
1000
0100
1000
0000
0100
0010
0100
0000
,
0010
0001
0010
0100
1000
0100
0010
0100
1000
0001
0010
0100
1000
0000
1100
0000
,
1001
0000
0001
1000
0010
0000
1010
0000
0110
0000
0010
0100
0001
0000
0101
0000
,
1001
0000
0001
1000
0100
0000
1100
0000
1001
0000
1000
0001
0010
0000
0100
0000
,
1000
0100
1000
0000
0001
1000
0001
0000
0100
0001
0100
0000
0010
0100
0010
0000
,
1000
0010
1000
0000
0010
1000
0010
0100
0001
0000
0101
0000
0001
0100
0010
1000
,
0010
1000
M020
000M
0M00
M000
000M
0M30
0100
0010
0100
0010
02M0
M000
00M0
000M
,
0301
0100
0001
020M
00M0
M000
00M0
000M
0301
1000
0001
1000
0001
0000
0100
0010
,
1000
0000
0100
0010
0001
0000
0010
0100
1000
0000
0001
0100
0010
0000
1000
0010
,
0100
0000
0001
1000
0100
0000
0010
0001
1000
0000
0001
0000
1001
0000
0001
0000
,
0101
0100
0010
1000
1010
0010
0100
0001
,
0101
0001
1001
1000
1100
1000
1001
0001
,
0010
0100
1000
0100
0010
0001
1000
0010
,
0100
0000
0001
0000
0100
0010
1000
0010
1000
0001
1000
0000
1001
0000
0001
0000
,
0010
0100
0000
1000
0100
0000
0010
0000
0001
1000
0000
0010
0100
0000
0010
0000
,
0100
0001
0000
1000
0001
0000
0010
0000
0100
1000
0000
0001
1000
0000
0010
0000
,
1000
0010
1000
0010
1000
0000
0001
0000
0100
0001
0100
0001
0100
0000
0001
0000
,
1000
0001
1000
0001
1000
0000
0100
0000
0010
0100
0010
0100
0010
0000
0001
0000
,
0010
0100
0000
1000
0100
0000
0010
0000
0001
1000
0000
0010
0100
0000
0010
0000
,
0100
0001
0000
1000
0001
0000
0010
0000
0100
1000
0000
0001
1000
0000
0010
0000
,
1000
0010
1000
0010
1000
0000
0001
0000
0100
0001
0100
0001
0100
0000
0001
0000
,
1000
0001
1000
0001
1001
0000
1100
0000
1001
0000
0101
0000
1001
0000
1000
0000
,
0100
0010
0000
0001
0010
0000
0100
0000
1000
0001
0000
0100
0010
0000
0100
0000
,
0010
1000
0000
0001
1000
0000
0100
0000
0010
0001
0000
1000
0001
0000
0100
0000
,
0001
0100
0001
0100
0001
0000
1000
0000
0010
1000
0010
1000
0010
0000
1000
0000
,
0001
1000
0001
1000
0001
0000
0010
0000
0100
0010
0100
0010
0100
0000
1000
0000
,
0100
0010
0000
0001
0010
0000
0100
0000
1000
0001
0000
0100
0010
0000
0100
0000
,
0010
1000
0000
0001
1000
0000
0100
0000
0010
0001
0000
1000
0001
0000
0100
0000
,
0001
0100
0001
0100
0001
0000
1000
0000
0010
1000
0010
1000
0010
0000
1000
0000
,
0001
1000
0001
1000
1001
0000
1010
0000
1001
0000
0011
0000
0110
0000
0000
0000
,
0110
0000
0000
0000
0010
0100
1000
0000
0100
0000
0010
0000
0011
0000
0000
0000
,
0011
0000
0000
0000
0010
0001
0100
0000
0001
0000
1000
0000
1001
0000
0000
0000
,
1001
0000
0000
0000
0001
1000
0100
0000
1000
0000
0010
0000
1010
0000
0000
0000
,
1010
0000
0000
0000
0010
1000
0100
0000
0010
0000
0001
0000
0011
0000
0000
0000
,
1001
0000
0000
0000
1000
0010
0100
0000
0010
0000
1000
0000
1010
0000
0000
0000
,
1001
0000
0000
0000
0001
0010
0100
0000
1000
0000
0001
0000
1001
0000
0000
0000
,
0110
0000
0000
0000
0010
0100
0010
0000
0100
0000
0010
0000
0110
0000
0000
0000
,
1001
0000
0001
1000
0001
0000
0011
0000
1001
0000
2020
0000
0000
0000
0000
0000
,
0000
0000
0000
0000
,
3030
0000
0000
0000
;

//---------------dance-single - Beginner Itsugo15----------------
#NOTES:
     dance-single:
     Beginner Itsugo15 (PAD):
     Beginner:
     1:
     0.087,0.101,0.007,0.000,0.000:
0000
0000
0000
0000
,
1000
0000
0000
0000
,
0001
0000
0000
0000
,
0010
0000
0010
0000
,
0100
0000
0100
0000
,
1000
0000
0000
0000
,
0001
0000
0000
0000
,
0100
0000
0100
0000
,
0010
0000
0010
0000
,
1000
0000
0000
0000
,
0010
0000
0000
0000
,
0100
0000
0000
0000
,
0001
0000
0000
0000
,
1000
0000
0000
0000
,
0100
0000
0000
0000
,
0010
0000
0000
0000
,
0001
0000
0000
0000
,
1000
0000
0000
0000
,
0001
0000
0000
0000
,
0100
0000
0000
0000
,
0010
0000
0000
0000
,
1000
0000
0000
0000
,
0001
0000
0000
0000
,
0010
0000
0000
0000
,
0100
0000
0000
0000
,
1000
0000
0000
0000
,
0100
0000
0000
0000
,
0010
0000
0000
0000
,
0001
0000
0000
0000
,
0100
0000
0000
0000
,
0010
0000
0000
0000
,
1000
0000
0000
0000
,
0001
0000
1000
0000
,
0100
0000
0000
0000
,
0010
0000
0000
0000
,
0001
0000
0001
0000
,
1000
0000
1000
0000
,
0010
0000
0000
0000
,
0100
0000
0000
0000
,
0001
0000
0001
0000
,
1000
0000
1000
0000
,
0100
0000
0000
0000
,
0010
0000
0000
0000
,
0001
0000
0001
0000
,
1000
0000
1000
0000
,
0001
0000
0000
0000
,
0100
0000
0000
0000
,
0010
0000
1000
0000
,
0100
0000
0010
0000
,
0001
0000
0000
0000
,
0001
0000
0000
0000
,
1000
0000
0000
0000
,
1000
0000
0000
0000
,
0010
0000
0000
0000
,
0010
0000
0000
0000
,
0100
0000
0000
0000
,
0100
0000
0000
0000
,
0001
0000
0000
0000
,
1000
0000
0000
0000
,
0100
0000
0000
0000
,
0010
0000
0000
0000
,
0001
0000
0000
0000
,
1000
0000
0000
0000
,
0010
0000
0000
0000
,
0100
0000
0001
0000
,
0000
0000
0000
0001
,
0000
0000
0000
0001
,
0000
0000
0000
0001
,
0000
0000
0000
1000
,
0000
0000
0000
1000
,
0000
0000
0000
1000
,
0000
0000
0000
1000
,
0000
0000
0001
0000
0000
1001
0000
0000
;

//---------------dance-single - Light Itsugo15----------------
#NOTES:
     dance-single:
     Light Itsugo15 (PAD):
     Easy:
     4:
     0.168,0.206,0.021,0.104,0.000:
0000
0000
0000
0000
,
1000
0000
1000
0000
,
0001
0000
0001
0000
,
0010
0000
0100
0000
,
1000
0000
1000
0000
,
0001
0000
0001
0000
,
1000
0000
1000
0000
,
0010
0000
0100
0000
,
0002
0000
0000
1003
,
0010
0000
0010
0000
,
0100
0000
0001
0000
,
1000
0000
1000
0000
,
0100
0000
0010
0000
,
0001
0000
0001
0000
,
0100
0000
0010
0000
,
1000
0000
1000
0000
,
0010
0000
0100
0101
,
0001
0000
0001
0000
,
1000
0000
0100
0000
,
0010
0000
0002
0000
,
1003
0000
1000
0000
,
0010
0000
0010
0000
,
0100
0000
0001
0000
,
2000
0000
3100
0000
,
0010
0000
0001
0001
,
1000
0000
1000
0000
,
0010
0000
0010
0000
,
0100
0000
0002
0000
,
1003
0000
0100
0000
,
0010
0000
0100
0000
,
1000
0000
0001
0000
,
0100
0000
0010
0000
,
1000
0001
1000
1001
,
0001
0000
0001
0000
,
1000
0000
1000
0000
,
0100
0000
0010
0000
,
0002
0000
2003
0000
,
3001
0000
0001
0000
,
1000
0000
1000
0000
,
0001
0000
0100
0000
,
0020
0000
0230
0000
,
0310
0000
0010
0000
,
0100
0000
0100
0000
,
0001
0000
1000
0000
,
0200
0000
0320
0000
,
0100
0000
0001
0000
,
0100
0000
1000
0000
,
0031
0000
1000
0000
,
0001
1000
0001
1001
,
0001
0000
0001
0000
,
0001
0000
0002
0000
,
1000
0000
1000
0000
,
1000
0000
1000
0000
,
1003
0000
1000
0000
,
1000
0000
2000
0000
,
0001
0000
0001
0000
,
0001
0000
0001
0000
,
3100
0000
0100
0000
,
0100
0000
0200
0000
,
0010
0000
0010
0000
,
0010
0000
0010
0000
,
0310
0000
0010
0000
,
0010
0000
0020
0000
,
0100
0000
0100
0000
,
0100
0000
0130
0000
,
0100
0000
0100
0000
,
1000
0000
1000
0000
,
0001
0000
0001
0000
,
0100
0000
0100
0000
,
0010
0000
1000
0000
,
0001
0000
0010
0000
,
0001
0000
0100
0000
,
0010
0000
0000
0000
1000
0002
0000
0000
,
0000
0000
0000
0000
,
0003
0000
0000
0000
;

//---------------dance-single - Medium Itsugo15----------------
#NOTES:
     dance-single:
     Medium Itsugo15 (PAD):
     Medium:
     6:
     0.409,0.429,0.306,0.222,0.010: // measure 1
0000
0000
0000
0000
,  // measure 2
1000
0200
0000
0300
0010
0002
0000
0003
,  // measure 3
0100
0020
0000
0030
1000
0002
0000
0003
,  // measure 4
1000
0010
0100
1000
,  // measure 5
0100
0010
1000
0001
,  // measure 6
1000
0200
0000
0300
0001
0200
0000
0300
,  // measure 7
0010
0002
0000
0003
1000
0020
0000
0030
,  // measure 8
0100
1000
0100
0020
,  // measure 9
0000
0000
1030
1001
,  // measure 10
0101
0000
0100
0010
1000
0000
1010
0000
,  // measure 11
1001
0000
0001
1000
0001
0010
0001
1000
,  // measure 12
0001
0000
0101
0000
1010
0000
1000
0010
,  // measure 13
1000
0001
1000
0100
0010
0010
0110
0000
,  // measure 14
0011
0000
0010
0001
1000
0001
0010
0000
,  // measure 15
0011
0000
0001
1000
0010
1000
0001
0000
,  // measure 16
0011
0000
1001
0000
1010
1000
0000
0010
,  // measure 17
0100
0001
0010
0100
1000
0001
1001
0000
,  // measure 18
0101
0000
0100
0010
0000
2000
0000
0000
,  // measure 19
3001
0000
1100
0000
0010
0100
1000
0000
,  // measure 20
0001
1000
0000
0010
0000
0200
0000
0300
,  // measure 21
0101
0001
1000
0010
,  // measure 22
0100
0001
0000
0001
1000
0002
0000
0003
,  // measure 23
1001
0001
1000
0010
,  // measure 24
0100
0002
0000
0003
0001
0000
1000
0000
,  // measure 25
1000
1000
0000
0010
0000
1010
0000
1000
,  // measure 26
0001
0000
0010
0100
0000
2000
0000
0000
,  // measure 27
3100
1100
0011
0001
,  // measure 28
0001
1000
0000
1000
0000
0002
0000
0000
,  // measure 29
0103
0101
1010
0010
,  // measure 30
1000
0001
0000
0001
0000
2000
0000
3000
,  // measure 31
1010
0010
0100
0001
,  // measure 32
1000
0000
0100
0000
0000
0000
0010
0000
0000
0000
0001
0000
0000
0000
2000
3000
,  // measure 33
0000
0000
0002
0000
0000
0000
0003
000M
00M0
0M00
00M0
000M
1001
0000
0000
0000
,  // measure 34
0001
0100
0001
0000
1000
0010
1000
0000
,  // measure 35
0100
0010
0001
0000
0010
0100
1000
0000
,  // measure 36
1000
0100
1000
0100
0010
0001
0010
0001
,  // measure 37
1000
0001
1000
0001
0100
0010
1000
0001
,  // measure 38
1001
0001
0101
0100
,  // measure 39
0110
0010
1010
1000
,  // measure 40
0010
0100
0001
0000
1000
0100
0010
0000
,  // measure 41
0001
1000
0010
0000
0100
0001
1000
0000
,  // measure 42
0010
0020
0031
0002
,  // measure 43
0103
0200
1300
2000
,  // measure 44
3010
0001
0100
1000
,  // measure 45
0010
0001
0100
1000
,  // measure 46
1000
0001
0001
0100
,  // measure 47
0010
1000
0100
0010
,  // measure 48
0010
0100
0100
1000
,  // measure 49
0001
0100
0010
0110
,  // measure 50
0010
0020
1030
2000
,  // measure 51
3001
0002
0013
0020
,  // measure 52
0130
0010
0000
0000
0001
0010
0000
0000
,  // measure 53
0100
0010
0000
0000
1000
0010
0000
0000
,  // measure 54
0010
0020
0031
0002
,  // measure 55
1003
2000
3100
0200
,  // measure 56
0310
0100
0000
0000
0001
0100
0000
0000
,  // measure 57
0010
0100
0000
0000
1000
0100
0000
0000
,  // measure 58
1000
0100
1000
0000
0100
0010
0001
0000
,  // measure 59
0001
0010
0001
0000
0001
0010
0100
0000
,  // measure 60
1000
0001
0100
0000
0100
0001
1000
0000
,  // measure 61
1000
0001
0100
0000
0100
0001
1000
0000
,  // measure 62
0001
0100
0001
0000
0100
0010
1000
0000
,  // measure 63
1000
0010
1000
0000
0010
0100
0001
0000
,  // measure 64
0001
1000
0100
0000
0100
1000
0001
0000
,  // measure 65
0001
1000
0100
0000
1000
0000
1001
0000
,  // measure 66
1001
1000
0010
1010
,  // measure 67
1010
0010
0100
0110
,  // measure 68
0110
0100
0001
0101
,  // measure 69
0101
0001
1000
1001
,  // measure 70
1001
1000
0100
1100
,  // measure 71
1100
0100
0010
0110
,  // measure 72
0110
0010
0001
0022
,  // measure 73
0033
0001
1000
0100
0010
0001
0000
0000
;
