#TITLE:モザイクカケラ;
#SUBTITLE:コードギアス 反逆のルルーシュ 2nd Ending;
#ARTIST:サンセット スウィッシュ;
#TITLETRANSLIT:Mosaic Kakera;
#SUBTITLETRANSLIT:Code Geass Hangyaku no Lelouch 2nd Ending;
#ARTISTTRANSLIT:SunSet Swish;
#GENRE:Anime;
#CREDIT:Itsugo15;
#MENUCOLOR:;
#BANNER:Mosaic Kakera-bn.jpg;
#BACKGROUND:Mosaic Kakera-bg.jpg;
#LYRICSPATH:Mosaic Kakera.lrc;
#CDTITLE:Itsugo15 SimifileS.png;
#MUSIC:Mosaic Kakera.mp3;
#OFFSET:-0.845;
#SAMPLESTART:49.202;
#SAMPLELENGTH:30.000;
#SELECTABLE:YES;
#LISTSORT:;
#DISPLAYBPM:130.000;
#BPMS:0.000=260.000,15.500=130.000;
#STOPS:15.500=0.200
;
#TICKCOUNT:0.000=8;
#BGCHANGES:16.000=Mosaic Kakera.avi=1.000=0=1=0,
257.000=Mosaic Kakera-bg.jpg=1.000=1=1=0,
99999=-nosongbg-=1.000=0=0=0 // don't automatically add -songbackground-
;
#KEYSOUNDS:;
#ATTACKS:;

//---------------dance-single - Heavy Itsugo15----------------
#NOTES:
     dance-single:
     Heavy Itsugo15:
     Hard:
     9:
     0.485,0.549,0.348,0.426,0.031:
0000
2002
0000
0000
,
0000
0000
0000
0000
,
0000
0000
0000
0000
,
0000
0000
0000
0000
0000
0000
0000
3003
,
0000
1000
0001
0010
0100
0000
0100
0010
,
0001
0000
1000
0010
0100
0000
0001
0001
,
1000
1000
0100
0100
0020
0000
0031
1000
,
0010
0000
0100
0100
0001
1000
0100
0010
,
0000
0010
0100
1000
0001
0000
0100
0010
,
1000
0000
1000
0001
0011
0000
1001
0000
,
0101
0000
0110
0000
2010
0000
0000
0002
,
0000
0000
0000
0000
0000
0000
0000
0000
0010
0000
0000
0010
0000
0000
3013
0000
,
0000
0001
0010
0100
1000
0100
0010
0001
,
0000
1000
0010
1010
0000
1001
0000
0011
,
0000
1001
0000
0100
0001
0010
0100
0010
,
0000
0001
1000
0020
0000
0000
0000
0000
,
0000
0100
0130
0000
0000
0001
1000
0100
,
0000
0100
1000
0010
0000
0010
1000
0001
,
0000
0001
0010
0100
0110
0000
0100
1100
,
0000
1000
1001
0001
0010
0000
0001
1000
,
0000
0001
0100
0000
0101
0100
0010
1000
,
0000
1000
0001
1001
0000
0011
0000
1100
,
0000
1000
0100
0000
0100
1000
0010
0200
,
0000
0300
0001
0020
0000
0030
0200
0000
,
2300
0000
3002
0000
0023
0030
0000
0100
,
0100
0000
0000
0000
0000
0000
0100
0000
0010
0000
0000
0100
0000
0000
1000
0000
,
0010
0000
0000
0100
0000
0000
0002
0000
0010
0000
0000
0000
0010
0000
0000
0000
,
0010
0010
1000
1000
,
0100
0000
1003
0000
1001
0000
0100
0010
,
0001
0000
1000
0010
0100
0000
0001
0001
,
1000
1000
0100
0100
0020
0000
0031
1000
,
0020
0000
0000
0000
0130
0000
0100
0000
0001
0000
1000
0000
0100
0000
0020
0030
,
0002
0003
0200
0300
2000
3000
0200
0300
0002
0000
0000
0000
1003
0000
0100
0000
,
0020
0000
0130
1000
1100
0000
1001
0000
,
0101
1001
0022
0000
,
2000
0000
0000
0000
0000
3000
0000
0033
,
0000
0010
0001
1000
0100
0000
0100
0010
,
0001
0000
0001
1000
0010
0000
0100
0100
,
0001
0001
1000
1000
0200
0000
1300
0002
,
1000
0000
1003
0000
0001
1000
0100
0001
,
0200
0300
2000
3000
0020
0030
0002
0003
0020
0000
0000
0000
1030
0000
0001
0000
,
0010
0000
0010
0001
0011
0000
1001
0000
,
1010
0000
1001
0000
2000
0000
3000
0002
,
0203
0000
0000
0000
0000
0000
0300
0000
0000
0020
0000
0000
0000
0000
0000
0000
0000
0000
2000
0000
0030
0000
0000
0000
0001
0000
0000
0000
0000
0000
0000
0000
0000
0000
0000
0000
0001
0000
0000
0000
0000
0000
0000
0000
0000
0000
0000
0000
,
3001
0001
0001
0010
0100
0000
1000
0001
,
0100
0000
0010
1000
0001
0000
0010
0010
,
0100
0100
1000
1000
0002
0000
0013
0100
,
2000
0000
0000
0000
3001
0000
0001
0000
0010
0000
0001
0000
1000
0000
0002
0003
,
0200
0300
0020
0030
0200
0300
0002
0003
2000
0000
0000
0000
3001
0000
1000
0000
,
0002
0000
1003
0010
1010
0000
0110
0000
,
0101
0000
1001
0000
0202
0000
0000
0020
,
0000
0000
0000
0000
0000
0030
0000
0303
,
0000
0001
0100
0010
1000
0000
1010
0000
,
0100
0000
0101
0002
0000
1003
0001
0000
,
1001
0000
0011
0001
0001
0010
0010
0100
,
0100
1000
1000
0001
0001
0001
0100
1000
,
0100
0001
0100
0010
1000
0000
0101
0000
,
0010
0000
1010
2000
0000
3001
1000
0000
,
1001
0000
1100
1000
1000
0100
0100
0010
,
0010
0000
0001
0000
0001
0000
1000
0000
1000
0000
0001
0000
0001
0000
1000
0001
,
1000
0001
0000
1000
0001
0000
1000
0001
1000
0000
0000
0000
1010
0000
0000
0000
,
0100
0000
0101
0002
0000
1003
0001
0000
,
1001
0000
0011
0001
0001
0010
0010
0100
,
0100
1000
1000
0001
0002
0003
0100
0020
,
0030
0010
2000
3000
1010
0000
0000
0000
;

//---------------dance-single - Challenge Itsugo15----------------
#NOTES:
     dance-single:
     Challenge Itsugo15:
     Challenge:
     12:
     0.749,0.704,0.828,0.240,0.325: // measure 1
0000
0000
0000
0000
,  // measure 2
2202
0000
0000
0000
,  // measure 3
0000
0000
0000
0000
,  // measure 4
0000
0000
0000
0000
0000
0000
0000
3303
,  // measure 5
0000
1000
0010
0100
0110
0010
0100
0010
,  // measure 6
0100
0010
0100
0001
0101
0100
0001
0100
,  // measure 7
0001
0100
0001
1000
1001
0001
1000
0001
,  // measure 8
1000
0001
1000
0100
1100
1000
0100
1000
,  // measure 9
0100
0010
0001
0000
0010
0001
1000
0000
1001
0000
0001
0000
1000
0000
0001
0000
,  // measure 10
1000
0001
1000
0010
1010
1000
0010
1000
,  // measure 11
0010
1000
0010
0100
0110
0100
0010
1000
,  // measure 12
0001
0000
0100
0000
0010
0000
1000
0000
1010
0000
0000
1001
0000
0000
0011
0000
,  // measure 13
0001
0000
1000
0100
0010
0100
1000
0001
1001
0000
1000
0000
0001
0000
1001
0000
,  // measure 14
1000
0010
0100
0110
0100
0010
1010
1000
,  // measure 15
1001
0001
0011
0010
0110
0100
1000
1100
,  // measure 16
0100
0010
0001
0021
0000
0000
0000
0000
,  // measure 17
0000
0001
0031
0000
1001
0001
1000
1001
,  // measure 18
1000
0001
1000
0010
1010
0010
0100
0110
,  // measure 19
0010
1000
0001
1000
1001
0001
0010
0022
,  // measure 20
0033
0001
1000
0010
1010
1000
0001
2002
,  // measure 21
3003
1000
0100
0100
1100
0100
0010
0110
,  // measure 22
0010
0001
1000
1100
0000
0101
0000
1010
,  // measure 23
0000
1000
0100
0000
0010
0100
1000
2200
,  // measure 24
0300
3001
0100
0010
0110
0010
1010
1000
,  // measure 25
1001
0001
0011
0010
0110
0100
0010
0100
,  // measure 26
0110
0000
0010
0000
0001
0000
1000
0000
0100
0000
1000
0001
0000
0000
0100
0000
,  // measure 27
0010
0000
1000
0001
0000
0000
1001
0000
1000
0100
1000
0001
0010
0001
1000
0001
,  // measure 28
1000
0001
0010
0100
1000
0100
0010
0001
MM11
0000
0000
0000
1MM1
0000
0000
0000
,  // measure 29
1M1M
0000
0010
1000
0001
0000
0100
0000
0101
0000
0001
0100
0010
0000
1000
0000
,  // measure 30
1010
0000
1000
0001
1000
0000
0001
0000
1001
0000
0001
0010
0100
0000
0100
0010
,  // measure 31
0001
0000
0001
0010
0100
1000
0001
0000
1001
0000
0001
0100
0010
1000
0001
0000
,  // measure 32
0100
0000
0010
1000
0001
0010
0100
0000
1000
0000
0100
0000
0110
0000
0011
0000
,  // measure 33
1001
0000
1010
0000
0101
0000
0110
0000
0010
0000
1000
0010
1000
0010
1000
0000
,  // measure 34
1001
0000
0001
0010
0001
0010
0001
0000
0020
0000
1030
0000
0020
0000
0031
0000
,  // measure 35
0200
1300
0200
0301
0200
0000
0020
0330
,  // measure 36
1010
0000
0010
0000
0100
0000
0001
0000
0100
0010
1000
0001
0010
0100
1000
0100
,  // measure 37
0010
0001
1000
0100
0010
0001
1000
0100
0010
0000
0001
0100
0010
0000
1000
0000
,  // measure 38
1010
0000
1000
0001
1000
0000
0001
0000
1001
0000
1000
0010
0100
0000
0100
0010
,  // measure 39
1000
0000
1000
0010
0100
0001
1000
0000
1001
0000
1000
0100
0010
0001
1000
0000
,  // measure 40
0010
0000
0100
0001
1000
0010
0100
0000
0001
0000
0100
0000
0110
0000
1010
0000
,  // measure 41
1001
0000
0011
0000
1100
0000
0110
0000
0010
0000
0001
0010
0001
0010
0001
0000
,  // measure 42
1001
0000
1000
0010
1000
0010
1000
0000
0020
0000
0031
0000
0020
0000
1030
0000
,  // measure 43
0200
0301
0200
1300
0200
0000
0000
0310
,  // measure 44
0110
0000
0000
0011
0000
0000
1100
0000
0010
0001
1000
0100
0010
0001
0010
0100
,  // measure 45
1000
0000
1100
0000
0011
0000
0101
0000
1010
0000
1000
0010
0100
0000
0001
0000
,  // measure 46
0101
0000
0001
1000
0001
0000
1000
0000
1001
0000
1000
0100
0010
0000
0010
0100
,  // measure 47
1000
0000
1000
0100
0010
0001
1000
0000
1001
0000
1000
0010
0100
0001
1000
0000
,  // measure 48
0010
0000
0100
0001
1000
0100
0010
0000
0001
0000
0010
0000
0110
0000
1100
0000
,  // measure 49
1001
0000
0101
0000
1010
0000
0110
0000
0100
0000
0001
0100
0001
0100
0001
0000
,  // measure 50
1001
0000
1000
0100
1000
0100
1000
0000
0200
0000
0310
0000
0020
0000
0031
0000
,  // measure 51
0002
1003
2000
3001
2002
0000
0003
3001
,  // measure 52
1000
0000
0010
0000
0100
0000
0001
0000
0100
0010
1000
0010
0100
0001
1000
0100
,  // measure 53
0010
0001
0010
0100
1000
0001
0010
0100
1000
0000
0100
0000
0010
0000
0100
0000
,  // measure 54
1000
0001
0100
0010
0100
0001
0100
0010
,  // measure 55
1000
0010
0100
0001
0101
0001
1001
0001
,  // measure 56
0011
0010
0110
0100
1100
0100
0110
0010
,  // measure 57
0011
0001
1001
1000
1010
0010
0100
0001
,  // measure 58
0100
0010
1000
0100
0001
0100
1000
0100
,  // measure 59
0010
0001
1000
0100
1100
1000
1001
1000
,  // measure 60
1010
0010
0110
0100
0101
0100
0110
0010
,  // measure 61
1010
0010
1000
0001
0100
0010
1000
0001
1001
0000
0010
0000
0100
0000
0010
0000
,  // measure 62
0001
1000
0100
0010
0100
1000
0001
0100
,  // measure 63
0010
1000
0001
1000
1001
0001
0011
0001
,  // measure 64
1001
1000
1100
1000
2002
3003
0001
1000
,  // measure 65
0000
1000
0001
0000
2002
0000
0000
0000
,  // measure 66
3003
0000
0000
0000
;

//---------------dance-single - Beginner Itsugo15----------------
#NOTES:
     dance-single:
     Beginner Itsugo15:
     Beginner:
     2:
     0.081,0.100,0.031,0.023,0.000:
0000
0000
0000
0000
,
0000
0000
0000
0000
,
0000
0000
0000
0000
,
0000
0000
0000
0000
,
0000
0000
0001
0000
,
0000
0000
0001
0000
,
0000
0000
1000
0000
,
0000
0000
1000
0000
,
0001
0000
0100
0000
,
0000
0000
0100
0000
,
0000
0000
0010
0000
,
0000
0000
0010
0000
,
0100
0000
0001
0000
,
0000
0000
0000
1000
0000
0000
0000
0000
,
0000
0000
0100
0000
,
0000
0000
0000
0010
0000
0000
0000
0000
,
0000
0000
0110
0000
,
0000
0000
0010
0000
,
0000
0000
0001
0000
,
0000
0000
1000
0000
,
0000
0000
0100
0000
,
0000
0000
0010
0000
,
0000
0000
0001
0000
,
0000
0000
1000
0000
,
0000
0000
0001
0000
,
0000
0000
0100
0000
,
0000
0000
0101
0000
,
0000
0000
1010
0000
,
0000
0000
1000
0000
,
0000
0000
0001
0000
,
0000
0000
0010
0000
,
0000
0000
0100
0000
,
0100
0000
1000
0000
,
0000
0000
0100
0000
,
0000
0000
0010
0000
,
0000
0000
0001
0000
,
0001
0000
1000
0000
,
0000
0000
0001
0000
,
0000
0000
0100
0000
,
0000
0000
0010
0000
,
0010
0000
1000
0000
,
0000
0000
0010
0000
,
0000
0000
1000
0000
,
0000
0000
0100
0000
,
0100
0000
0010
0000
,
0000
0000
0100
0000
,
0000
0000
1000
0000
,
0000
0000
0001
0000
,
0001
0000
0100
0000
,
0000
0000
0010
0000
,
0000
0000
1000
0000
,
0000
0000
0001
0000
,
1000
0000
0001
0000
,
0000
0000
0100
0000
,
0000
0000
0020
0000
,
0000
0000
0000
0000
,
0030
0000
1000
0000
,
0000
0000
0001
0000
,
0000
0000
0020
0000
,
0000
0000
0000
0000
,
0030
0000
0110
0000
,
0000
0000
0100
0000
,
0000
0000
2000
0000
,
0000
0000
0000
0000
,
3000
0000
0001
0000
;

//---------------dance-single - Light Itsugo15----------------
#NOTES:
     dance-single:
     Light Itsugo15:
     Easy:
     4:
     0.122,0.150,0.046,0.070,0.000:
0000
0000
0000
0000
,
0000
0000
0000
0000
,
0000
0000
0000
0000
,
0000
0000
0000
0000
,
0000
0000
0001
0000
,
0000
0000
1000
0000
,
0000
0000
0010
0000
,
0000
0000
0100
0000
,
0001
0000
1000
0000
,
0000
0000
0100
0000
,
0000
0000
0010
0000
,
0000
0000
0002
0000
,
0003
0000
0011
0000
,
0000
0000
0000
1001
0000
0000
0000
0000
,
0000
0000
1010
0000
,
0000
0000
0000
1001
0000
0000
0000
0000
,
0000
0000
1000
0000
,
0010
0000
0100
0000
,
0000
0000
0001
0000
,
0100
0000
0010
0000
,
0000
0000
1000
0000
,
0001
0000
0010
0000
,
0010
0000
0100
0000
,
1000
0000
0001
0000
,
0100
0000
0010
0000
,
0010
0000
1000
0000
,
0001
0000
2000
0000
,
0000
0000
0002
0000
,
3003
0000
1001
0000
,
0001
0000
0100
0000
,
0010
0000
1000
0000
,
0100
0000
0010
0000
,
0002
0000
1003
0000
,
0010
0000
0100
0000
,
0001
0000
0100
0000
,
0020
0000
0000
0000
,
0000
0030
0000
0000
0010
0000
0000
0000
,
1000
0000
0010
0000
,
0100
0000
0001
0000
,
0010
0000
0100
0000
,
2000
0000
3001
0000
,
0100
0000
0010
0000
,
1000
0000
0020
0000
,
0000
0000
0130
0000
,
0001
0000
1000
0000
,
0100
0000
0010
0000
,
0001
0000
1000
0000
,
0010
0000
0100
0000
,
0002
0000
0103
0000
,
0010
0000
1000
0000
,
1000
0000
0001
0000
,
0002
0000
0000
0000
,
0000
0003
0000
0000
1001
0000
0000
0000
,
0000
0000
1000
0000
,
0000
0000
0010
0000
,
0010
0000
0010
0000
,
0010
0000
0100
0000
,
0000
0000
0001
0000
,
0000
0000
0100
0000
,
0100
0000
0100
0000
,
0100
0000
0010
0000
,
0000
0000
1000
0000
,
0000
0000
0001
0000
,
0001
0000
0001
0000
,
0001
0000
0010
0000
;

//---------------dance-single - Medium Itsugo15----------------
#NOTES:
     dance-single:
     Medium Itsugo15:
     Medium:
     7:
     0.290,0.299,0.170,0.170,0.004:
0000
0000
0000
0000
,
0002
0000
0000
0000
,
0000
0000
0000
0000
,
0000
0000
0000
0000
0000
0000
0000
0003
,
0000
0001
1000
0010
,
0010
0100
0100
0001
,
1000
0100
0020
0001
,
0031
1000
0010
0100
,
0001
0100
0010
1000
,
1000
0001
0010
0100
,
0010
0000
0001
0000
2000
0000
0000
0002
,
0000
0000
0000
0000
0003
0000
0000
0000
0001
0000
0000
0001
0000
0000
3001
0000
,
0000
0000
1000
0000
1001
0000
0000
1001
,
0000
0000
0000
1001
0000
0000
0000
0000
,
0000
0000
0001
0000
1001
0000
0000
1001
,
0000
0000
0000
1001
0000
0000
0000
0000
,
0000
1000
1000
0000
0002
0000
0013
0000
,
2000
3010
0002
0100
,
0103
0000
0020
0000
1000
0000
0000
0100
,
0000
0000
0000
0000
0001
0000
0000
0130
,
0000
0010
2000
3100
,
0002
0103
0010
2000
,
3010
0000
0200
0000
0001
0000
0000
0020
,
0000
0030
0000
0000
1000
0000
0000
0020
,
0000
0330
0010
0000
0110
0000
0000
0000
,
0001
0000
1000
0100
,
0010
0001
2000
0001
,
0001
3001
1000
0001
,
0100
0010
0110
0010
,
1010
1000
1001
0001
,
0010
0100
0010
0010
,
0001
0001
1000
0010
,
0001
0010
1000
1010
,
1000
1001
0001
0010
,
1000
0010
0002
0000
,
2003
0000
3001
1000
,
0001
1000
1001
1000
,
1010
0010
0110
0100
,
0001
0100
1000
0100
,
0100
0001
0001
0010
,
0100
0010
0001
0001
,
1000
1000
0010
0001
,
0010
1000
0002
0000
,
1003
0000
0001
0010
,
0100
1000
1100
1000
,
1001
0001
0101
0001
,
0100
0010
0100
0100
,
0001
0001
1000
0100
,
0010
0100
1000
1000
,
0001
0001
0100
0010
,
1000
0000
0001
0000
2000
0000
0000
0002
,
0000
3003
1000
0001
,
1000
0001
1001
1000
,
1000
0001
0010
0010
,
0100
0010
0001
0001
,
1000
1000
0100
0010
,
0100
1000
1100
0100
,
0100
0010
0001
0001
,
1000
0010
0100
0100
,
0001
0001
1000
0100
,
0010
0001
0011
0001
,
0001
1000
0100
0100
,
0010
0100
1000
1000
,
0001
0001
0200
0300
,
0020
0030
0110
0000
;
