#TITLE:廃獄ララバイ;
#SUBTITLE:東方バイオリンロックII;
#ARTIST:Tamusic x Keigo Kanzaki;
#TITLETRANSLIT:Lullaby of Deserted Hell;
#SUBTITLETRANSLIT:Touhou Violin Rock II;
#ARTISTTRANSLIT:TAMUSIC x Keigo Kanzaki;
#GENRE:Touhou Mahouyou ~ Magical Dance Phantasm;
#CREDIT:Itsugo;
#BANNER:Lullaby of Deserted Hell - bn.png;
#BACKGROUND:Lullaby of Deserted Hell-bg.png;
#LYRICSPATH:Lullaby of Deserted Hell.lrc;
#CDTITLE:Itsugo15 SimifileS.png;
#MUSIC:Lullaby of Deserted Hell.ogg;
#OFFSET:-0.391;
#SAMPLESTART:29.063;
#SAMPLELENGTH:16.662;
#SELECTABLE:YES;
#BPMS:0.000=180.040;
#STOPS:;
#TICKCOUNT:0.000=6;
#BGCHANGES:0.000=Lullaby of Deserted Hell-bg5.jpg=1.000=1=1=0,
36.000=Lullaby of Deserted Hell-bg7.jpg=1.000=1=1=0,
86.000=Lullaby of Deserted Hell-bg11.jpg=1.000=1=1=0,
136.000=Lullaby of Deserted Hell-bg2.jpg=1.000=1=1=0,
160.000=Lullaby of Deserted Hell-bg6.jpg=1.000=1=1=0,
192.000=Lullaby of Deserted Hell-bg3.jpg=1.000=1=1=0,
224.000=Lullaby of Deserted Hell-bg9.jpg=1.000=1=1=0,
274.000=Lullaby of Deserted Hell-bg10.jpg=1.000=1=1=0,
324.000=Lullaby of Deserted Hell-bg8.jpg=1.000=1=1=0,
356.000=Lullaby of Deserted Hell-bg4.jpg=1.000=1=1=0,
387.750=Lullaby of Deserted Hell-bg.png=1.000=1=1=0,
420.000=Lullaby of Deserted Hell-bg1.jpg=1.000=1=1=0,
99999=-nosongbg-=1.000=0=0=0 // don't automatically add -songbackground-
;
#KEYSOUNDS:;
#ATTACKS:;

//---------------dance-single - Itsugo----------------
#NOTES:
     dance-single:
     Itsugo:
     Challenge:
     12:
     0.856,1.000,0.443,0.422,0.491:
0000
0000
0000
0000
,
0000
0000
0000
0000
,
0000
0000
0000
0000
,
0000
0000
0000
0000
,
0000
0000
0000
0000
,
1000
0000
0100
0000
0010
0000
0001
0000
1000
0000
0010
0100
0010
0000
1000
0000
,
0001
0000
0010
0000
0100
0000
1000
0000
0001
0000
0100
0010
0100
0000
0001
0000
,
0100
0000
0010
0000
1000
0000
0100
0000
0010
0000
0001
1000
0100
0000
0010
0000
,
0001
1000
0100
0010
0001
1000
0010
0100
0001
0100
0010
1000
0002
0000
0000
0000
,
1003
1000
0020
0030
1000
0100
0020
0000
,
2030
3002
2003
3020
,
0031
1000
0020
0030
0110
0000
0100
0000
,
0001
1000
0200
0300
0020
0030
0002
0003
,
0011
1001
0011
1100
,
0011
0110
0011
0002
,
1003
0000
0010
0000
0100
0001
1000
0001
1000
0000
0000
0000
1000
0000
0100
0000
,
0011
0000
0000
0000
0110
0000
0000
0000
0100
0000
1000
0000
1001
0000
1000
0001
,
0100
0000
0100
0010
1010
0000
1100
0000
,
0100
0000
0010
0000
0011
0000
0000
0001
0100
0000
0000
0000
0010
0000
1000
0000
,
1010
0000
1100
0000
0100
0010
0011
0000
,
1200
0000
0000
0000
0010
0000
0000
0000
1300
0001
0010
0100
1000
0000
0000
0000
,
1001
0000
0002
0000
0103
0010
0001
0010
,
0100
1000
0100
0010
1000
0001
0010
1000
,
0010
0100
1000
0010
1000
0001
0100
0010
,
1000
0000
0001
0000
0010
0000
0100
1000
0001
0000
0100
0000
0010
0000
1000
0000
,
0100
0000
0010
0001
0010
0100
1000
0001
0100
0000
0010
0000
1000
0000
0100
0000
,
0001
0100
0010
0001
1000
0010
0100
0001
,
1000
0000
0100
0000
0010
0000
0001
1000
0010
0000
0100
0000
0001
1000
0100
0010
,
0001
0000
0011
0000
0001
1000
1010
0000
,
0110
0000
0000
0000
0100
0000
0001
1000
0001
0000
0000
0000
1100
0000
0000
0000
,
0100
0010
0011
0000
1100
0000
1000
0010
,
0010
0000
0101
0000
0100
0010
1010
0000
,
1100
0000
0000
0000
0100
0000
0010
0000
0001
0010
0001
0010
0001
0000
1000
0000
,
0010
0000
1000
0000
0100
1000
0100
1000
0100
0000
0010
0000
0001
0000
1000
0000
,
0001
1000
0001
1000
0001
1000
0001
1000
0001
1000
0001
1000
0001
0010
0001
0010
,
0001
0010
0001
0010
0001
0010
0001
0010
0100
1000
0100
1000
0100
1000
0100
1000
,
0100
1000
0100
1000
0001
0100
0001
0100
0001
0100
0001
0100
0001
0100
0001
0100
,
0010
1000
0010
1000
0010
1000
0010
1000
0010
1000
0010
1000
0001
0010
0001
0010
,
0001
0010
0001
0010
0001
0010
0001
0010
0100
0010
0100
0010
0100
0010
0100
0010
,
0100
0010
0100
0010
0001
1000
0001
0100
0001
1000
0100
1000
0001
1000
0010
1000
,
0001
0000
0010
0000
0100
0000
1000
0000
0001
0000
0100
0010
1000
0000
0100
0000
,
0010
0000
0001
0000
1000
0000
0100
0000
0001
0000
0100
1000
0001
0000
1001
0000
,
0001
0000
1000
0000
0010
0000
0100
0000
0001
0000
0100
0010
1000
0000
0200
0000
,
0301
0000
0200
0000
1300
0000
0200
0000
0310
0000
0200
0000
0301
0000
0100
1000
,
0001
0001
0010
0001
1000
0010
0100
0001
,
0100
0010
1000
0001
0010
0100
1000
1100
,
0100
0000
1000
0000
0010
0000
0100
0000
0001
0000
0010
0001
1000
0000
0001
0010
,
0200
0000
0010
0000
1000
0000
0010
0000
1300
0000
0001
0000
0001
0000
0010
0100
,
1000
0000
2000
0000
0100
0000
0100
0000
3001
0000
0001
0100
0001
0000
1000
0000
,
0010
0000
0020
0000
0100
0000
0100
0000
1030
0000
0010
1000
0010
0000
0100
0000
,
0001
0000
0002
0000
1000
0000
1000
0000
0013
0000
0001
0010
0100
0000
1000
0000
,
0100
0000
0200
0000
0010
0000
0010
0000
1300
0000
1000
0100
0010
0000
0001
0000
,
0100
0000
0200
0000
1000
0000
1000
0000
0310
0000
1000
0001
0010
0000
1000
0000
,
0010
0000
0020
0000
0001
0000
0001
0000
0130
0000
1000
0001
0100
0000
1000
0000
,
0100
0000
0200
0000
0001
0000
0001
0000
1300
0000
1000
0100
0001
0000
0100
0000
,
1000
0001
0100
0010
1000
0100
0001
0100
1000
0010
0001
0010
1000
0001
0100
0010
,
1000
0010
0200
0300
0001
0010
0200
0300
,
0002
2003
3002
0203
,
0310
0100
1000
0000
1100
0000
0100
0000
,
0010
0001
0020
0030
0200
0300
2000
3000
,
1100
1001
1100
0011
,
1100
0110
1100
2000
,
3001
0000
0100
0000
0010
1000
0001
1000
0001
0000
0000
0000
0001
0000
0010
0000
,
1100
0000
0000
0000
0110
0000
0000
0000
0010
0000
0001
0000
1001
0000
0001
1000
,
0010
0000
0010
0100
0101
0000
0011
0000
,
0010
0000
0100
0000
1100
0000
0000
1000
0010
0000
0000
0000
0100
0000
1000
0000
,
1100
0000
0011
0000
0010
0100
0101
0000
,
0021
0000
0000
0130
2000
0000
0002
3000
,
1003
0100
1000
0100
1000
0000
0100
0010
0001
0000
0100
0000
1000
0000
0100
0000
,
0010
0001
0010
0100
0001
1000
0100
0001
,
0100
0010
0001
0100
0001
1000
0010
0100
,
0001
0000
1000
0000
0100
0000
0010
0001
1000
0000
0010
0000
0100
0000
0001
0000
,
0010
0000
0100
1000
0100
0010
0001
1000
0010
0000
0100
0000
0001
0000
0010
0000
,
1000
0010
0100
1000
0001
0100
0010
1000
,
0001
1000
0001
1000
0001
0000
1000
0001
0100
0000
0010
0000
1000
0001
0010
0100
,
1000
0000
1100
0000
1000
0001
0101
0000
,
0110
0000
0000
0000
0010
0000
1000
0001
1000
0000
0000
0000
0011
0000
0000
0000
,
0010
0100
1100
0000
0011
0000
0001
0100
,
0100
0000
1010
0000
0010
0100
0101
0000
,
0011
0000
0000
0000
0010
0000
0100
0000
1000
0100
1000
0001
1000
0000
0100
0000
,
0010
0000
0001
0000
1000
0001
1000
0100
1000
0000
0010
0000
0100
0000
0001
0000
,
0101
0000
0110
0010
1000
0000
1010
1000
,
0001
0000
0000
0000
1001
0000
0001
0000
0010
0000
0100
0010
0000
0001
1000
0001
,
0010
0000
0011
0001
1000
0000
1001
1000
,
0010
0000
0000
0000
1010
0000
0010
0000
0100
0000
0001
1000
0000
0100
1000
0100
,
0010
0000
0001
0000
0100
0000
1000
0000
0001
0000
1000
0001
1000
0000
0001
0000
,
0010
0000
0100
0000
0001
0000
1000
0000
0100
0000
1000
0100
0010
0000
0100
0000
,
1000
0000
0001
0000
0100
0000
0010
0000
1000
0000
0001
0010
0001
0000
1000
0000
,
0010
0100
0001
1000
0100
0010
0001
1000
0010
0100
0001
1000
0200
0000
0000
0000
,
0310
0000
0010
0001
0200
0000
0000
0000
,
0020
0000
0000
0300
,
2000
0000
0000
0000
,
0000
0000
0030
3200
,
0020
0000
0000
0300
,
0032
0000
0000
2003
0000
0000
3020
0000
,
0200
0030
0002
0000
,
0000
0000
0000
0000
0000
0000
0300
0000
0000
0000
2000
0000
0003
0000
0000
0200
,
0000
0000
0000
3000
,
0020
0000
0000
0300
,
0002
0000
0000
0000
,
0000
0000
0030
2003
,
0020
0000
0000
3000
,
0230
0000
0000
0302
0000
0000
2003
0000
,
0200
0000
3000
0000
0020
0000
0000
0330
,
0001
0100
0010
1000
0001
0100
0010
1000
0010
0100
0001
1000
0010
0100
0001
1000
,
0100
0000
0000
0000
;

//---------------dance-single - Gpop----------------
#NOTES:
     dance-single:
     Gpop:
     Medium:
     5:
     0.402,0.472,0.318,0.291,0.000:
0000
0000
0000
0000
,
0000
0000
0000
0000
,
0000
0000
0000
0000
,
0000
0000
0000
0000
,
0000
0000
0000
0000
,
0000
0000
0000
0000
,
0000
0000
0000
0000
,
0000
0000
0000
0000
,
0000
0000
0000
0000
,
1000
0100
0010
0000
0010
0100
1000
0000
,
0001
0100
0010
1000
,
0010
1000
0001
0000
2002
0000
3003
0000
,
1000
0001
1000
0000
0100
0000
0020
0000
,
0001
0001
0001
0001
,
0001
0001
0100
0001
,
0130
1000
1100
1000
,
0001
1001
0001
0100
,
0101
0100
0010
0110
,
0010
1000
1010
1000
,
0001
1001
0001
0010
,
0011
0000
0002
2000
,
0003
3001
1001
0001
,
0100
0010
1000
0100
,
1000
0001
0100
0001
,
0010
0100
1000
0010
,
0100
0001
0101
0101
,
0001
1000
1001
1000
,
0100
1100
1000
0001
,
1001
0100
0000
1001
,
0010
0000
1001
0100
,
0000
1001
0010
0000
,
1001
0100
0000
1001
,
0010
0000
1001
0000
,
0200
0020
0330
0000
,
2000
0000
0000
3002
,
0000
0000
0203
0000
,
0000
0320
0000
0000
,
2030
0000
0000
3200
,
0000
0000
0320
0000
,
0000
0032
0000
0003
,
1100
0000
0010
0000
0100
0000
0001
1000
,
0100
0010
0101
0010
,
1100
0001
0100
0010
,
2000
0010
0100
3001
,
0110
1000
0001
0010
,
1100
0000
0010
0000
0100
0000
0001
1000
,
0010
0001
0100
0010
,
0200
1000
0001
1000
,
0301
1000
0100
0000
0010
0000
0001
0000
,
1000
0010
0100
0000
0001
0000
0010
0000
,
0001
1000
0010
0000
0100
0000
0001
0000
,
0010
0100
1000
0000
0001
0000
0100
0000
,
0010
1000
0001
0000
0010
0000
0100
0000
,
1000
0001
0100
0000
0010
0000
1000
0000
,
0100
0010
0001
0000
0010
0000
0100
0000
,
1000
0010
0100
0001
1000
0000
0110
0000
,
1000
0100
0010
0000
0010
0100
1000
0000
,
0001
0100
0010
1000
,
1000
0001
0010
0000
0200
0000
0300
0000
,
1000
0001
0100
0000
0010
0000
2000
0000
,
0100
0100
0100
0100
,
0100
0100
0001
0100
,
3001
0110
1000
0001
,
1100
0010
0100
0011
,
1000
0001
0110
1000
,
0001
1010
0100
0010
,
0101
1000
0001
1010
,
0200
0000
0000
0002
,
0000
0000
0303
0000
0001
1000
0100
0000
,
0010
0001
1000
0000
0020
0000
0100
0000
,
1030
0002
0010
0103
,
0010
0000
1000
0000
0001
0010
0100
0000
,
1000
0010
0110
0110
,
0001
1000
1010
0010
,
0110
0100
0001
1000
,
0110
0001
0000
1100
,
0010
0000
0101
0010
,
0000
0011
1000
0000
,
1001
0100
0000
0110
,
1000
0000
0102
0000
,
2003
0200
0000
3300
,
1000
0001
0100
0001
,
1000
0100
0010
0100
,
1000
0001
0100
0001
,
2000
0100
0100
3100
,
0001
0100
0001
1000
,
0100
0010
0001
0100
,
0001
1000
0100
0010
,
0002
0000
0000
0203
0000
0000
0310
0000
,
2002
0000
0000
0003
,
0020
0000
0000
3000
,
0200
0000
0000
0000
,
0000
0000
0000
0030
,
0002
0000
0000
0300
,
2000
0000
0000
0003
,
0200
0000
0000
0000
,
0000
0000
0000
3000
,
0020
0000
0000
0300
,
0002
0000
0000
0030
,
0200
0000
0000
0000
,
0000
0000
0000
0003
,
0020
0000
0000
0300
,
2000
0000
0000
0030
,
0002
0000
0000
3003
,
1000
0100
0010
0001
0100
0010
1000
0000
,
1001
0000
0000
0000
;

//---------------dance-single - Gpop----------------
#NOTES:
     dance-single:
     Gpop:
     Hard:
     8:
     0.611,0.617,0.235,0.609,0.076:
0000
0000
0000
0000
,
0000
0000
0000
0000
,
0000
0000
0000
0000
,
0000
0000
0000
0000
,
0000
0000
0000
0000
,
1000
0001
0100
0001
1000
0100
0010
0001
,
0001
0010
0100
1000
0100
0010
0100
1000
,
1000
0010
0100
0001
0100
0010
1000
0001
,
2000
0000
0000
3020
0000
0000
0130
0000
,
0001
0010
0100
0000
1000
0010
0100
0000
,
0002
0023
0230
2300
,
3001
0100
0010
0000
2020
0000
3030
0000
,
1000
0001
0020
0000
0100
0000
0031
0000
,
2000
3020
0032
0023
,
2030
3200
0020
0300
,
0032
2003
3010
0110
,
0101
0000
0000
0000
1001
0000
0000
0000
1100
0000
0000
0000
1001
0000
0000
0001
,
0100
0110
1010
1002
,
0100
0000
0000
0000
1003
0000
0000
0001
0020
0000
0000
0000
0100
0000
0000
0000
,
0031
1000
0200
0000
0010
0000
2300
0000
,
3002
0000
0000
0100
0100
0000
2000
0000
,
0000
0000
3003
0000
1000
0001
0100
0000
,
0010
1000
0001
0000
0010
0100
1000
0100
,
0010
0100
1000
0001
0100
0001
1000
0000
,
0110
0000
0100
0001
1000
0001
0010
0000
,
0110
0000
1100
0000
1000
0001
0100
0001
,
1000
0000
0100
0010
0100
1000
0001
0000
,
1000
1000
0001
0001
0100
0010
0010
1000
,
0002
0100
0010
2003
,
0100
0000
0000
0000
3001
0000
0000
0100
0020
0000
0000
0000
0001
0000
0000
0000
,
0100
0000
0000
0000
2030
0000
0000
0000
0001
0000
0000
0000
3001
0000
0000
0100
,
0010
0000
1000
0000
0001
0010
0200
0000
,
1000
0000
0000
0000
0310
0000
0000
0000
0001
1000
0001
1000
0001
0000
0100
0000
,
0020
2000
0000
3030
,
2000
0000
0000
0010
0010
0000
3002
0000
,
0000
0100
0000
0000
0023
0000
0000
0001
,
0000
0000
0230
0000
0000
0001
0000
0000
,
2300
0000
0000
0001
0001
0000
3020
0000
,
0000
1000
1000
0000
0230
0000
0000
0010
,
0000
0000
0302
0000
0000
0100
0000
0000
,
1003
0000
0000
0000
0010
0000
0000
0000
0100
0000
0000
0000
0001
0000
0000
1000
,
0100
0000
0010
0000
0101
0000
0010
0100
,
1100
0000
0000
0000
1000
0000
0000
0000
0001
0000
0000
1000
0100
0000
0000
0000
,
0010
0000
0001
0000
0010
0000
1000
0000
0010
0000
0100
0000
1000
0000
0000
0001
,
0100
0010
1000
0001
,
0110
0000
0000
0000
1000
0000
0000
0000
0001
0000
0000
0000
0110
0000
0000
1000
,
0001
0100
0010
1000
,
0001
0000
0100
0000
1000
0000
0100
0000
0001
0000
0010
0000
0100
0000
0000
1000
,
0001
0100
0001
0100
0010
1000
0001
0010
,
0100
1000
0100
1000
0001
0100
0001
0010
,
0100
0010
0001
0100
0010
1000
0001
0100
,
0001
1000
0100
1000
0010
0100
0010
0100
,
0001
1000
0100
1000
0001
0100
0010
1000
,
0010
0100
0010
0100
0001
0010
0100
0010
,
0001
1000
0100
0010
0100
0010
0001
1000
,
0020
0000
0000
0230
0000
0000
0302
0000
,
1003
0100
0010
0000
0001
0100
0010
0000
,
2000
3200
0302
0203
,
0310
0001
1000
0000
0020
0000
0030
0000
,
0100
0001
0020
0000
0230
0000
2300
0000
,
3002
0203
0320
2030
,
3002
0023
2030
3000
,
1010
0000
0000
0000
0011
0000
0000
0001
1000
0000
0000
0000
0010
0000
0100
0000
,
0001
0000
0000
0000
1100
0000
0000
0000
0010
0000
1000
0000
0001
0000
0000
1000
,
0010
0000
0100
0001
0010
0000
1100
0000
,
0001
0000
1000
0000
0010
0000
0000
0100
0001
0000
0000
0000
1000
0000
0100
0000
,
0010
0001
1000
0000
0010
0100
0001
0000
,
2001
0000
0000
0100
0100
0000
0002
0000
,
3003
0000
0100
0000
1001
1000
0010
0000
,
0100
0001
0010
0000
0100
1000
0100
0010
,
0100
1000
0001
0000
0100
0010
1000
0000
,
0102
0000
1003
0000
0010
0100
0001
0000
,
1100
0000
0011
0000
1000
0010
0100
0010
,
0001
0010
1000
0010
0100
0000
0011
0000
,
1000
0001
1000
0001
1000
0000
0010
0000
0100
0000
0001
0000
1000
0000
0000
0000
,
0101
0000
0100
0010
1000
0000
0011
0000
,
0100
0000
1000
0000
0001
0000
0000
1000
0010
0000
0000
0000
0100
0000
0001
0000
,
0010
0000
1100
0000
0001
0000
1000
0100
,
0010
0000
0001
0000
0010
0100
1001
0000
,
1000
0000
0010
0000
2100
0000
0000
0001
,
3002
0200
0000
0303
,
1001
0001
0100
0001
1000
0100
0010
0001
,
1000
0010
0100
0001
1000
0001
0010
0100
,
1000
0001
0100
0001
1000
0100
0010
0000
,
0012
0000
0000
0000
0100
0000
0000
0000
0010
0000
0000
0000
1003
0000
0000
0010
,
0100
0001
0100
0001
1000
0100
0010
0100
,
1000
0001
0010
0100
1000
0001
0100
0100
,
0010
1000
0001
0100
0001
1000
0100
0010
,
0002
0000
0000
0203
0000
0000
0310
0000
,
2001
0100
3002
0000
,
0203
0000
0000
0320
0000
0000
2030
0000
,
0002
0000
0000
3000
,
0200
0000
0003
0320
,
2030
0100
0020
3000
,
0230
0000
0001
0000
,
0020
0000
0000
0300
,
2000
0030
0002
3000
,
0020
0000
0000
0003
,
0200
0000
0000
0030
,
2000
0000
0000
0000
,
0000
0000
0300
3002
,
0200
0000
0000
0003
,
0020
0300
2000
0030
,
0002
0000
0000
3003
,
1000
0001
1000
0000
0000
0000
0001
1000
0001
0000
0000
0000
0100
0010
0100
0010
,
0100
0000
0000
0000
;

//---------------dance-single - Gpop----------------
#NOTES:
     dance-single:
     Gpop:
     Easy:
     3:
     0.271,0.327,0.035,0.194,0.000:
0000
0000
0000
0000
,
0000
0000
0000
0000
,
0000
0000
0000
0000
,
0000
0000
0000
0000
,
0000
0000
0000
0000
,
0000
0000
0000
0000
,
0000
0000
0000
0000
,
0000
0000
0000
0000
,
0000
0000
0000
0000
,
1000
0000
0001
0000
,
0100
0100
0010
1000
,
0001
0010
0010
0000
,
0100
1000
0001
0100
,
0010
0000
1000
0001
,
0000
1000
0100
0000
,
0010
0001
1000
0000
,
0010
0100
0000
0001
,
0010
0000
0100
1000
,
0000
0001
0100
0000
,
0010
1000
0000
0001
,
2000
0000
0000
0200
,
0000
3300
1001
0000
,
0001
0000
0100
0010
,
1000
0001
0001
0010
,
0100
0000
1000
0001
,
0100
0010
1000
1000
,
0001
0010
0010
0100
,
1000
0000
0001
0100
,
0110
0000
0010
1000
,
0000
0001
0010
0000
,
0100
1000
0000
0001
,
0100
0000
0001
1000
,
0000
0100
0020
0000
,
0031
2000
0000
3000
,
0002
0000
0003
0200
,
0000
0300
0020
0000
,
0030
2000
0000
3000
,
0200
0000
0300
0020
,
0000
0030
0002
0000
,
0003
2000
0000
3000
,
0001
0000
0001
0000
,
0100
0000
0010
0000
,
1000
0000
0001
0000
,
0010
0100
1000
0001
,
0100
0000
0010
0000
,
1000
0000
0001
0000
,
0010
0000
0100
0000
,
1000
0001
1000
0001
,
0100
0100
0010
1000
,
0001
0001
0010
0100
,
1000
1000
0010
0100
,
0001
0001
0010
0001
,
0100
0100
0010
1000
,
0001
0001
0010
0100
,
0010
0010
0001
0100
,
0010
0010
1000
0001
,
0100
0000
0010
0000
,
1000
0001
0100
0001
,
1000
1000
0100
0000
,
0010
0001
1000
0010
,
0100
0000
0001
1000
,
0000
0010
0100
0000
,
0001
0010
0100
0000
,
1000
0001
0000
0100
,
0010
0000
1000
0001
,
0000
0010
0001
0000
,
1000
0010
0000
0100
,
0002
0000
0000
0200
,
0000
0303
1001
0000
,
1000
0000
0100
0010
,
0001
0100
0010
1000
,
1000
0000
0001
0001
,
0100
0010
1000
1000
,
0001
0010
0010
0100
,
1000
0000
0001
0100
,
0001
0000
1000
0010
,
0000
0100
0001
0000
,
0010
0100
0000
1000
,
0100
0000
0010
0001
,
0000
1000
0020
0000
,
0030
0200
0000
0300
,
1001
0000
1000
0000
,
0001
0000
0010
0000
,
0001
0000
0100
0000
,
0010
1000
0001
0100
,
0001
0000
0010
0000
,
0100
0000
1000
0000
,
0001
0000
0100
0000
,
0001
0010
0100
1000
,
0002
0000
0000
0000
,
0203
0000
0000
0000
,
0320
0000
0000
0000
,
0030
0000
0000
0100
,
0002
0000
0000
0000
,
2003
0000
0000
0000
,
3200
0000
0000
0000
,
0300
0000
0000
0010
,
0002
0000
0000
0000
,
0023
0000
0000
0000
,
0230
0000
0000
0000
,
0300
0000
0000
1000
,
0020
0000
0000
0000
,
0230
0000
0000
0000
,
0302
0000
0000
0000
,
1003
0100
0010
0001
,
1001
0000
0000
0000
;

//---------------dance-single - Gpop----------------
#NOTES:
     dance-single:
     Gpop:
     Beginner:
     1:
     0.118,0.182,0.014,0.000,0.000: // measure 1
0000
0000
0000
0000
,  // measure 2
0000
0000
0000
0000
,  // measure 3
0000
0000
0000
0000
,  // measure 4
0000
0000
0000
0000
,  // measure 5
0000
0000
0000
0000
,  // measure 6
0000
0000
0000
0000
,  // measure 7
0000
0000
0000
0000
,  // measure 8
0000
0000
0000
0000
,  // measure 9
0000
0000
0000
0000
,  // measure 10
1000
0000
0000
0000
,  // measure 11
0001
0000
0000
0001
,  // measure 12
0000
0000
1000
0000
,  // measure 13
0000
0010
0000
0000
,  // measure 14
0100
0000
0000
0001
,  // measure 15
0000
0000
1000
0000
,  // measure 16
0000
0000
0001
0000
,  // measure 17
0000
0001
0000
0000
,  // measure 18
1000
0000
0000
1000
,  // measure 19
0000
0000
0010
0000
,  // measure 20
0000
0010
0000
0000
,  // measure 21
0100
0000
0000
0000
,  // measure 22
0000
0000
1001
0000
,  // measure 23
1000
0000
1000
0000
,  // measure 24
0001
0000
0001
0000
,  // measure 25
0001
0000
0100
0000
,  // measure 26
0100
0000
0100
0000
,  // measure 27
0010
0000
0010
0000
,  // measure 28
0010
0000
1000
0000
,  // measure 29
0001
0000
0000
1000
,  // measure 30
0000
0000
0010
0000
,  // measure 31
0000
0100
0000
0000
,  // measure 32
0001
0000
0000
0010
,  // measure 33
0000
0000
0100
0000
,  // measure 34
0000
0100
0000
0000
,  // measure 35
1000
0000
0000
0000
,  // measure 36
0000
0000
0001
0000
,  // measure 37
0000
0000
0000
0000
,  // measure 38
0100
0000
0000
0000
,  // measure 39
0000
0000
0010
0000
,  // measure 40
0000
0000
0000
0000
,  // measure 41
1000
0000
0000
0000
,  // measure 42
0001
0000
0000
0000
,  // measure 43
0100
0000
0000
0000
,  // measure 44
0010
0000
0000
0000
,  // measure 45
0100
0000
0000
0000
,  // measure 46
0001
0000
0000
0000
,  // measure 47
1000
0000
0000
0000
,  // measure 48
0001
0000
0000
0000
,  // measure 49
1000
0000
1000
0000
,  // measure 50
0010
0000
0010
0000
,  // measure 51
0100
0000
0100
0000
,  // measure 52
0001
0000
0001
0000
,  // measure 53
0010
0000
0010
0000
,  // measure 54
0100
0000
0100
0000
,  // measure 55
1000
0000
1000
0000
,  // measure 56
0001
0000
0000
0000
,  // measure 57
0100
0000
0000
0000
,  // measure 58
0100
0000
0000
0100
,  // measure 59
0000
0000
0010
0000
,  // measure 60
0000
0010
0000
0000
,  // measure 61
1000
0000
0000
1000
,  // measure 62
0000
0000
0001
0000
,  // measure 63
0000
0001
0000
0000
,  // measure 64
0010
0000
0000
0100
,  // measure 65
0000
0000
1000
0000
,  // measure 66
0000
0010
0000
0000
,  // measure 67
0100
0000
0000
0001
,  // measure 68
0001
0000
0000
0000
,  // measure 69
0000
0000
1000
0000
,  // measure 70
1000
0000
0001
0000
,  // measure 71
0001
0000
0100
0000
,  // measure 72
0100
0000
0010
0000
,  // measure 73
0010
0000
1000
0000
,  // measure 74
1000
0000
0001
0000
,  // measure 75
0001
0000
0010
0000
,  // measure 76
0010
0000
0000
0100
,  // measure 77
0000
0000
1000
0000
,  // measure 78
0000
0001
0000
0000
,  // measure 79
0100
0000
0000
0010
,  // measure 80
0000
0000
1000
0000
,  // measure 81
0000
0001
0000
0000
,  // measure 82
1001
0000
0000
0000
,  // measure 83
1000
0000
0000
0000
,  // measure 84
0001
0000
0000
0000
,  // measure 85
0100
0000
0000
0000
,  // measure 86
0100
0000
0000
0000
,  // measure 87
0010
0000
0000
0000
,  // measure 88
1000
0000
0000
0000
,  // measure 89
0001
0000
0000
0000
,  // measure 90
1000
0000
0000
0000
,  // measure 91
0000
0000
0000
0000
,  // measure 92
0001
0000
0000
0000
,  // measure 93
0000
0000
0000
0000
,  // measure 94
0010
0000
0000
0000
,  // measure 95
0000
0000
0000
0000
,  // measure 96
0100
0000
0000
0000
,  // measure 97
0000
0000
0000
0000
,  // measure 98
1000
0000
0000
0000
,  // measure 99
0000
0000
0000
0000
,  // measure 100
0001
0000
0000
0000
,  // measure 101
0000
0000
0000
0000
,  // measure 102
0100
0000
0000
0000
,  // measure 103
0000
0000
0000
0000
,  // measure 104
0010
0000
0000
0000
,  // measure 105
0000
0000
0000
0000
,  // measure 106
1000
0000
0000
0000
;
