#TITLE:禁じられた遊び;
#SUBTITLE:ローゼンメイデン Opening;
#ARTIST:ALI PROJECT;
#TITLETRANSLIT:Kinjirareta Asobi;
#SUBTITLETRANSLIT:Rozen Maiden Opening;
#ARTISTTRANSLIT:Ali Project;
#GENRE:Itsugo15 SimifileS 1-30 DDR Version;
#CREDIT:Itsugo15;
#MENUCOLOR:;
#BANNER:Kinjirareta Asobi-bn.jpg;
#BACKGROUND:Kinjirareta Asobi-bg1.jpg;
#LYRICSPATH:Kinjirareta Asobi.lrc;
#CDTITLE:Itsugo15 SimifileS.png;
#MUSIC:Kinjirareta Asobi.mp3;
#OFFSET:0.830;
#SAMPLESTART:72.450;
#SAMPLELENGTH:30.000;
#SELECTABLE:YES;
#LISTSORT:;
#BPMS:0.000=121.000;
#STOPS:;
#TICKCOUNT:0.000=6;
#BGCHANGES:23.000=Kinjirareta Asobi.avi=1.000=1=1=0,
204.000=Kinjirareta Asobi-bg2.jpg=1.000=1=1=0,
216.000=Kinjirareta Asobi-bg3.jpg=1.000=1=1=0,
232.000=Kinjirareta Asobi-bg1.jpg=1.000=1=1=0,
99999=-nosongbg-=1.000=0=0=0 // don't automatically add -songbackground-
;
#KEYSOUNDS:;
#ATTACKS:;

//---------------dance-single - Beginner Itsugo15----------------
#NOTES:
     dance-single:
     Beginner Itsugo15:
     Beginner:
     1:
     0.090,0.166,0.104,0.040,0.000:
0000
0000
0000
0000
,
0000
0000
0000
0000
,
0000
0000
0000
0000
,
0000
0000
0000
0000
,
0000
0000
0000
0000
,
0000
0000
0000
0000
,
0010
0000
0000
0000
,
0100
0000
0000
0000
,
1000
0000
0000
0000
,
0001
0000
0000
0000
,
0100
0000
0000
0000
,
0010
0000
0100
0000
,
0110
0000
0000
0000
,
1001
0000
0000
0000
,
0001
0000
0000
0000
,
1000
0001
1000
0000
,
1100
0000
0000
0000
,
0011
0000
0000
0000
,
0101
0000
0000
0000
,
1010
0000
0000
0000
,
1000
0000
0000
0000
,
1000
0000
0000
0000
,
0001
0000
0000
0000
,
0001
0000
0000
0000
,
0100
0000
0000
0000
,
0100
0000
0000
0000
,
0010
0000
0000
0000
,
0010
0000
0000
0000
,
0110
0000
0000
0000
,
0002
0000
0003
0000
,
1001
0000
0000
0000
,
0020
0000
0030
0000
,
0010
0000
0000
0000
,
0100
0000
0000
0000
,
1000
0000
0000
0000
,
0001
0000
0000
0000
,
0010
0000
0001
0000
,
1000
0000
0000
0000
,
0001
0000
0000
0000
,
0100
0000
0000
0000
,
0010
0000
0100
0000
,
0110
0000
0000
0000
,
1001
0000
0000
0000
,
0001
0000
0000
0000
,
1000
0001
1000
0000
,
1100
0000
0000
0000
,
0011
0000
0000
0000
,
0001
0000
0000
0000
,
1000
0000
0000
0000
,
0010
0000
0000
0000
,
0100
0000
0000
0000
,
2002
0000
3003
0000
,
1000
0000
0000
0000
,
0001
0000
0000
0000
,
0010
0000
0000
0000
,
0100
0000
0000
0000
,
1000
0000
0000
0000
,
0001
0000
0000
0000
,
0020
0000
0000
0000
,
0030
0000
0000
0000
;

//---------------dance-single - Heavy Itsugo15----------------
#NOTES:
     dance-single:
     Heavy Itsugo15:
     Hard:
     9:
     0.510,0.554,0.169,0.506,0.309:
0000
0000
0000
0000
,
2020
0000
0000
0030
0002
0000
0000
0003
,
0200
0000
0000
0300
0002
0000
0000
3003
,
0202
0000
0000
0300
2000
0000
0000
3000
,
0020
0000
0000
0030
2000
0000
0000
3003
,
2002
0000
0000
0000
0000
0000
0000
3003
,
1001
0000
1000
0001
0010
0000
0100
0010
,
0001
0000
0100
0000
0010
0000
1000
0000
0010
0000
0100
0000
0001
0100
0001
0000
,
1000
0001
1000
0000
0010
1000
0010
0000
0100
0001
0100
0000
1001
0000
0000
0000
,
0001
1000
0001
0000
0100
0001
0100
0000
0010
1000
0010
0000
1001
0000
0000
0000
,
0001
0100
0010
0000
0010
0100
0001
0000
1000
0000
0100
0000
0010
0000
0100
0000
,
1000
0100
1000
0100
0010
0100
0010
0100
2000
0000
0000
0000
3100
0000
0000
0000
,
1000
0100
1000
0000
0001
0010
0001
0000
0010
0100
0010
0000
0110
0000
0000
0000
,
0010
0001
0010
0000
0100
1000
0100
0000
0010
0100
0010
0000
0002
0000
0000
0000
,
0013
0100
0000
1000
1000
0000
0000
0000
0100
1000
0100
1000
0100
0000
0000
0000
,
1000
0100
0010
0100
1000
0001
0100
0010
2000
0000
0000
0000
0001
0000
0000
0000
,
3100
0000
0000
0100
0010
0000
0000
0001
0010
0000
0100
0000
1000
0000
0000
0000
,
0100
0000
0000
0010
0001
0000
0000
0100
0010
0000
1000
0000
0001
0000
0000
0000
,
0020
0030
0200
0300
2000
3000
0002
0003
0200
0300
0000
0000
2000
3000
0200
0300
,
0002
0003
2000
3000
0200
0000
0000
0000
0000
0000
0000
0000
0000
0000
0300
0000
,
1100
0100
0010
0100
1000
0001
0100
0010
,
1000
0000
0001
0000
0010
0000
0100
1000
0000
0100
0010
0000
0001
0000
1000
0000
,
1001
0001
0010
0100
0010
0001
1000
0010
,
0100
0000
0010
0000
1000
0000
0001
0100
0000
0010
1000
0000
0001
0000
0010
0000
,
0011
0010
0100
0010
0001
1000
0010
0100
,
0001
0000
1000
0000
0100
0000
0010
0001
0000
0010
0100
0000
1000
0000
0001
0000
,
2002
0000
0003
0001
0002
0000
3000
1000
,
2000
0000
0003
0010
0020
0000
3000
0100
,
0200
0000
0000
0000
0000
0000
0000
0000
0000
0330
0000
0000
0000
0000
0000
0000
0010
0000
0100
0000
0001
0000
1000
0000
,
0100
0010
0001
1000
0200
0000
1300
0100
,
2000
0000
0000
0000
0000
0000
3001
0000
0000
0010
0100
1000
,
0002
0000
1000
0000
0013
0000
0100
1000
,
0001
0000
0100
0010
1000
0000
0010
0100
,
0002
0000
0000
0100
0000
0000
0103
0000
0000
0001
0100
0001
,
0200
0000
0300
0010
2000
0000
3000
0100
,
0020
0000
0000
0000
0000
0030
0100
1000
,
0002
0000
0000
0000
0003
0000
1000
0001
1000
0000
0000
0000
0101
0000
0000
0000
,
0001
1000
0001
0000
0100
0001
0100
0000
0010
1000
0010
0000
1001
0000
0000
0000
,
1000
0001
1000
0000
0010
1000
0010
0000
0100
0001
0100
0000
1001
0000
0000
0000
,
1000
0010
0100
0000
0100
0010
1000
0000
0001
0000
0010
0000
0100
0000
0010
0000
,
0001
0010
0001
0010
0100
0010
0100
0010
0002
0000
0000
0000
0013
0000
0000
0000
,
0001
0010
0001
0000
1000
0100
1000
0000
0100
0010
0100
0000
0110
0000
0000
0000
,
0100
1000
0100
0000
0010
0001
0010
0000
0100
0010
0100
0000
2000
0000
0000
0000
,
3100
0010
0000
0001
0001
0000
0000
0000
0010
0001
0010
0001
0010
0000
0000
0000
,
0001
0010
0100
0010
0001
1000
0010
0100
0002
0000
0000
0000
1000
0000
0000
0000
,
0013
0000
0000
0010
0100
0000
0000
1000
0100
0000
0010
0000
0001
0000
0000
0000
,
0010
0000
0000
0100
1000
0000
0000
0010
0100
0000
0001
0000
1000
0000
0000
0000
,
0200
0000
0000
0000
0310
0000
0000
0010
0001
0000
0000
0000
1000
0000
0000
0000
,
0020
0000
0000
0000
0130
0000
0000
0100
0001
0000
0000
0000
1000
0000
0000
0000
,
1001
1000
0010
0100
0020
0000
1030
0001
,
0010
0100
2000
0000
0000
0000
0000
0000
,
0002
0000
3003
0001
,
0022
0000
0033
0100
,
2200
0000
3300
0001
,
0202
0000
0000
0300
2000
0000
0000
3000
,
0020
0000
0000
0030
2000
0000
0000
3003
,
2020
0000
0000
0030
0002
0000
0000
0003
,
0200
0000
0000
0300
0002
0000
0000
3003
,
2002
0000
0000
0000
0000
0000
0000
3003
,
M00M
M00M
M00M
M00M
,
M00M
0000
0000
0000
;

//---------------dance-single - Light Itsugo15----------------
#NOTES:
     dance-single:
     Light Itsugo15:
     Easy:
     4:
     0.156,0.213,0.032,0.209,0.000:
0000
0000
0000
0000
,
1000
0000
1000
0000
,
0002
0000
2003
0000
,
3001
0000
0001
0000
,
2000
0000
3002
0000
,
2003
0000
0000
0000
,
3001
0000
0010
0000
,
0100
0000
1000
0000
,
0100
0000
0100
0000
,
0010
0000
0010
0000
,
0001
0000
1000
0000
,
0010
0000
0100
0000
,
0001
0000
0001
0000
,
1000
0000
1000
0000
,
0100
0000
0010
0000
,
0010
0000
0200
0300
,
1100
0000
1000
0000
,
1001
0000
0001
0000
,
0200
0000
0300
0000
,
0020
0000
0030
0000
,
1000
0000
0001
0000
,
0010
0000
0100
0000
,
0010
0000
0001
0000
,
1000
0000
0010
0000
,
0100
0000
0001
0000
,
0100
0000
0010
0000
,
2000
0000
3002
0000
,
2003
0000
3002
0000
,
0013
0000
0010
0000
,
0200
0000
0000
0000
,
1300
0000
1000
0000
,
0002
0000
0000
0000
,
1003
0000
0010
0000
,
1000
0000
1000
0000
,
0100
0000
0100
0000
,
0020
0000
0000
0000
,
0031
0000
1000
0000
,
0100
0000
0100
0000
,
0010
0000
0010
0000
,
0001
0000
1000
0000
,
0010
0000
0100
0000
,
0001
0000
0001
0000
,
1000
0000
1000
0000
,
0100
0000
0010
0000
,
0010
0000
0200
0300
,
1100
0000
1000
0000
,
1001
0000
0001
0000
,
2000
3000
1000
0000
,
0002
0003
0001
0000
,
0010
0000
0001
0000
,
1000
0010
0000
0000
,
0200
0000
0000
0000
,
0320
0000
0000
0000
,
2030
0000
0000
0000
,
3001
0000
0001
0000
,
2000
0000
3002
0000
,
1003
0000
1000
0000
,
0002
0000
2003
0000
,
3002
0000
0000
0000
,
0003
0000
0000
0000
;

//---------------dance-single - Medium Itsugo15----------------
#NOTES:
     dance-single:
     Medium Itsugo15:
     Medium:
     7:
     0.326,0.356,0.137,0.386,0.016:
0000
0000
0000
0000
,
2000
0000
3002
0000
,
0203
0000
0320
0000
,
2030
0000
3002
0000
,
0023
0000
0230
0000
,
2300
0000
0000
0000
,
3100
0010
0110
0010
,
0001
1000
0010
1000
,
1010
0101
0001
1000
,
1100
0011
0001
1000
,
0010
0100
0001
0100
,
1000
0100
0001
1000
0002
0000
1000
0003
,
0011
0011
0010
0100
,
1100
1100
0100
0010
,
0001
0002
1003
2000
,
3001
1000
0001
0100
0020
0000
1000
0000
,
2030
0000
0001
0000
,
0100
0000
0001
0000
,
3010
0100
0010
1000
,
0001
0020
0000
0001
,
0031
0001
1000
1000
,
0010
0100
0010
1000
,
0001
0001
1000
1000
,
0100
0010
0100
1000
,
0010
0010
0100
0100
,
0001
0100
0010
1000
,
0002
0000
0000
1000
2003
0000
0000
0100
,
3200
0000
0000
0010
0320
0000
0000
0031
,
1000
0001
0010
0100
,
1000
0100
1000
0100
1000
0000
0001
0000
,
0100
0010
1000
0001
,
0010
0001
0010
0001
0010
0000
0100
0000
,
0020
0000
0000
0001
0032
0000
0000
1000
,
2003
0000
0000
0000
0000
0000
0001
0000
0000
0000
0000
0000
0001
0000
0000
3000
0000
0000
0001
0000
1000
0000
0001
0000
,
1000
0000
0000
0010
2000
0000
3000
0001
,
2000
0000
0000
0001
0000
0000
3001
0000
0000
0001
1000
0001
,
1000
0002
2003
3020
,
0131
1010
1000
0001
,
0011
1100
1000
0001
,
0100
0010
1000
0010
,
0001
0010
1000
0001
2000
0000
0001
3000
,
1100
1100
0100
0010
,
0011
0011
0010
0100
,
1000
2000
3001
0002
,
1003
0001
1000
0010
0200
0000
0001
0000
,
0302
0000
1000
0000
,
0010
0000
1000
0000
,
1003
0001
1000
1000
,
0001
1000
0001
0001
,
1000
0001
1000
0001
1000
0000
0100
0010
,
0001
1000
0020
0000
0000
0000
0000
0000
,
0230
0010
0310
0001
,
2000
0001
3001
0100
,
0020
0032
2003
3002
,
2003
0000
3002
0000
,
0203
0000
0320
0000
,
2030
0000
3002
0000
,
0023
0000
0230
0000
,
2300
0000
0000
0000
0000
0000
0000
3000
,
M000
0000
0000
0000
;

//---------------dance-single - Challenge Itsugo15----------------
#NOTES:
     dance-single:
     Challenge Itsugo15:
     Challenge:
     10:
     0.649,0.675,0.434,0.699,0.354: // measure 1
0000
0000
0000
0000
,  // measure 2
2002
3003
1000
0000
2020
3030
0100
0000
,  // measure 3
0202
0303
0001
0000
2002
3003
0110
0000
,  // measure 4
2002
3003
0001
0000
0202
0303
0010
0000
,  // measure 5
2020
3030
1000
0000
2002
3003
0110
0000
,  // measure 6
2002
0000
0000
0000
0000
0000
0000
3003
,  // measure 7
1001
0000
0000
0000
1000
0000
0100
0000
0010
0000
0010
0000
0100
0010
0001
1000
,  // measure 8
0001
0000
0001
0000
0010
0000
0010
0000
0100
0000
0100
0000
0010
0001
1000
0001
,  // measure 9
0010
0100
1000
0000
1000
0001
0010
0000
0100
1000
0001
0000
1001
0000
0000
0000
,  // measure 10
0001
0100
0010
0000
1000
0001
0010
0000
0001
1000
0100
0000
1100
0000
0000
0000
,  // measure 11
0100
1000
0001
0000
0100
0010
1000
0000
0001
0010
0100
0000
1100
0000
0101
0000
,  // measure 12
0100
0010
1000
0001
0010
0100
1000
0100
2000
0000
0000
0000
3100
0000
0000
0000
,  // measure 13
1000
0100
0010
0000
0010
0001
1000
0000
1000
0010
0100
0000
0110
0000
0000
0000
,  // measure 14
0100
0010
1000
0000
1000
0001
0010
0000
0010
0100
1000
0000
1100
0000
1001
0000
,  // measure 15
1000
1000
0000
0001
0001
0000
1000
0000
1000
0001
0010
0100
1000
0000
0001
0000
,  // measure 16
1000
0100
0010
0001
1000
0010
0100
0010
2000
0000
0000
0000
0002
0000
0000
3003
,  // measure 17
0011
0000
0000
0100
1000
0000
0000
0001
1000
0000
0000
0010
1000
0000
1000
0000
,  // measure 18
1010
0000
0000
0100
0001
0000
0000
1000
0001
0000
0000
0010
0001
0000
0001
0000
,  // measure 19
2000
3020
0230
0302
0203
0310
0020
2030
,  // measure 20
3002
0023
0230
0000
0010
0010
0010
0310
,  // measure 21
0110
0000
0010
0000
0001
0000
1000
0000
1001
0000
0001
0000
0010
0000
2200
3300
,  // measure 22
0000
0000
1000
0000
0010
0000
0100
0010
0000
0010
1000
0000
0001
0000
1000
0000
,  // measure 23
1001
0000
0001
0000
0100
0000
0010
0000
0110
0000
0010
0000
0100
0000
2020
3030
,  // measure 24
0000
0000
0010
0000
1000
0000
0001
1000
0000
1000
0001
0000
0100
0000
0010
0000
,  // measure 25
0100
0100
0100
0010
1000
1000
0001
2000
,  // measure 26
3000
0000
0010
0000
0100
0000
1000
0100
0000
0001
0100
0000
0010
0000
1000
0000
,  // measure 27
0002
1000
1000
1000
2003
0010
0010
0010
,  // measure 28
3020
0100
0100
0100
0031
0100
0010
0100
,  // measure 29
0002
0000
0000
0100
0000
0000
0103
0000
0000
1000
0001
0010
,  // measure 30
0200
0000
0010
0000
0310
0000
0010
0001
,  // measure 31
2000
0000
0000
0001
0000
0000
3001
0000
0000
0010
0100
0001
,  // measure 32
2000
0000
0000
0000
0001
0000
0000
0000
3001
0000
0000
0000
1000
0000
0001
1000
,  // measure 33
0001
0000
0000
0000
0010
0000
0001
0010
0001
0000
0000
0000
0100
0000
1000
0100
,  // measure 34
2000
0000
0000
0100
0000
0000
3100
0000
0000
0100
1000
0010
,  // measure 35
0100
0000
0100
0010
1000
0000
0001
0010
,  // measure 36
0200
0000
0000
0010
0000
0000
0310
0000
0000
0010
0001
1000
,  // measure 37
0002
0000
0000
0000
0000
0000
0013
0001
0010
0000
0000
0000
1100
0000
0000
0000
,  // measure 38
0100
0010
0001
0000
0001
1000
0100
0000
0010
0001
1000
0000
1001
0000
0000
0000
,  // measure 39
1000
0010
0100
0000
0001
1000
0100
0000
1000
0001
0010
0000
0011
0000
0000
0000
,  // measure 40
0010
0001
1000
0000
0010
0100
0001
0000
1000
0100
0010
0000
0011
0000
1010
0000
,  // measure 41
0010
0100
0001
1000
0100
0010
0001
0010
0002
0000
0000
0000
0013
0000
0000
0000
,  // measure 42
0001
0010
0100
0000
0100
1000
0001
0000
0001
0100
0010
0000
0110
0000
0000
0000
,  // measure 43
0010
0100
0001
0000
0001
1000
0100
0000
0100
0010
0001
0000
0011
0000
1001
0000
,  // measure 44
0001
0001
0000
1000
1000
0000
0001
0000
0001
1000
0100
0010
0001
0000
1000
0000
,  // measure 45
0001
0010
0100
1000
0001
0100
0010
0100
0002
0000
0000
0000
2000
0000
0000
3003
,  // measure 46
1100
0000
0000
0010
0001
0000
0000
1000
0001
0000
0000
0100
0001
0000
0001
0000
,  // measure 47
0101
0000
0000
0010
1000
0000
0000
0001
1000
0000
0000
0100
1000
0000
1000
0000
,  // measure 48
0002
0203
0320
2030
3020
0130
010M
M100
,  // measure 49
0002
2003
3200
0320
0032
1M03
10M0
1M00
,  // measure 50
1001
0001
0101
0100
0220
0330
1010
1000
,  // measure 51
1001
0001
0022
0000
0000
0000
0000
0033
,  // measure 52
2000
0000
0000
3100
0010
0000
0001
1000
,  // measure 53
0020
0000
0030
0100
0001
0000
0100
0010
,  // measure 54
2000
3000
0002
0003
0020
0030
0002
0003
,  // measure 55
2002
3003
0001
0000
0202
0303
0010
0000
,  // measure 56
2020
3030
1000
0000
2002
3003
0110
0000
,  // measure 57
2002
3003
1000
0000
2020
3030
0100
0000
,  // measure 58
0202
0303
0001
0000
2002
3003
0110
0000
,  // measure 59
2002
0000
0000
0000
0000
0000
0000
3003
,  // measure 60
MMMM
MMMM
MMMM
MMMM
,  // measure 61
MMMM
0000
0000
0000
;
