#TITLE:君と羊と青;
#SUBTITLE:絶体絶命;
#ARTIST:ラッドウインプス;
#TITLETRANSLIT:Kimi to Hitsuji to Ao;
#SUBTITLETRANSLIT:Zettai Zetsumei;
#ARTISTTRANSLIT:RADWIMPS;
#GENRE:Otaku's Dream 2nd Mix (Pad);
#CREDIT:Itsugo15;
#BANNER:Kimi to Hitsuji to Ao-bn.png;
#BACKGROUND:Kimi to Hitsuji to Ao-bg.png;
#LYRICSPATH:Kimi to Hitsuji to Ao.lrc;
#CDTITLE:Itsugo15 SimifileS.png;
#MUSIC:Kimi to Hitsuji to Ao.ogg;
#OFFSET:0.875;
#SAMPLESTART:50.240;
#SAMPLELENGTH:28.000;
#SELECTABLE:YES;
#LISTSORT:;
#BPMS:0.000=81.950,6.000=163.900,102.000=81.950,118.000=163.900;
#STOPS:;
#TICKCOUNT:0.000=6;
#BGCHANGES:0.750=Kimi to Hitsuji to Ao.avi=1.000=1=1=0,
195.750=Kimi to Hitsuji to Ao.avi=0.000=0=1=0,
99999=-nosongbg-=1.000=0=0=0 // don't automatically add -songbackground-
;
#KEYSOUNDS:;
#ATTACKS:;

//---------------dance-single - Challenge Itsugo15----------------
#NOTES:
     dance-single:
     Challenge Itsugo15:
     Challenge:
     10:
     0.961,1.000,0.563,0.225,1.000:
0000
0000
0000
0000
0000
0000
0000
0000
0000
0000
0000
0000
1000
0010
0100
0002
0000
0000
0103
0010
1000
0002
0000
0000
,
0013
0100
1000
0100
0010
0001
1000
0010
0100
0001
0000
0000
0001
0000
0100
0000
0010
0000
0110
0000
0000
0000
0100
0000
,
0010
1000
0001
1001
0000
0001
0010
0100
1000
0100
0001
0100
,
0010
0001
0100
0020
0000
0030
1000
0001
0010
0011
0000
0010
,
0001
1000
0010
1010
0000
1000
0001
0100
0010
1000
0010
0001
,
0010
0100
0001
2000
0000
3001
1000
0010
0100
0110
0000
0010
,
0100
0001
1000
1001
0000
1000
0100
0010
0001
0010
1000
0010
,
0100
1000
0010
0200
0000
0300
0001
1000
0100
1100
0000
0100
,
1000
0001
0100
0101
0000
0001
1000
0010
0100
0001
0100
0010
,
1000
0001
1000
0001
1000
0001
1000
0100
1000
0010
0100
0001
,
0100
0010
1000
0001
0000
0001
1000
0000
1000
0100
0000
0000
,
0110
0000
0000
0011
0000
0010
0001
0010
0100
1000
0000
0100
,
1000
0001
1000
0010
0100
0001
1000
0000
0100
0010
0000
0001
,
0010
0000
0000
0110
0000
0100
1000
0010
0100
0001
0000
0100
,
0010
0000
0100
0001
0000
0001
1000
0000
1000
0100
0000
0100
,
0010
0000
0000
0001
0000
1000
1010
0000
0000
1000
0000
0001
,
0011
0000
0000
2002
0000
3003
0220
0000
0330
1001
0000
0000
,
0001
0100
0010
1000
0000
0000
0100
0010
1000
0010
0100
1000
,
0010
0100
1000
0100
0000
0010
1000
0000
0001
0010
0000
0100
,
1000
0000
0001
0100
0010
1000
0001
0000
0010
0001
1000
0010
,
0100
0000
0001
1000
0000
1000
0100
0000
0100
0010
0000
0010
,
0001
0000
0000
1100
0000
0010
0001
0100
0010
0100
0001
0010
,
0100
0010
0001
1000
0000
0010
0100
0000
0001
0100
0000
0010
,
1000
0000
0000
1001
0000
0100
0010
0000
0000
0110
0000
0001
,
1000
1001
0110
1001
,
1000
0000
0010
0000
0100
0000
0001
0000
0100
0000
0010
0000
2000
0000
0001
0000
0001
0000
0001
0000
3000
0010
0000
0000
,
0200
0000
0001
0000
0001
0000
0301
0000
0000
1000
0000
0000
0020
0000
0100
0000
0100
0000
0130
0000
0010
0000
1000
0000
,
0002
0010
0010
0013
0011
1001
0101
1001
0101
2002
0000
3003
,
1010
0000
1001
0000
1010
0000
2002
0000
0000
0000
3003
0000
1001
0000
0001
0010
0001
0010
0001
0000
1000
0100
1000
0100
,
1000
0010
0100
0001
0010
0001
0100
0010
1000
0100
0010
0001
1000
0000
0100
0000
1000
0000
0100
0000
0010
0000
0100
0000
,
1000
0100
1000
0100
0010
0100
1000
0000
0001
0100
0000
0010
,
1000
0000
0001
0010
0000
0100
1000
0100
1000
0100
0010
0100
,
1000
0100
1000
0100
0010
0100
1000
0000
0010
0001
0000
0010
,
1000
0000
0100
0001
0000
0100
1000
0100
0010
0100
0010
0100
,
1000
0100
0010
0100
0010
0100
1000
0000
1000
0010
0000
0100
,
0001
0000
0001
0010
0000
0100
1000
0100
0010
0100
0010
0100
,
1000
0100
0010
0100
0010
0100
1000
0000
0010
0001
0000
0010
,
1000
0000
0001
0100
0000
0001
0010
0100
0010
1000
0010
0100
,
0010
0001
0010
0100
1000
0001
0100
0001
1000
0100
1000
0001
,
0100
0001
1000
0100
1000
0001
0100
0010
0100
1000
0100
0010
,
1000
0001
0010
0001
1000
0100
1000
0001
0100
0001
1000
0010
,
1000
0001
0010
0100
1000
0100
0010
0001
0010
0100
0010
1000
,
0010
0100
0010
0001
0100
0010
0001
0010
0100
0001
0010
0100
,
0001
0100
0010
0001
0100
0010
0001
0010
0100
1000
0100
0010
,
1000
0100
0010
1000
0010
0100
1000
0010
0100
1000
0100
0010
,
1000
0000
1010
0000
0010
0000
0110
0000
0100
0000
0001
0000
,
0101
0000
0001
0000
1000
0000
1001
0000
1000
0000
1100
0000
,
0110
0000
0010
0000
0001
0000
0011
0000
1001
0000
1010
0000
,
0110
0000
0000
0000
0000
0000
0000
0000
0100
0000
0000
0000
0000
0000
0000
0000
0101
0000
0000
0000
0000
0000
0000
0000
1100
0000
0000
0000
0000
0000
0000
0000
0000
0000
0020
0000
0000
0000
0000
0000
0000
0000
0000
0000
0000
0030
0000
0000
;

//---------------dance-single - Beginner Itsugo15----------------
#NOTES:
     dance-single:
     Beginner Itsugo15:
     Beginner:
     1:
     0.100,0.182,0.100,0.000,0.000: // measure 1
0000
0000
0000
0000
,  // measure 2
0000
0000
1000
0000
,  // measure 3
0000
0000
0000
0000
,  // measure 4
0000
0000
0001
0000
,  // measure 5
0000
0000
0000
0000
,  // measure 6
0000
0000
0010
0000
,  // measure 7
0000
0000
0000
0000
,  // measure 8
0000
0000
0100
0000
,  // measure 9
0000
0000
0000
0000
,  // measure 10
0000
0000
1000
0000
,  // measure 11
0000
0000
0001
0000
,  // measure 12
0000
0000
0100
0000
,  // measure 13
0000
0000
0010
0000
,  // measure 14
0000
0000
1000
0000
,  // measure 15
0000
0000
0100
0000
,  // measure 16
0000
0000
0010
0000
,  // measure 17
0000
0000
0001
0000
,  // measure 18
0000
0000
0011
0000
,  // measure 19
0000
0000
0001
0000
,  // measure 20
0000
0000
1000
0000
,  // measure 21
0000
0000
0010
0000
,  // measure 22
0000
0000
0100
0000
,  // measure 23
0000
0000
0001
0000
,  // measure 24
0000
0000
0100
0000
,  // measure 25
0000
0000
0010
0000
,  // measure 26
0000
0000
0110
0000
,  // measure 27
1000
0000
0001
0000
,  // measure 28
0010
0000
0011
0000
,  // measure 29
0001
0000
1000
0000
,  // measure 30
0100
0000
1100
0000
,  // measure 31
0000
0000
0001
0000
,  // measure 32
0000
0000
1000
0000
,  // measure 33
0000
0000
0010
0000
,  // measure 34
0000
0000
0100
0000
,  // measure 35
0000
0000
0001
0000
,  // measure 36
0000
0000
1000
0000
,  // measure 37
0000
0000
0100
0000
,  // measure 38
0000
0000
0010
0000
,  // measure 39
0000
0000
0001
0000
,  // measure 40
0000
0000
1000
0000
,  // measure 41
0000
0000
0010
0000
,  // measure 42
0000
0000
0100
0000
,  // measure 43
0000
0000
0001
0000
,  // measure 44
0000
0000
0100
0000
,  // measure 45
0000
0000
0010
0000
,  // measure 46
0000
0000
0110
0000
,  // measure 47
0000
0000
1010
0000
,  // measure 48
0000
0000
0101
0000
,  // measure 49
0000
0000
1001
0000
;

//---------------dance-single - Easy Itsugo15----------------
#NOTES:
     dance-single:
     Easy Itsugo15:
     Easy:
     3:
     0.184,0.274,0.087,0.162,0.000:
0000
0000
0000
0000
,
0000
0000
0001
0000
,
0000
0000
0100
0000
,
0000
0000
0010
0000
,
0000
0000
1000
0000
,
0000
0000
0100
0000
,
0000
0000
0010
0000
,
0000
0000
0001
0000
,
0000
0000
1000
0000
,
0000
0000
1001
0000
,
1000
0000
0001
0000
,
0100
0000
0001
0000
,
1000
0000
0100
0000
,
0100
0000
0010
0000
,
0001
0000
1000
0000
,
1000
0000
0010
0000
,
0010
0000
0100
0000
,
0100
0000
0110
0000
,
0001
0000
2000
0000
,
3000
0000
0100
0000
,
0010
0000
0002
0000
,
0003
0000
1000
0000
,
0010
0000
0200
0000
,
0300
0000
0001
0000
,
1000
0000
2002
0000
,
3003
0000
2000
0000
,
3002
0000
0203
0000
,
0320
0000
2030
0000
,
3200
0000
0320
0000
,
0032
0000
1003
0000
,
0010
0000
0100
0000
,
0100
0000
0001
0000
,
0010
0000
0100
0000
,
0100
0000
0010
0000
,
0001
0000
1000
0000
,
0100
0000
1000
0000
,
0010
0000
0100
0000
,
0001
0000
0010
0000
,
0100
0000
1000
0000
,
1000
0000
0010
0000
,
0100
0000
0001
0000
,
0001
0000
0100
0000
,
0010
0000
1000
0000
,
0100
0000
0010
0000
,
0001
0000
1000
0000
,
0100
0000
1100
0000
,
1001
0000
0001
0000
,
0101
0000
1001
0000
,
0001
0000
1000
M000
;

//---------------dance-single - Medium Itsugo15----------------
#NOTES:
     dance-single:
     Medium Itsugo15:
     Medium:
     6:
     0.418,0.519,0.350,0.150,0.000:
0000
0000
0000
0000
,
0000
0000
1000
1000
,
0010
0010
0100
0001
,
0010
0100
0010
0010
,
0001
0001
0100
1000
,
0100
0010
1000
1000
,
0001
0001
0010
1000
,
0010
0001
1000
1000
,
0001
0001
0100
1000
,
0100
0001
1000
1000
,
0100
0100
0010
0100
,
1000
1100
0001
0001
,
0100
0100
0010
0100
,
0001
0101
0100
0010
,
1000
0100
0001
0100
,
1000
0010
0001
1000
,
0100
0001
1000
1001
,
1000
0001
0010
0010
,
0010
1000
0010
0001
,
1000
0010
0100
0100
,
0100
1000
0100
0001
,
1000
1001
0001
0010
,
0100
1000
0100
0010
,
0001
1000
1100
0001
,
0101
1001
1001
0002
,
0023
0230
2300
3010
,
0200
0301
2000
3100
,
0020
0032
2003
3010
,
0200
0000
0301
0000
1000
1010
0001
0011
,
0001
0010
0100
1000
1100
0000
1000
0000
,
0100
0010
0001
0011
,
0001
1001
0001
0100
,
0010
1000
1010
1000
,
1001
1000
0100
0001
,
0100
1000
1100
1000
,
1001
0001
0100
1000
,
0100
0001
0101
0001
,
1001
1000
0100
0010
,
0001
0100
0010
0001
,
0010
1000
0100
0010
,
1000
0010
0001
0100
,
1000
0100
0010
1000
,
0100
0001
0100
0010
,
0001
1000
0100
0010
,
0001
0100
0010
1000
,
0100
1100
0100
0110
,
0010
0011
0001
1001
,
1000
1010
0010
0110
,
0101
0000
0001
0000
1001
0000
2200
3300
;

//---------------dance-single - Heavy Itsugo15----------------
#NOTES:
     dance-single:
     Heavy Itsugo15:
     Hard:
     9:
     0.873,0.917,0.463,0.637,1.000:
0000
0000
0000
0000
0000
0000
0000
0000
0000
0000
0000
0000
1000
0100
1000
0100
0000
0000
0010
0001
0010
0001
0000
0000
,
1000
0001
1000
0001
1000
0001
1000
0001
1000
0001
0000
0000
0001
0000
0100
0000
0010
0000
2000
0000
0000
0000
3000
0000
,
0100
0010
0001
0200
0000
0300
0100
0010
0100
0001
0100
0010
,
1000
0010
0100
0002
0000
0003
1000
0100
0010
0002
0000
0003
,
0001
0010
0100
2000
0000
3000
1000
0100
0010
0100
1000
0100
,
0010
0100
1000
0002
0000
0003
0100
0010
1000
0200
0000
0300
,
0010
0001
0100
0020
0000
0030
1000
0010
0100
0001
0100
0010
,
1000
0100
0010
0002
0000
0003
0010
0100
1000
0002
0000
0003
,
0100
0010
1000
0002
0000
0003
0010
0100
1000
0001
0100
0010
,
1000
0010
1000
0010
1000
0010
1000
0001
0010
0100
0010
0001
,
0010
0100
0010
0001
0000
0001
1000
0000
0000
1001
0000
0000
,
1010
0000
0000
0110
0000
0000
0100
0001
1000
0100
0000
0000
,
1000
0100
1000
0100
0010
0001
1000
0000
0000
1001
0000
0000
,
0101
0000
0000
0110
0000
0010
1000
0000
1000
0001
0000
0001
,
0010
0000
0010
0100
0000
0100
1000
0000
0000
1100
0000
1000
,
0001
0000
0000
0101
0000
0100
0010
0000
0000
1010
0000
0010
,
0100
0101
1001
1100
,
0100
0010
0001
1000
0000
0000
0010
0100
0010
1000
0100
0010
,
0001
0010
0100
1000
0100
0010
0002
0000
0000
0203
0000
0000
,
0320
0000
0000
1030
0100
0010
0001
0000
1000
0001
0100
0010
,
1000
0100
0010
0001
0010
0100
2000
0000
0000
3002
0000
0000
,
0203
0000
0300
0101
0000
0000
0001
0100
0010
0100
0001
0100
,
0010
1000
0010
0100
0010
1000
0002
0000
0000
0023
0000
0000
,
0230
0000
0300
0110
0000
0100
1000
0000
0000
1100
0000
1000
,
0001
1001
0101
1100
,
1000
0001
1000
0001
1000
0001
1000
0010
0100
0110
0000
0000
,
0010
0100
0001
0101
0000
0000
0100
0010
1000
1010
0000
0000
,
0010
0100
0001
0010
1000
0010
0001
1000
0100
1100
0000
0000
,
1000
0000
0001
0000
0100
0000
0101
0000
0000
0000
0000
0000
0001
0000
0000
1001
0000
0000
1000
0000
0000
1001
0000
0000
,
1000
0001
1000
0001
1000
0001
1000
0001
1000
0001
1000
0001
1000
0000
0010
0000
1000
0000
0001
0000
1000
0000
0100
0000
,
0010
0001
0010
0100
1000
0001
0200
0000
0000
0320
0000
0000
,
2030
0000
0000
3200
0000
0000
0310
0001
1000
0010
0100
0010
,
1000
0100
0010
0001
0010
0100
2000
0000
0000
3002
0000
0000
,
0203
0000
0000
0320
0000
0000
1030
0010
0100
0001
1000
0100
,
0010
0100
1000
0001
0010
0100
2000
0000
0000
3002
0000
0000
,
0023
0000
0000
0230
0000
0000
1300
0100
0010
0001
0010
0100
,
0010
0001
1000
0100
0010
0001
2000
0000
0000
3020
0000
0000
,
0230
0000
0000
0302
0000
0000
1003
0100
1000
0001
1000
0010
,
0100
0001
0100
0010
1000
0001
0020
0000
0000
0230
0000
0000
,
2300
0000
0000
3020
0000
0000
0130
0001
1000
0100
0010
0100
,
1000
0010
0100
0001
0100
0010
2000
0000
0000
3002
0000
0000
,
0023
0000
0000
0230
0000
0000
1300
0100
0010
0001
1000
0010
,
0100
0001
0100
0010
1000
0001
0020
0000
0000
0230
0000
0000
,
0320
0000
0000
0032
0000
0000
1003
0100
0010
0001
0100
0010
,
1000
0000
0001
0000
0010
0000
0100
0000
0010
0000
0001
0000
2000
0000
0000
0000
0000
0000
3200
0000
0000
0300
0000
0000
,
1100
0000
1000
0000
0001
0000
1001
0000
1001
0000
1001
0000
,
0101
0000
0100
0000
0010
0000
0110
0000
0110
0000
0110
0000
,
1010
0000
1000
0000
0100
0000
1100
0000
0010
0000
0001
0000
,
0011
0000
0000
0000
0001
0000
0000
0000
1000
0000
0000
0000
1001
0000
0000
0000
0000
0020
0000
0000
0000
0000
0030
0000
;
