#TITLE:彼岸帰航;
#SUBTITLE:~Riverside View;
#ARTIST:C-CLAYS;
#TITLETRANSLIT:Higan Retour;
#SUBTITLETRANSLIT:~Riverside View;
#ARTISTTRANSLIT:C-CLAYS;
#GENRE:Touhou;
#CREDIT:Ophi for Ogg,Bpm and Offset (Itsugo (PAD) steps);
#MENUCOLOR:;
#BANNER:Higan Retour-bn.jpg;
#BACKGROUND:Higan Retour-bg.jpg;
#LYRICSPATH:Higan Retour.lrc;
#CDTITLE:Itsugo15 SimifileS.png;
#MUSIC:Higan Retour.ogg;
#OFFSET:-0.590;
#SAMPLESTART:31.789;
#SAMPLELENGTH:30.000;
#SELECTABLE:YES;
#LISTSORT:;
#DISPLAYBPM:115.023;
#BPMS:0.000=115.023,1.000=115.018,3.000=115.023,4.000=115.018,6.000=115.023,7.000=115.018,9.000=115.023,10.000=115.018,12.000=115.023,13.000=115.018,16.000=115.023,17.000=115.018,19.000=115.023,20.000=115.018,21.000=116.971,22.000=119.685,23.000=115.018,25.000=115.023,26.000=115.018,29.000=115.023,30.000=115.018,32.000=115.023,33.000=117.637,34.000=115.018,35.000=115.023,36.000=115.018,38.000=115.023,39.000=115.018,41.000=115.023,42.000=115.018,45.000=115.023,46.000=115.018,49.000=115.023,50.000=115.018,53.000=115.023,54.000=115.018,57.000=115.023,58.000=115.018,59.000=123.987,60.000=117.637,61.000=115.023,62.000=115.018,65.000=115.023,66.000=115.018,69.000=115.023,70.000=115.018,73.000=115.023,74.000=115.018,77.000=115.023,78.000=115.018,81.000=115.023,82.000=115.018,85.000=115.023,86.000=115.018,89.000=115.023,90.000=115.018,93.000=115.023,94.000=115.018,97.000=115.023,98.000=115.018,101.000=115.023,102.000=115.018,105.000=115.023,106.000=115.018,109.000=115.023,110.000=115.018,113.000=115.023,114.000=115.018,117.000=115.023,118.000=115.018,121.000=115.023,122.000=115.018,125.000=115.023,126.000=115.018,129.000=115.023,130.000=115.018,133.000=115.023,134.000=115.018,135.000=115.662,136.000=115.018,137.000=115.023,138.000=115.018,141.000=115.023,142.000=115.018,145.000=115.023,146.000=115.018,149.000=115.023,150.000=115.018,153.000=115.023,154.000=115.018,157.000=115.023,158.000=115.018,161.000=115.023,162.000=115.018,165.000=115.023,166.000=115.018,169.000=115.023,170.000=115.018,173.000=115.023,174.000=115.018,177.000=115.023,178.000=113.753,179.000=115.018,181.000=115.023,182.000=115.018,183.000=115.023,184.000=115.018,185.000=115.023,186.000=115.018,187.000=115.023,188.000=115.018,189.000=115.023,190.000=115.018,191.000=115.023,192.000=115.018,193.000=115.023,194.000=115.018,195.000=115.023,196.000=115.018,197.000=115.023,198.000=115.018,199.000=115.023,200.000=115.018,201.000=115.023,202.000=115.018,203.000=115.023,204.000=115.018,205.000=115.023,206.000=115.018,207.000=115.023,208.000=115.018,209.000=115.023,210.000=115.018,211.000=115.023,212.000=115.018,213.000=115.023,214.000=57.511,215.000=115.018,216.000=115.023,217.000=115.018,218.000=115.023,219.000=115.018,220.000=115.023,221.000=115.018,222.000=115.023,223.000=115.018,224.000=115.023,225.000=115.018,226.000=115.023,227.000=115.018,228.000=115.023,229.000=115.018,230.000=115.023,231.000=115.018,232.000=115.023,233.000=115.018,234.000=115.023,235.000=115.018,236.000=115.023,237.000=113.753,238.000=115.023,239.000=115.018,240.000=115.023,241.000=115.018,242.000=115.023,243.000=115.018,244.000=115.023,245.000=115.018,246.000=115.023,247.000=115.018,248.000=115.023,249.000=115.018,250.000=115.023,251.000=115.018,252.000=115.023,253.000=115.018,254.000=115.023,255.000=115.018,256.000=115.023,257.000=115.018,258.000=115.023,259.000=115.018,260.000=115.023,261.000=115.018,262.000=115.023,263.000=115.018,264.000=115.023,265.000=115.018,266.000=115.023,267.000=115.018,268.000=115.023,269.000=115.018,270.000=115.023,271.000=115.018,272.000=115.023,273.000=115.018,274.000=115.023,275.000=115.018,276.000=115.023,277.000=115.018,278.000=115.023,279.000=115.018,280.000=115.023,281.000=115.018,282.000=115.023,283.000=115.018,284.000=114.704,285.000=115.018,286.000=115.023,287.000=115.018,288.000=115.023,289.000=115.018,290.000=115.023,291.000=115.018,292.000=115.023,293.000=115.018,294.000=115.023,295.000=115.018,296.000=113.758,297.000=115.018,298.000=115.023,299.000=115.018,300.000=115.023,301.000=115.018,302.000=115.023,303.000=115.018,304.000=115.023,305.000=115.018,306.000=115.023,307.000=115.018,308.000=115.023,309.000=115.018,310.000=115.023,311.000=115.018,312.000=115.023,313.000=115.018,314.000=115.023,315.000=115.018,316.000=115.023,317.000=115.018,318.000=115.023,319.000=115.018,320.000=115.023,321.000=115.018,322.000=115.023,323.000=115.018,324.000=115.023,325.000=115.018,326.000=115.023,327.000=115.018,328.000=115.023,329.000=115.018,330.000=115.023,331.000=115.018,332.000=115.023,333.000=115.018,334.000=115.023,335.000=115.018,336.000=115.023,337.000=115.018,338.000=115.023,339.000=115.018,340.000=115.023,341.000=115.018,342.000=115.023,343.000=115.018,344.000=115.023,345.000=115.018,346.000=115.023,347.000=115.018,348.000=115.023,349.000=115.018,350.000=115.023,351.000=115.018,352.000=115.023,353.000=115.018;
#STOPS:;
#TICKCOUNT:0.000=8;
#BGCHANGES:0.000=Higan Retour-bg1.jpg=1.000=1=1=0,
34.000=Higan Retour-bg10.jpg=1.000=1=1=0,
60.000=Higan Retour-bg3.jpg=1.000=1=1=0,
84.000=Higan Retour-bg4.jpg=1.000=1=1=0,
125.000=Higan Retour-bg7.jpg=1.000=1=1=0,
166.000=Higan Retour-bg9.jpg=1.000=1=1=0,
214.000=Higan Retour-bg6.jpg=1.000=0=1=0,
215.000=Higan Retour-bg2.jpg=1.000=0=1=0,
238.000=Higan Retour-bg5.jpg=1.000=1=1=0,
261.000=Higan Retour-bg4.jpg=1.000=1=1=0,
303.000=Higan Retour-bg8.jpg=1.000=1=1=0,
311.000=Higan Retour-bg1.jpg=1.000=1=1=0,
333.000=Higan Retour-bg.jpg=1.000=1=1=0,
99999=-nosongbg-=1.000=0=0=0 // don't automatically add -songbackground-
;
#KEYSOUNDS:;
#ATTACKS:;

//---------------dance-single - Hard Itsugo15----------------
#NOTES:
     dance-single:
     Hard Itsugo15:
     Hard:
     8:
     0.830,0.883,1.000,0.638,0.148:
1001
0001
0010
0100
,
1000
0000
0010
0000
1010
1000
0001
0000
,
0100
0101
0001
1001
,
1000
0100
0010
0001
,
1000
0000
1001
1000
0010
0000
1000
0000
,
1010
0000
1000
0000
1001
0001
0010
0100
,
2000
0000
0000
3100
0010
0001
2000
0000
,
0000
3010
0100
0001
2000
0000
0000
3010
,
0100
0010
2000
0000
3001
0000
1001
0000
,
0101
0100
0101
0110
,
0010
0110
1010
1000
,
1010
1001
1000
1001
,
1100
1000
1100
0110
,
0010
0000
0000
0000
0000
0000
0000
0000
0000
0000
0000
0000
0000
0000
0000
0000
0110
0000
0000
0000
0000
0000
0000
0000
0000
0000
0000
0000
0000
0000
0000
0000
0011
0000
0000
0000
0000
0000
0000
0000
0000
0000
0000
0000
0000
0000
0000
0000
0001
2000
0000
0000
0000
0000
0000
0000
0000
0000
0000
0000
0000
0000
0000
0000
,
0000
0000
0000
0000
0000
0001
3001
0000
,
1001
0001
1000
0010
0100
0001
0101
0000
,
1100
0000
0101
0000
1001
0001
0010
0100
,
1000
0100
0010
0001
0010
0100
0010
0001
,
0011
0010
0001
0100
0010
1000
1010
0000
,
0011
1010
1001
1100
,
0101
0000
0000
0000
1001
0000
0001
0000
1000
0000
0010
0000
0100
0001
0100
0000
,
0202
0000
0000
0000
0000
0000
0000
0000
0000
0000
0000
0000
0300
0000
0000
0000
0000
0000
0100
0000
0000
0000
0000
0000
0203
0000
0000
0000
0000
0000
0000
0000
0300
0000
0000
0000
0102
0000
0000
0000
0000
0000
0000
0000
0000
0003
0000
0000
,
2000
3200
0320
0200
,
0000
0330
0000
0000
0110
0000
0010
0100
0010
0001
0010
0100
1000
0100
0010
0001
,
0022
0000
0000
0030
0000
0000
0010
0000
0023
0000
0030
0000
0012
0000
0000
0000
,
2003
3020
0230
0000
,
0000
0000
0000
0000
0310
0100
0010
0010
0100
0100
0010
1000
0001
0100
0010
1000
,
2020
0030
0000
0001
3001
0000
1001
0000
,
1100
0011
0120
0200
,
0000
0000
0030
0000
0310
0000
0100
0100
0010
0010
0100
1000
0100
0010
0001
1000
,
2002
0000
0000
0000
0000
0003
0001
0000
3001
1000
0001
0100
0101
0000
0000
0000
,
1100
0110
0010
0001
,
1000
0000
0010
0000
0100
0000
0001
0100
,
0010
1000
1010
0011
,
0001
1000
0100
0020
,
0200
0300
0031
0010
0200
0000
1300
0100
,
1000
1100
1001
0101
,
0110
0010
1000
0010
0100
0001
1000
0100
,
0010
0001
0010
0100
1000
0001
0010
0100
,
1000
0100
0010
0001
1000
0001
0100
0001
,
1000
0010
0100
0001
1000
0100
1100
0000
,
1010
0000
0101
0000
0021
0000
0001
0001
,
0000
0000
0001
0000
0000
0000
0032
0013
,
0000
0001
1000
0010
1020
0000
1000
1000
,
0000
0000
1000
0000
2030
0000
3010
2000
,
0000
3010
0100
0001
1000
0100
0010
0001
,
2000
0000
0000
0000
3000
0000
0100
0000
0010
0000
0000
0100
0000
0000
1000
0000
,
0010
0000
0000
0100
0000
0000
0010
0000
0220
0000
0000
0000
0000
0000
0000
0000
,
0330
0010
1000
0001
0200
0000
0301
2000
,
0000
3100
0010
0001
0011
0001
0010
0002
,
0003
1000
0000
0002
0003
0100
0010
2000
,
0000
0002
3000
1003
2002
0000
0000
0000
,
0000
0000
0000
3003
2002
0000
0000
0000
,
0000
0000
3003
1100
,
1001
1100
1001
0101
,
0110
0000
0010
1000
1010
0000
0101
0000
,
1100
0011
1001
0011
,
1001
0000
0202
0000
0313
0000
0100
0010
,
0220
0000
0300
1000
1000
0000
0001
0000
,
0230
0000
0302
0000
1003
0100
0010
0100
,
1000
0100
0010
0001
1000
0010
0100
0010
,
1000
0010
0100
0001
1000
0100
1100
0000
,
0011
0000
1001
1000
0010
0001
0010
1000
,
0100
0001
0100
1000
0001
0100
0101
0000
,
1010
1000
0001
0000
1001
0000
0110
0000
,
1001
0000
0210
0000
0000
0010
0310
0000
,
0110
2010
0001
3200
,
2000
0000
3300
0000
1000
0100
0010
0001
,
1000
0001
1000
0001
2000
0000
0000
0000
0000
0000
0100
0000
3100
0000
0000
0000
,
1100
0110
0011
2002
,
0000
0000
0000
0000
0000
0000
3003
0000
0001
0000
1000
0000
0001
1000
0001
1000
,
0001
1000
0001
1000
0002
0000
0000
0000
0000
0000
0010
0000
0013
0000
0000
0000
,
0011
0101
1010
2200
,
0000
3300
1100
1001
,
0001
1000
0001
1000
0002
0000
0000
0000
0000
0000
1003
0000
0001
0000
0000
0000
,
1001
0110
1001
0210
,
0010
0000
0010
0000
,
0010
0000
0000
0000
0000
0000
0000
0000
0000
0000
0000
0000
0000
0000
0000
0000
0000
0000
0000
0000
0000
0000
0000
0000
0310
0000
0000
0000
0000
0000
0000
0000
0100
0000
0000
0000
0000
0000
0000
0000
0001
0000
0000
0000
0000
0000
0000
1000
0100
0000
0000
0000
0000
0000
0000
0000
0000
0000
0000
0000
0000
0000
0000
0000
,
1000
0100
0010
0001
,
1000
0000
0010
0100
0001
0000
0100
0000
,
0101
0101
0110
0010
,
1000
0001
0010
0001
,
1000
0100
0010
0000
0110
0000
0011
0000
,
1001
2002
0000
0000
,
0000
3003
0000
0000
;

//---------------dance-single - Beginner Itsugo15----------------
#NOTES:
     dance-single:
     Beginner Itsugo15:
     Beginner:
     2:
     0.136,0.278,0.076,0.171,0.000:
1000
0000
0000
0000
,
0000
0000
0000
0000
,
0000
0000
0000
0001
,
0000
0000
0000
0000
,
0000
0000
0000
0000
,
0000
0000
0010
0000
,
0000
0000
0000
0000
,
0000
0000
0000
0000
,
0000
0000
0100
0000
,
0000
0000
0000
0000
,
0000
0000
0000
0000
,
0000
0000
1000
0000
,
0000
0000
0000
0000
,
0000
0000
0000
0002
,
0000
0000
0000
0000
,
1003
0000
0000
0000
,
0000
0000
0010
0000
,
0000
0000
0000
0000
,
0100
0000
0000
0000
,
0000
0000
0001
0000
,
0000
0000
0000
0000
,
1001
0000
0000
0000
,
0000
0000
1000
0000
,
0000
0000
0000
0000
,
1100
0000
0000
0000
,
0000
0000
0010
0000
,
0000
0000
0000
0000
,
0110
0000
0000
0000
,
0000
0000
0001
0000
,
0000
0000
0000
0000
,
0011
0000
0000
0000
,
0000
1001
0000
0000
,
0000
0000
0000
1000
,
0000
0000
0000
0000
,
0010
0000
0000
0000
,
0000
0000
0100
0000
,
0000
0000
0000
0000
,
0001
0000
0000
0000
,
0000
0000
1000
0000
,
0000
0000
0000
0000
,
0100
0000
0000
0000
,
0000
0000
2200
0000
,
0000
0000
0000
3300
,
0000
0000
0220
0000
,
0000
0000
0330
0000
,
0000
0000
0001
0000
,
0000
0000
0000
0000
,
0000
0000
0010
0000
,
0000
0000
0000
0000
,
0000
0000
0100
0000
,
0000
0000
0000
0000
,
0000
0000
2000
0000
,
0000
0000
3002
0000
,
0000
0000
0003
1000
,
0010
0010
0000
0000
,
1000
0002
0000
0000
,
2003
0000
3100
0000
,
0010
0001
0000
0001
,
2000
0000
0000
3002
,
0000
0000
1003
0000
,
0000
0000
0010
0010
,
0000
0000
0000
0100
,
0100
0000
0000
0000
,
0000
0001
0001
2000
,
0000
0000
3002
0000
,
0003
1001
0000
0000
,
2000
0000
0000
3000
,
0000
0000
0002
0000
,
0000
0003
0000
0000
,
0020
0000
0000
0030
,
0000
0000
0200
0000
,
0000
0300
0000
0000
,
1000
1000
1000
1000
,
0000
0000
0001
0001
,
0001
0001
0000
0000
,
0100
0010
0100
0020
,
0000
0000
0000
0000
,
0000
0000
0000
0130
,
0000
0000
0000
0000
,
0000
0001
0000
0000
,
0000
0000
1000
0000
,
0000
0000
0000
0000
,
0100
0000
0000
0000
,
0000
0010
0000
0000
;

//---------------dance-single - Challenge Itsugo15----------------
#NOTES:
     dance-single:
     Challenge Itsugo15:
     Challenge:
     12:
     1.000,1.000,1.000,1.000,0.805:
2010
3020
0230
0302
,
2003
0000
0000
0000
3200
0000
0000
0300
1100
0000
0100
0000
0020
0000
0000
0000
,
0032
0000
0000
0003
0012
0000
0000
0000
2000
0000
0000
3003
2001
0000
0000
0000
,
3020
0230
0302
0203
,
0320
0000
0000
0030
0110
0000
0010
0000
2000
0000
0000
0000
0002
0000
0000
3003
,
1002
0000
0000
0000
0200
0000
0000
0303
0101
0000
0001
0000
0100
0000
1000
0000
,
0200
0000
0000
0301
0010
1000
0020
0000
,
0000
0031
1000
0010
0200
0000
0000
0301
,
1000
0000
0100
0000
0020
0000
0000
0030
0011
0000
0001
0000
1001
0000
1000
0000
,
1020
0000
0000
0030
0110
0000
0100
0000
0101
0000
0001
0000
2001
0000
0000
3000
,
1100
0000
0100
0000
0110
0000
0010
0000
0012
0000
0000
0003
1001
0000
1000
0000
,
1010
0010
0110
0010
0011
0010
0110
0010
,
2010
0000
0000
3000
1001
0000
1000
0000
1100
0000
0100
0000
0120
0000
0000
0030
,
0011
0000
0000
0000
0000
0000
0000
0000
0001
0000
0000
0000
0000
0000
0000
0000
1001
0000
0000
0000
0000
0000
0000
0000
1000
0000
0000
0000
0000
0000
0000
0000
1010
0000
0000
0000
0000
0000
0000
0000
0000
0000
0000
0000
0000
0000
0000
0010
0100
0002
0000
0000
0000
0000
0000
0000
0000
0000
0000
0000
0000
0000
0000
0000
,
0000
0000
0000
0000
0000
1000
1003
0000
,
1001
1000
0100
0010
0110
0010
0011
0001
,
0010
0100
0110
0100
1100
1000
0001
0100
,
0101
0100
0110
0010
1000
0001
1001
0100
,
0110
0010
0001
1000
1001
1000
1100
0100
,
0010
0001
0011
0001
1001
1000
0010
0100
,
0110
0000
0100
0000
0101
0000
1001
0000
1100
0000
0100
0000
0010
0001
1000
0000
,
2002
0000
0000
0000
0003
0000
0100
0000
0002
0000
0000
3003
1002
0000
0000
0003
,
0201
0000
0000
0300
0120
0000
0000
0030
2010
0000
0000
3000
1002
0000
0000
0000
,
2000
0000
0000
3003
1001
0000
1000
0010
0100
0010
1000
0001
0100
0010
1000
0001
,
2002
0000
0000
0000
3000
0000
0100
0000
2000
0000
0000
3003
1002
0000
0003
0000
,
0201
0000
0000
0300
1020
0000
0000
0030
2100
0000
0000
3000
0012
0000
0000
0000
,
1000
0000
0000
0003
1001
0000
1000
1000
0001
0001
0010
0010
0001
0010
0100
0010
,
0002
0000
0000
0000
0000
0000
1000
0000
0020
0000
0000
0033
0021
0000
0000
0030
,
2010
0000
0000
3000
1200
0000
0000
0300
0102
0000
0000
0003
2001
0000
0000
3000
,
1200
0000
0000
0300
0110
0000
0010
0001
1000
1000
0010
0100
0001
0001
0100
0010
,
0220
0000
0000
0000
0030
0000
0010
0000
0001
0001
0001
0301
0201
0000
0000
0000
,
1000
0000
0000
0300
0102
0000
0000
0000
0023
0000
0000
0000
2030
0000
0000
0000
,
3200
0000
0302
0000
0023
0000
0130
1000
,
0002
0203
2300
3020
,
0032
0203
2300
3020
,
0130
0000
0010
0001
2000
0000
3001
0100
,
0020
0030
1010
0010
1000
0100
0010
0001
,
1000
0001
1000
0001
1000
0001
1000
0001
1000
0001
1000
0001
0100
0001
0100
0001
,
0100
0001
0100
0001
0100
0001
0100
0001
0100
0010
1000
0010
1000
0010
1000
0010
,
1000
0010
1000
0010
0100
0001
1000
0100
0010
0001
0010
0100
1000
0100
0010
0100
,
1000
0100
1000
0100
1000
0100
1000
0100
1000
0100
0010
0001
0021
0000
0000
0000
,
1000
0000
0000
0000
0001
0000
0000
0030
0120
0000
0130
0000
0210
0000
0010
0000
,
0010
0000
0310
0000
0120
0000
0100
0000
0100
0000
0130
0000
0220
0330
0010
0000
,
0001
0011
1001
1010
1002
1003
2001
0001
,
0001
3001
1002
1000
2003
0001
3001
1001
,
1000
0000
0200
0000
0320
0000
0001
0031
0020
0000
0032
0000
0023
0000
0230
0000
,
2300
0000
0000
0000
0000
0000
3002
0000
0203
0000
0000
2300
0000
0000
3200
0000
,
0302
0000
0100
0003
0101
0000
0110
0000
2010
0000
3010
0000
1020
0000
1000
0000
,
1030
1000
0010
0100
0002
0100
0203
0010
,
0320
0000
1000
0000
2030
0000
0010
3010
1020
0000
0230
0000
0320
0000
2030
0000
,
0001
3002
0010
0023
0100
0230
2300
3002
,
0013
0000
0011
0000
0110
0000
1100
0000
1001
0000
0001
1000
0001
0000
1000
0001
,
1000
0000
0001
1000
0000
1000
0001
0000
2002
0000
0000
0003
0100
0000
0000
0000
,
3100
0000
1000
0000
0100
0000
0010
0000
0001
0000
0010
0000
0001
0000
1000
0000
020M
00M0
000M
00M0
M000
00M0
000M
0000
13MM
0000
0001
0000
0100
0000
0010
0000
,
1000
0010
0100
0001
1000
0100
0010
0100
1000
0010
0100
1000
0100
0010
1000
0001
,
0100
0010
1000
0001
0100
0010
0100
0010
0100
0010
0100
0010
0100
0010
1000
0001
,
0100
0010
1000
0010
0100
0001
0100
0010
1000
0001
1000
0001
0010
0100
0010
0001
,
0100
0010
0001
0010
0100
0010
0100
0010
1000
0001
0100
0010
1000
0001
0100
0010
,
1000
0010
0100
0010
1000
0010
0100
0010
1000
0010
0100
0010
2000
0000
3002
0000
,
0023
0000
0230
0000
2300
0000
3200
0000
0310
0001
0010
0100
0010
0001
0010
0100
,
1000
0001
0100
0001
1000
0001
0100
0001
0010
0100
1000
0100
0010
0001
0010
0100
,
1000
0100
0010
0100
1000
0010
0100
1000
0100
0010
1000
0100
0010
0001
0010
0100
,
1000
0100
0010
0001
0010
0100
0010
0001
0010
0100
0010
0001
1000
0010
1000
0001
,
1000
0010
1000
0001
0100
0010
1000
0010
0100
0001
0100
0010
1000
0010
0100
0010
,
1000
0100
0010
1000
0010
0100
1000
0001
0100
0010
0001
0010
0100
0001
1000
0100
,
0010
0001
0010
0100
2000
0000
0100
0000
0100
0000
3001
0000
1001
0000
0001
0000
,
0101
0100
0110
0010
1010
1000
1001
0001
,
0010
0000
0100
0000
1000
0000
0100
0000
0010
0001
0010
0100
0010
0001
1000
0100
,
0010
0001
0010
0100
2000
0000
0100
0000
0001
0000
3010
0000
1010
0000
0010
0000
,
0110
0100
0101
0001
1001
1000
1100
0100
,
0010
0000
0001
0000
0010
0000
0100
0000
1000
1000
0001
0001
1000
1000
0010
1000
,
0001
0010
0100
1000
0002
0000
1000
0000
1000
0000
0013
0000
0011
0000
0010
0000
,
0110
0100
1100
1000
1001
0001
0101
0100
,
0010
0000
1000
0000
0010
0000
0100
0000
0110
0000
0101
0000
0001
1000
0100
0010
,
0100
0000
0000
1000
0000
0000
0001
0000
0000
0100
0000
0000
0020
0000
0000
0000
0000
0000
0000
0000
0000
0000
0000
0000
1030
0000
0000
0000
0000
0000
0001
0000
0000
0000
0000
0000
0020
0000
0000
0000
0000
0000
0000
0000
0030
0000
0000
0000
,
0011
0101
1010
2200
,
0001
0000
0001
0000
,
0001
0000
0000
0000
0000
0000
0000
0000
0000
0000
0000
0000
0000
0000
0000
0000
3300
0000
0000
0000
0000
0000
0000
0000
1000
0000
0000
0000
0000
0000
0000
0000
0100
0000
0000
0000
0000
0000
0000
0000
0010
0000
0000
0000
0000
0000
0000
0001
2000
0000
0000
0000
0000
0000
0000
0000
0000
0000
0000
0000
0000
0000
0000
0000
,
3020
0230
0302
2003
,
3200
0000
0310
0001
2000
0000
3020
0000
,
0032
0203
2300
3002
,
0203
0320
2030
3002
,
0013
0100
2000
0000
3002
0000
0203
0000
,
2300
3020
0200
0000
,
0000
0000
0000
0330
;

//---------------dance-single - Easy Itsugo15----------------
#NOTES:
     dance-single:
     Easy Itsugo15:
     Easy:
     3:
     0.256,0.515,0.095,0.124,0.000: // measure 1
0001
0000
0000
0000
,  // measure 2
0000
0000
1000
0000
,  // measure 3
0000
0010
0000
0100
,  // measure 4
0000
0000
0000
0000
,  // measure 5
0000
0001
0000
0000
,  // measure 6
1000
0000
0100
0000
,  // measure 7
0000
0100
0000
0000
,  // measure 8
0100
0000
0000
0010
,  // measure 9
0000
0000
0010
0000
,  // measure 10
0000
0001
0000
0000
,  // measure 11
1000
0000
0000
0010
,  // measure 12
0000
0000
0100
0000
,  // measure 13
0000
0001
0000
0000
,  // measure 14
1000
0000
0000
2002
,  // measure 15
0000
0000
3003
0000
,  // measure 16
1000
0000
0000
0100
,  // measure 17
0000
0000
0010
0000
,  // measure 18
0000
0001
0000
0000
,  // measure 19
1000
0000
0000
0010
,  // measure 20
0000
0000
0100
0000
,  // measure 21
0000
0001
0000
0000
,  // measure 22
2000
0000
0000
0001
,  // measure 23
0000
0000
3100
0000
,  // measure 24
0000
1000
0100
0010
,  // measure 25
0002
0000
0000
1000
,  // measure 26
0000
0000
0103
0000
,  // measure 27
0000
0001
0001
0100
,  // measure 28
0020
0000
0000
0100
,  // measure 29
0000
0000
1030
0000
,  // measure 30
0000
1000
0001
1000
,  // measure 31
0200
0000
0000
0010
,  // measure 32
0010
0310
0000
0000
,  // measure 33
0001
0000
0000
1000
,  // measure 34
0000
0000
0010
0000
,  // measure 35
0100
0000
0000
0001
,  // measure 36
0000
0000
1000
0000
,  // measure 37
0000
0100
0000
0000
,  // measure 38
0010
0010
0010
0001
,  // measure 39
0001
0001
1000
1000
,  // measure 40
1000
0010
0010
0010
,  // measure 41
0100
0100
0100
0001
,  // measure 42
1000
0001
1000
0000
,  // measure 43
0000
0100
0000
0100
,  // measure 44
0000
0010
0001
0000
,  // measure 45
0000
0000
1000
0000
,  // measure 46
1000
0001
0100
0000
,  // measure 47
0000
0010
0000
1000
,  // measure 48
0000
0001
1001
0000
,  // measure 49
0000
1000
0000
0100
,  // measure 50
0000
0010
0110
0000
,  // measure 51
0001
0000
1000
0000
,  // measure 52
0010
0000
0200
0000
,  // measure 53
0001
0000
0320
0000
,  // measure 54
1000
0000
0030
1000
,  // measure 55
0000
0001
0000
0010
,  // measure 56
0010
0100
0000
1000
,  // measure 57
0001
0001
1000
0000
,  // measure 58
0010
0000
0100
0100
,  // measure 59
0020
0000
0000
0230
,  // measure 60
0000
0000
0310
1000
,  // measure 61
0001
0010
0011
0011
,  // measure 62
0001
1000
0010
1010
,  // measure 63
1010
1000
0001
1000
,  // measure 64
0001
1001
1001
2000
,  // measure 65
0000
0000
3002
0000
,  // measure 66
0000
1003
0000
0000
,  // measure 67
0010
0000
0000
0100
,  // measure 68
0000
0000
0001
0100
,  // measure 69
0001
0100
0000
0000
,  // measure 70
0010
0000
0000
1000
,  // measure 71
0000
0000
0001
1000
,  // measure 72
0001
1000
0000
0000
,  // measure 73
0100
0000
0000
0010
,  // measure 74
0000
0000
0001
0010
,  // measure 75
0001
0010
0000
0100
,  // measure 76
1000
0010
0001
0200
,  // measure 77
0010
0000
0010
0000
,  // measure 78
0010
0000
0310
0001
,  // measure 79
0000
0000
0000
0000
,  // measure 80
0000
1000
0000
0000
,  // measure 81
0010
0000
0100
0000
,  // measure 82
0000
0000
0000
0000
,  // measure 83
0001
0000
0000
1000
,  // measure 84
0000
1001
0000
0000
;

//---------------dance-single - Medium Itsugo15----------------
#NOTES:
     dance-single:
     Medium Itsugo15:
     Medium:
     6:
     0.629,0.680,0.505,0.533,0.010:
1000
0001
1000
0001
,
0010
0000
0100
0000
1000
0100
1000
0000
,
0001
1000
0100
0010
,
0100
0010
0001
1000
,
0010
0000
1000
0010
1000
0000
0001
0000
,
1000
0010
0100
0001
,
1000
0100
0010
0001
,
0010
0001
0010
0000
0001
0000
2000
0000
,
0000
3000
1001
1000
,
0100
1100
0100
0010
,
0110
0010
0001
0011
,
1001
1010
1001
0001
,
0100
0101
0100
0010
,
0110
0010
1000
2020
,
0000
0000
0000
0030
0000
0010
3010
0000
,
1000
0010
1000
0010
1000
0001
0010
0000
,
0100
0000
1000
0000
0100
1000
0100
1000
,
0100
1000
0001
1000
0001
0100
0001
1000
,
0001
0010
0001
0010
0001
0010
0100
0000
,
1000
0001
0100
0010
,
1000
0000
1010
0010
1000
0001
0010
0100
,
2000
0000
0000
0100
3100
0000
0020
0000
,
0032
2003
3020
0230
,
0301
0000
1000
0100
0010
0100
1000
0001
,
0020
0000
0000
0001
0031
0000
2000
0000
,
3020
0230
0302
2003
,
3200
0000
0310
0001
1000
0001
0010
0100
,
2000
0000
0000
0100
3100
0000
2000
0000
,
3002
0203
0320
2030
,
3002
0000
0013
0001
1000
0001
0010
0001
,
2000
0000
0000
0000
0002
0000
0000
3000
1003
0000
0000
0000
1001
0000
0000
0000
,
1001
1000
0010
0100
,
0001
0000
0100
0000
0010
0000
1000
0001
,
0010
0100
1000
0100
,
0010
0001
1000
0020
,
0000
0000
0130
0001
2000
0000
0000
0000
,
0001
3001
1000
0001
,
2000
0001
0001
3002
,
0100
0100
0203
0010
,
0010
0320
2030
3002
,
0023
0100
0130
0110
,
1001
0000
0110
0000
1002
0000
1000
1003
,
0000
0000
0001
0000
0010
0000
0100
1000
,
0000
0100
0010
0001
2000
0000
0001
3001
,
0000
0000
0100
0000
0020
0000
0130
0020
,
0000
1030
0010
1000
0010
0100
0010
1000
,
0002
0000
0000
0000
0000
0000
0013
0000
0001
0000
0000
0001
0000
0000
0001
0000
,
1000
0000
0000
1000
0000
0000
1000
0000
0020
0000
0000
0000
0000
0000
0000
0000
,
0000
1030
0010
1000
0010
0000
0100
0001
,
0000
1000
0100
0010
0001
0010
0001
1000
,
0000
0001
0000
0200
0000
0310
1000
0002
,
0000
2003
0000
3001
2000
0000
0000
0000
,
0000
0000
3002
0000
,
0000
0000
0003
1000
,
1100
0001
0101
1001
,
1100
0110
0010
0011
,
1001
1010
0010
0110
,
0100
0101
0110
1010
,
2000
0000
0000
3002
,
0000
0000
1003
0100
,
0010
0001
0011
0011
,
0010
0100
1000
1100
,
1100
1000
0001
0100
,
0010
0110
1001
0220
,
0000
0000
0000
0330
2002
0000
0000
0000
,
0000
3003
1001
0000
1000
0000
1000
0000
,
0010
0100
0001
0101
,
0100
0100
0010
1000
,
0001
1001
0001
0001
,
0010
0100
1000
1100
,
1000
0010
0200
0010
,
0310
0110
0010
1000
,
0100
0010
0001
0011
,
0010
0100
1000
0002
,
1003
1001
1000
0010
,
1010
1010
1001
0012
,
0000
0000
0000
0000
,
0000
0000
0003
0010
0100
1000
0001
0000
,
0100
0010
1000
0010
,
0100
0000
0001
0100
0001
0000
1000
0000
,
1001
1001
1000
0100
,
0010
0001
0010
0100
,
1000
0100
1000
0000
0001
0000
1001
0000
,
1001
2002
0000
0000
,
3003
0000
0000
0000
;
