#TITLE:ごめんね、私。;
#SUBTITLE:Fairy Tail 3rd Ending;
#ARTIST:南波志帆;
#TITLETRANSLIT:Gomen ne, Watashi;
#SUBTITLETRANSLIT:Fairy Tail 3rd Ending;
#ARTISTTRANSLIT:Shiho Nanba;
#GENRE:Anime;
#CREDIT:Itsugo15;
#MENUCOLOR:;
#BANNER:Gomen ne Watashi-bn.jpg;
#BACKGROUND:Gomen ne Watashi-bg.jpg;
#LYRICSPATH:Gomen ne Watashi.lrc;
#CDTITLE:Itsugo15 SimifileS.png;
#MUSIC:Gomen ne Watashi.mp3;
#OFFSET:-0.382;
#SAMPLESTART:45.491;
#SAMPLELENGTH:30.000;
#SELECTABLE:YES;
#LISTSORT:;
#BPMS:0.000=161.900;
#STOPS:;
#TICKCOUNT:0.000=8;
#BGCHANGES:28.000=Gomen ne Watashi.avi=1.000=0=0=1,
261.000=Gomen ne Watashi-bg.jpg=1.000=1=1=0,
99999=-nosongbg-=1.000=0=0=0 // don't automatically add -songbackground-
;
#KEYSOUNDS:;
#ATTACKS:;

//---------------dance-single - Heavy Itsugo15----------------
#NOTES:
     dance-single:
     Heavy Itsugo15:
     Hard:
     8:
     0.373,0.497,0.277,0.286,0.042:
0000
0000
0000
0000
,
0000
0000
0000
0000
,
0000
0000
0000
0000
,
0000
0000
0000
0000
,
0000
0000
0000
0000
,
0000
0000
0000
0000
,
0000
0000
0000
0000
,
2001
0000
0000
0000
0000
0000
0000
0100
,
0000
0000
0000
0000
,
3002
0000
0000
0000
,
0000
0000
0100
1003
,
2002
0000
0000
0000
,
0000
0000
0000
3003
,
2002
0000
0000
0000
,
0000
3003
0001
1000
,
0001
0000
0001
1000
0000
0010
0000
2000
,
0000
0001
0000
3001
0000
0100
0010
1000
,
0001
0000
1000
0000
0001
0020
0000
0100
,
0000
0130
0100
0000
2000
3000
0002
0003
,
0100
0010
0000
0100
0000
0001
0000
1000
,
0000
0001
0000
0001
1000
0000
0001
1000
,
0100
0010
0000
0001
0000
1000
0000
0002
,
0000
0000
1003
0001
,
1001
0000
1100
0000
1000
0000
0100
0010
,
0000
0010
0100
1000
0100
0010
0001
0010
,
0001
1000
0010
0100
,
0110
0100
0101
0001
,
1000
0100
0010
0001
0000
0001
0010
0100
,
0000
1000
0100
0010
0000
0001
1000
0100
,
0020
0000
0000
0031
2000
0000
0000
0000
,
0002
3003
1001
0000
0001
1000
0000
1001
,
0000
0001
0100
0000
0010
0000
1000
0001
,
0000
0010
0100
0010
0000
0001
1000
0100
,
0010
0000
0110
0000
0010
0001
0010
0011
,
0000
1001
0000
1100
0000
0110
0000
1001
,
0000
0000
0000
M00M
0000
0000
0000
0000
2002
0000
0000
0000
0000
0000
0000
0000
0000
0000
0000
0000
3003
0000
0000
0000
0101
0000
0000
0000
0000
0000
0000
0000
,
0001
0100
0000
0101
0000
0100
0010
1000
,
0001
0000
1000
0100
0000
0010
0100
2000
,
0000
0000
0002
3003
0001
1000
0000
1001
,
0000
1000
0001
0000
0010
0000
0100
0010
,
0000
0001
1000
0100
0000
0010
0100
1000
,
0001
0000
1000
0000
0010
0100
0001
0101
,
0000
1001
0000
1010
0000
0110
0000
1001
,
0000
M00M
0000
0000
2002
0000
0000
0000
3003
0000
0000
0000
0001
0000
0000
0000
,
1000
0001
0000
0010
0000
0100
1000
0200
,
0000
0000
0000
0000
0300
0010
0000
0100
,
2000
0001
0001
3001
,
1001
0000
1000
0010
0000
0010
0100
0001
,
0000
0001
0100
1000
0100
0001
0000
2000
,
0000
0000
3001
0000
0001
0000
0001
0010
,
0100
1000
0001
1000
0001
0000
1000
0000
,
1001
0000
0001
0100
0000
0100
0010
1000
,
0000
1000
0010
0001
0010
1000
0000
0002
,
0000
0000
0000
0000
,
2000
0000
0000
3003
,
2002
0000
0000
0000
,
3003
0000
M000
0M00
00M0
000M
0000
0000
0001
0000
1000
0000
0000
0000
1001
0000
,
0000
1000
0001
0000
1000
0001
1000
0000
,
0010
0000
0100
0001
0000
0100
0000
0001
,
1000
0000
0001
0000
1000
0100
1000
0000
,
0100
0010
0100
1000
0000
0001
0000
0002
,
0000
0000
0000
0000
0000
0000
0000
0003
,
000M
000M
000M
000M
000M
000M
000M
0000
0000
0000
0000
0000
2002
0000
0000
0000
0000
0000
0000
0000
0000
0000
0000
0000
0000
0000
0000
0000
0000
0000
0000
0000
0000
0000
0000
0000
0000
0000
0000
0000
0000
0000
0000
0000
0000
0000
0000
0000
,
0000
0000
0000
3000
,
0000
2000
0000
0000
0000
0000
0000
0000
,
0000
0000
0000
0000
,
0000
0000
0000
0000
,
0000
0000
0000
0000
,
0000
0000
0000
0000
,
0000
0000
0000
0000
,
0000
0000
0000
0000
,
0000
0000
0000
0000
0000
0000
0000
0000
0000
0000
0000
0000
0000
3003
0000
0000
;

//---------------dance-single - Beginner Itsugo15----------------
#NOTES:
     dance-single:
     Beginner Itsugo15:
     Beginner:
     3:
     0.080,0.148,0.018,0.055,0.000:
0000
0000
0000
0000
,
0000
0000
0000
0000
,
0000
0000
0000
0000
,
0000
0000
0000
0000
,
0000
0000
0000
0000
,
0000
0000
0000
0000
,
0000
0000
0000
0000
,
0001
0000
0000
0000
,
0000
0000
0000
0000
,
0001
0000
0000
0000
,
0000
0000
0001
0000
,
1000
0000
0000
0000
,
0000
0000
0000
0000
,
1000
0000
0000
0000
,
0000
0000
0010
0000
,
0100
0000
0000
0000
,
0001
0000
0000
0000
,
1000
0000
0000
0000
,
0000
0000
0001
0000
,
0100
0000
0000
0000
,
0010
0000
0000
0000
,
1000
0000
0000
0000
,
0000
0000
0000
0000
,
0001
0000
0000
0000
,
0000
0000
0000
0000
,
1000
0000
0000
0000
,
0000
0000
0000
0000
,
0100
0000
0000
0000
,
0000
0000
0000
0000
,
0010
0000
0000
0000
,
0000
0001
0000
0000
,
0000
1000
0000
0000
,
0000
0100
0000
0000
,
0000
0010
0000
0000
,
0000
0001
0000
1000
,
0000
0001
0000
0000
,
0000
0100
0000
0000
,
0000
0010
0000
0000
,
0000
1000
0000
0001
,
0000
1000
0000
0000
,
0000
0100
0000
0000
,
0000
0010
0000
0000
,
0000
0001
0000
0010
,
0000
0100
0000
0000
,
0000
1000
0000
0000
,
0000
0001
0000
0000
,
0000
1000
0000
0010
,
0000
0100
0000
0100
,
0000
0100
0000
0002
,
0000
0000
0000
0000
,
0003
0000
0000
1000
,
0000
0100
0000
0100
,
0000
0100
0000
2000
,
0000
0000
0000
0000
,
3001
0000
0000
0000
,
2002
0000
0000
0000
,
3003
0000
0000
0000
,
0000
1000
0000
0000
,
0000
0000
0000
0000
,
0000
0010
0000
0000
,
0000
0000
0000
0000
,
0000
0100
0000
0000
,
0000
0220
0000
0000
,
0000
0000
0000
0000
,
0000
0330
0000
0000
0000
0000
0000
0000
;

//---------------dance-single - Medium Itsugo15----------------
#NOTES:
     dance-single:
     Medium Itsugo15:
     Medium:
     7:
     0.259,0.398,0.083,0.268,0.005:
0000
0000
0000
0000
,
0000
0000
0000
0000
,
0000
0000
0000
0000
,
0000
0000
0000
0000
,
0000
0000
0000
0000
,
0000
0000
0000
0000
,
0000
0000
0000
0000
,
1001
0000
0000
0000
0000
0000
0000
1000
,
0000
0000
0000
0000
,
0020
0000
0000
0000
,
0000
0000
0001
0100
,
2030
0000
0000
0000
,
0000
0000
0000
0000
,
3002
0000
0000
0000
,
0000
0000
0100
1000
,
0013
0010
0001
0001
,
1000
1000
0010
0100
,
0001
0100
0010
1000
,
0001
1000
0100
0010
,
0220
0000
0000
0000
0330
0010
0000
0001
,
0000
0000
0000
0000
,
0022
0000
0000
0000
0030
0000
0000
2000
,
0000
0003
3010
0100
,
0001
0101
0100
0110
,
0010
1000
0001
0100
,
0010
0010
1000
1000
,
0002
0000
2003
0000
,
3001
1000
0001
0100
0000
0001
0100
0010
,
0000
0100
0010
1000
0000
0010
1000
0001
,
0200
0000
0000
0001
0002
0000
0300
0000
,
1003
0000
1001
0000
1000
0001
0000
1000
,
0000
0100
0100
0010
,
0010
0001
1000
0100
,
0010
0000
0001
0000
0010
0000
2000
0010
,
0000
0010
0000
0010
0000
3020
0000
0002
,
0000
0030
00M0
0000
0000
0000
1000
0000
,
1003
0001
0000
0100
0000
0000
0010
0000
,
0010
1000
1000
0001
,
0001
0000
1001
0000
0001
1000
0000
0001
,
0000
0100
0100
0010
,
0010
1000
0001
0010
,
0100
0000
1000
0000
0100
0000
0002
0100
,
0000
0100
0000
0100
0000
0203
0000
2000
,
0000
0300
0M00
0000
0000
0000
0001
0000
,
3001
1000
0000
0001
0000
0010
0000
0020
,
0000
0031
0001
1000
,
2000
0000
3002
0000
,
0203
0000
0000
0000
0000
0310
0000
2000
,
0000
0000
0000
0000
0000
3001
0000
0200
,
0000
0000
0000
0000
0000
0300
0000
0000
,
0100
0001
1000
0100
,
0020
0000
0000
0000
0000
0031
0000
2000
,
0000
0000
0000
0000
0000
3100
0000
0020
,
0000
0000
0000
0000
,
0200
0000
0000
0000
0000
0000
0000
0330
,
0110
0000
0000
0000
,
0000
0000
0000
0000
0000
0000
0000
1001
,
0000
1000
1000
0001
,
0001
0100
0010
0001
,
0010
0010
0100
0100
,
1000
0100
0001
1000
,
0002
0000
0000
0000
,
0000
0000
0000
0000
,
0000
0000
0000
0000
,
0003
0000
0000
0000
,
0000
0000
0000
0000
,
0000
0000
0000
0000
,
0000
0000
0000
0000
,
0000
0000
0000
0000
,
0000
0000
0000
0000
,
0000
0000
0000
0000
,
0000
0000
0000
0000
0000
0000
0000
0000
0000
0000
0000
0000
0000
1000
0000
0000
;

//---------------dance-single - Light Itsugo15----------------
#NOTES:
     dance-single:
     Light Itsugo15:
     Easy:
     5:
     0.138,0.207,0.129,0.120,0.000:
0000
0000
0000
0000
,
0000
0000
0000
0000
,
0000
0000
0000
0000
,
0000
0000
0000
0000
,
0000
0000
0000
0000
,
0000
0000
0000
0000
,
0000
0000
0000
0000
,
2002
0000
0000
0000
0000
0000
0000
3003
,
0000
0000
0000
0000
,
1000
0000
0000
0000
,
0000
0000
0001
0000
,
1000
0000
0000
0000
,
0000
0000
0000
0000
,
0100
0000
0000
0000
,
0000
0000
0010
0000
,
0001
0000
0000
0000
,
0001
0000
0000
0000
,
0100
0000
0000
0000
,
0100
0000
0000
0000
,
0010
0000
0000
0000
,
1000
0000
0000
0000
,
0001
0000
0000
0000
,
1000
0000
0000
0000
,
0010
0000
0010
0000
,
0100
0000
0000
0000
,
0001
0000
0001
0000
,
1000
0000
0001
0000
,
0010
0000
0000
0000
,
0100
0000
0000
0000
,
1000
0000
0000
0000
,
0001
0000
1000
0000
,
1001
0000
1000
0000
,
0010
0000
0010
0000
,
0100
0000
0001
0000
,
1000
0000
0001
0000
,
2002
0000
3003
0000
,
1000
0000
1000
0000
,
0100
0000
0010
0000
,
0001
0000
1000
0000
,
1001
0000
0001
0000
,
0100
0000
0100
0000
,
0010
0000
1000
0000
,
0001
0000
1000
0000
,
2002
0000
3003
0000
,
0001
0000
0001
0000
,
0010
0000
0010
0000
,
0100
0000
1000
0000
,
1100
0000
0000
0000
,
0011
0000
0000
0000
,
2001
0000
0001
0000
,
0002
3000
1000
0003
,
1001
0000
0000
0000
,
0101
0000
0000
0000
,
1010
0000
0000
0000
,
1001
0000
0000
0000
,
2002
0000
0000
0000
,
3003
0000
1000
0000
,
0001
0000
0001
0000
,
1000
0000
1000
0000
,
0001
0000
1000
0000
,
0001
0000
0010
0000
,
0200
0000
0000
0300
,
0000
0220
0000
0000
,
0000
0000
0000
0000
,
0330
0000
0000
0000
;

//---------------dance-single - Challenge Itsugo15----------------
#NOTES:
     dance-single:
     Challenge Itsugo15:
     Challenge:
     11:
     0.636,0.729,0.582,0.332,0.120: // measure 1
0000
0000
0000
0000
,  // measure 2
0000
0000
0000
0000
,  // measure 3
0000
0000
0000
0000
,  // measure 4
0000
0000
0000
0000
,  // measure 5
0000
0000
0000
0000
,  // measure 6
0000
0000
0000
0000
,  // measure 7
0000
0000
0000
0000
,  // measure 8
2001
0001
0001
0001
0001
0001
3001
0201
,  // measure 9
0001
0001
0001
0001
0001
0001
0001
0301
,  // measure 10
2001
0001
0001
0001
0001
0001
0001
0001
,  // measure 11
0001
0001
0001
3001
0012
0013
0120
0130
,  // measure 12
1200
1000
1000
1000
1000
1000
1000
1000
,  // measure 13
1000
1000
1000
1000
1000
1000
1000
1300
,  // measure 14
1002
1000
1000
1000
1000
1000
1000
1000
,  // measure 15
1000
1000
1000
1003
2010
3010
0120
0130
,  // measure 16
0101
0100
0010
1000
0000
1010
0000
1001
,  // measure 17
0001
1000
0100
1100
0000
0101
0001
0000
,  // measure 18
1010
1000
0010
0100
0001
0100
0010
0100
,  // measure 19
1000
0100
0010
0100
0002
0103
0020
1030
,  // measure 20
1010
1000
0010
0100
0010
0110
0000
1010
,  // measure 21
1000
0010
0100
0001
0100
1000
0100
0001
,  // measure 22
0101
0001
1000
0100
0010
0001
0000
0011
,  // measure 23
0000
0000
1100
0000
1000
0000
0100
0000
0010
0000
0001
0000
1000
0001
1000
0001
,  // measure 24
1000
0100
1000
0001
1000
0010
1000
2020
,  // measure 25
3030
0010
0010
0100
0100
0001
0100
1000
,  // measure 26
0100
0001
0100
0010
1000
0001
0010
0100
,  // measure 27
2200
0000
0000
3300
0022
0000
0000
0033
,  // measure 28
0010
0100
1000
1100
0000
0001
0100
0101
,  // measure 29
0000
0010
1000
1010
0000
0001
0100
0010
,  // measure 30
0110
0000
0000
0000
1000
0000
0001
0000
0001
0100
0010
1000
0010
0100
0001
0000
,  // measure 31
1000
0000
1001
0000
0001
1000
0000
1001
,  // measure 32
0001
0000
1000
0000
0100
0000
0010
0000
0001
0010
0001
0000
0010
0000
0100
1000
,  // measure 33
0100
0000
1000
0000
0001
0100
0010
0000
1000
0000
0010
0100
0001
0000
1000
0000
,  // measure 34
1001
0000
0001
0000
0100
0000
0010
0000
1000
0010
0100
0010
1000
0000
1010
0000
,  // measure 35
0000
1100
0000
0101
0000
0011
0000
0110
,  // measure 36
0000
0000
0000
0000
2002
0000
0000
0000
0000
3003
0000
0000
0001
0000
1000
0000
,  // measure 37
0100
0010
0001
0010
0100
1000
1000
0001
,  // measure 38
1001
1000
0010
0100
0001
0100
0010
1000
,  // measure 39
1010
0000
1000
0000
0001
0000
0100
0000
0010
0100
0010
0000
0000
0000
1001
0000
,  // measure 40
1000
0000
0001
0000
0010
0000
0100
0000
1000
0100
1000
0000
0100
0000
0010
0001
,  // measure 41
0010
0000
0001
0000
1000
0100
0010
0000
0001
0000
0010
0100
1000
0000
0001
0000
,  // measure 42
1001
0000
1000
0000
0010
0000
0100
0000
0001
0100
0010
0100
0001
0000
0101
0000
,  // measure 43
0000
0011
0000
1010
0000
1100
0000
0110
,  // measure 44
0000
0000
0000
0000
2002
0000
0000
0000
0000
3003
0000
0000
1000
0000
0001
0000
,  // measure 45
0010
1000
0010
0001
0010
0100
1000
2200
,  // measure 46
0000
0000
0000
0000
3300
1000
0001
0100
,  // measure 47
0101
0000
0000
0000
0010
0000
1000
0000
1010
0000
0001
0000
1000
0001
1000
0000
,  // measure 48
2000
0000
0001
0010
3100
1100
0000
0101
,  // measure 49
0100
0010
1000
0010
0100
0101
0000
2200
,  // measure 50
0000
3300
1000
0100
0020
0000
0031
0010
,  // measure 51
1000
0010
0001
0010
0100
0010
0001
0000
,  // measure 52
0012
0000
0010
1000
0103
0101
0000
1010
,  // measure 53
1000
0010
0100
0001
0100
0101
0000
1100
,  // measure 54
1000
0100
0010
0001
0010
0100
1000
0000
,  // measure 55
0002
0000
0000
0000
,  // measure 56
2000
0000
0000
0000
,  // measure 57
3003
0000
0000
0000
0000
0000
0000
0000
0000
0000
0000
0000
0000
0000
0000
0000
0001
1000
0000
0000
0000
0000
0000
0000
0000
0000
0000
0000
0000
0000
0000
0000
1000
0000
0000
0000
0000
0000
0000
0000
0010
0000
0000
0000
0000
0000
0000
0000
0000
0000
0000
0000
0000
0000
0000
0000
0101
0000
0000
0000
0000
0000
0000
0000
,  // measure 58
0001
0000
0100
0000
0010
0000
1000
0010
0100
0000
0001
0000
0100
0000
0010
1000
,  // measure 59
0001
0000
0010
0000
0100
0000
1000
0100
0010
0000
0001
0010
0100
0000
1000
0100
,  // measure 60
0010
0001
0010
0100
1000
0001
0010
0100
,  // measure 61
1000
0100
1000
0100
0000
0110
0000
0022
,  // measure 62
0000
0000
0000
0000
,  // measure 63
0033
2002
0000
0000
,  // measure 64
0000
0000
0000
0000
,  // measure 65
3003
0000
0000
0000
0000
0000
0000
0000
0002
2000
0000
0000
0000
0000
0000
0000
0000
0000
0000
0000
0000
0000
0000
0000
0000
0000
0000
0000
0000
0000
0000
0000
0000
0000
0000
0000
0000
0000
0000
0000
0000
0000
0000
0000
0000
0000
0000
0000
0000
0000
0000
0000
0000
0000
0000
0000
0000
0000
0000
0000
0000
0000
0000
0000
,  // measure 66
0000
0000
0000
0000
,  // measure 67
0000
0000
0000
0000
,  // measure 68
0000
0000
0000
0000
,  // measure 69
0000
0000
0000
0000
,  // measure 70
0000
0000
0000
0000
,  // measure 71
0000
0000
0000
0000
,  // measure 72
0000
0000
0000
0000
0000
0000
0000
0000
0000
0000
0000
0000
0000
3003
0000
0000
;
