#TITLE:Girl's mind;
#SUBTITLE:Lyrical Crimson;
#ARTIST:Crouka;
#TITLETRANSLIT:Girl's mind;
#SUBTITLETRANSLIT:Lyrical Crimson;
#ARTISTTRANSLIT:Crouka;
#GENRE:Touhou;
#CREDIT:Itsugo15;
#MENUCOLOR:;
#BANNER:Girl's mind-bn.jpg;
#BACKGROUND:Girl's mind-bg.jpg;
#LYRICSPATH:Girl's mind.lrc;
#CDTITLE:Itsugo15 SimifileS.png;
#MUSIC:Girl's mind.ogg;
#OFFSET:0.575;
#SAMPLESTART:28.458;
#SAMPLELENGTH:30.000;
#SELECTABLE:YES;
#LISTSORT:;
#DISPLAYBPM:142.000;
#BPMS:0.000=142.000,132.000=71.000,140.000=142.000,332.000=71.000,348.000=35.500;
#STOPS:;
#TICKCOUNT:0.000=8;
#BGCHANGES:4.000=Girl's mind-bg1.jpg=1.000=1=1=0,
68.000=Girl's mind-bg2.jpg=1.000=1=1=0,
100.000=Girl's mind-bg3.jpg=1.000=1=1=0,
132.000=Girl's mind-bg.jpg=1.000=1=1=0,
140.000=Girl's mind-bg4.jpg=1.000=1=1=0,
172.000=Girl's mind-bg5.jpg=1.000=1=1=0,
204.000=Girl's mind-bg6.jpg=1.000=1=1=0,
236.000=Girl's mind-bg2.jpg=1.000=1=1=0,
268.000=Girl's mind-bg7.jpg=1.000=1=1=0,
300.000=Girl's mind-bg8.jpg=1.000=1=1=0,
332.000=Girl's mind-bg1.jpg=1.000=1=1=0,
349.000=Girl's mind-bg.jpg=1.000=1=1=0,
99999=-nosongbg-=1.000=0=0=0 // don't automatically add -songbackground-
;
#KEYSOUNDS:;
#ATTACKS:;

//---------------dance-single - Heavy Itsugo15----------------
#NOTES:
     dance-single:
     Heavy Itsugo15:
     Hard:
     9:
     0.517,0.562,0.350,0.558,0.098:
0000
0000
0000
0000
,
0001
0010
0100
1000
0001
1000
0000
0001
,
0000
1000
0010
0100
0001
1000
0000
0000
,
0001
1000
0010
0100
0001
0100
0000
0010
,
0000
0100
0010
1000
0001
0010
0100
0010
,
0110
0010
0100
1000
0001
1000
0000
0001
,
0000
0010
0100
1000
0100
0010
0000
0000
,
0001
1000
0100
0010
0001
1000
0000
0010
,
0000
0100
0001
0100
0010
0100
0001
1000
,
1001
0000
0101
0000
1010
0000
1000
0010
,
0100
0001
0100
0010
1000
0001
1000
0000
,
1001
0000
1100
0000
0011
0000
0001
0010
,
0100
1000
0100
0010
0001
0010
0100
1000
,
1100
0000
1001
0000
1010
0000
1000
0010
,
1000
0001
1000
0100
0010
0001
0010
0000
,
0011
0000
1001
0000
0101
0000
0001
0100
,
0001
0000
0000
0001
0000
0000
0001
0000
1000
0000
0000
0000
0010
0000
0100
0000
,
0220
0000
0330
0020
2000
0000
3030
0002
,
0200
0000
0303
2000
0200
0000
3300
0020
,
0002
0030
0010
0000
0010
0000
0013
0000
,
0001
1000
0010
0100
0001
1000
0100
0010
,
0220
0000
0330
0020
0002
0000
0033
2000
,
0200
0000
3300
1000
0000
1000
0010
0000
,
0202
0000
0000
0000
0000
0303
0001
0000
,
0101
0000
0000
1001
0000
0000
1100
0000
0000
1000
0000
0000
0100
0000
0010
0000
,
0220
0000
0330
0020
0002
0000
0033
2000
,
0200
0000
3300
0002
0200
0000
0303
0020
,
2000
0030
0010
0000
0010
0000
3010
0000
,
1000
0001
0010
0100
1000
0001
0100
0010
,
0220
0000
0330
0200
0002
0000
0303
2000
,
0200
0000
3300
1000
0000
1000
0010
0000
,
1000
0010
1000
0000
0010
1000
0010
0000
,
1010
0000
0000
1001
0000
0000
0011
0000
0000
0001
0000
0000
0010
0000
0100
0000
,
0110
0000
0000
0010
0010
0000
0000
0100
0100
0000
0000
1000
0100
0010
0100
1000
,
0001
0000
0000
1000
1000
0000
0000
0001
0001
0000
0000
0100
0010
0100
0001
1000
,
1001
0000
0000
0000
1001
0000
0000
0000
0001
0000
0000
1000
0000
0000
0010
0000
,
0000
0000
1000
0000
0010
0000
1000
0000
0001
0000
0000
0001
0000
0000
0001
0000
,
0000
0100
0001
0000
1000
0000
0010
0100
,
0000
0010
1000
0001
0010
0100
1000
0100
,
1100
0000
0000
0000
1100
0000
0000
0000
1000
0000
0000
0100
0000
0000
0010
0000
,
0000
0000
0001
0000
0001
0000
0000
0000
1000
0000
0000
0010
0000
0000
0100
0000
,
0000
0000
0001
0000
0001
0000
0000
0000
0100
0000
0000
0010
0000
0000
1000
0000
,
0000
0010
0100
0001
1000
0100
0010
0001
,
0011
0000
0000
0000
0011
0000
0000
0000
1001
0000
0000
0001
0000
0000
0101
0000
,
0000
0000
0001
0000
0100
0000
0010
0000
0010
0000
0000
0010
0000
0000
0010
0000
,
0000
0000
1000
0000
1000
0000
0000
0000
0001
0000
0000
0100
0000
0000
0101
0000
,
0000
0001
0100
0010
1000
0010
0100
0001
,
0101
0000
0000
0000
0101
0000
0000
0000
1001
0000
0000
1000
0000
0000
1100
0000
,
0000
0000
0100
0000
0100
0000
0100
0000
0010
0000
0000
0010
0000
0000
0010
0000
,
0000
0000
0001
0000
0001
0000
0000
0000
1000
0000
0000
0100
0000
0000
1100
0000
,
0010
0001
1000
0100
0010
0001
1000
0100
,
2100
0000
3002
0000
0203
0000
0320
1000
,
0030
0001
0000
0010
0000
0200
0000
0300
,
0220
0000
0000
0000
0000
0300
0100
0000
,
0100
0000
0100
0000
0130
0000
0001
0010
,
0012
0000
2003
0000
3020
0000
0230
0001
,
0300
1000
0000
0100
0000
0020
0000
0030
,
0220
0000
0000
0000
0000
0030
0010
0000
,
1000
0010
1000
0310
,
0110
0010
0100
0010
0000
0001
0010
0001
,
0000
0000
1000
0000
0001
0000
1000
0000
0010
0000
0000
0010
0000
0000
0010
0000
,
0200
0001
0001
0302
,
0203
0000
0320
0000
2030
0000
0002
3003
,
1001
0001
1000
0001
0000
1000
0010
1000
,
0000
0000
0010
0000
0100
0000
0010
0000
1000
0000
0000
1000
0000
0000
1000
0000
,
0010
1000
0010
0000
1000
0010
1000
0000
,
1010
0000
0000
0000
1001
0000
0000
0000
0011
0000
0000
0001
0000
0000
0010
0000
,
0022
0000
0033
0200
2000
0000
3300
0002
,
0200
0000
0303
0020
2000
0000
0000
3000
,
0200
0000
0000
0000
,
0330
0010
1000
0001
0001
0010
0100
1000
,
2200
0000
3300
0020
0002
0000
0033
2000
,
0020
0000
3030
0010
0000
0100
0001
0000
,
0202
0000
0303
0001
,
1000
0000
0000
0001
0000
0000
0001
0000
0000
0010
0000
0000
0100
0000
1000
0000
,
2200
0000
3300
0020
0002
0000
0033
2000
,
0020
0000
3030
0200
0002
0000
0000
0003
,
0020
0000
0000
0000
,
0330
0100
0001
1000
1000
0100
0010
0001
,
0022
0000
0033
0200
2000
0000
3300
0002
,
0200
0000
0303
0100
0000
0010
1000
0000
,
0010
1000
0010
0000
1000
0010
1000
0000
,
1010
0000
0000
0000
1001
0000
0000
0000
0101
0000
0000
0100
0000
0000
0010
0000
,
0110
0010
0000
0010
0000
0020
0000
0000
,
0030
1000
0000
1000
0000
2000
0000
0000
,
3000
0001
0000
0001
0000
0002
0000
0000
,
0003
0100
0000
0100
0000
0200
0000
0000
,
0020
0000
0000
0000
0000
0000
0000
0000
0000
0000
0000
0000
0000
0000
0000
0000
0000
0000
0000
0000
0000
0000
0000
0000
0000
0000
0000
0000
0000
0000
0000
0000
0000
0000
0000
0000
0000
0000
0000
0000
0000
0000
0000
0000
0000
0000
0300
0000
0130
0000
0000
0000
0000
0000
0000
0000
0000
0000
0000
0000
0000
0000
0000
0000
0000
0000
0000
0000
0000
0000
0000
0000
0000
0000
0000
0000
0000
0000
0000
0000
0000
0000
0000
0000
0000
0000
0000
0000
0000
0000
0000
0000
0000
0000
0000
0000
0000
0000
0000
0000
0000
0000
0000
0000
0000
0000
0000
0000
0000
0000
0000
0000
0000
0000
0000
0000
0000
0000
0000
0000
0000
0000
0000
0000
0000
0000
0000
0000
0000
0000
0000
0000
0000
0000
0000
0000
0000
0000
0000
0000
0000
0000
0000
0000
0000
0000
0000
0000
0000
0000
0000
0000
0000
0000
0000
0000
0000
0000
0000
0000
0000
0000
0000
0000
0000
0000
0000
0000
0000
0000
0000
0000
0000
0000
0000
0000
0000
0000
0000
0000
0000
0000
0000
0000
0000
0000
0000
0000
0000
0000
0000
0000
;

//---------------dance-single - Challenge Itsugo15----------------
#NOTES:
     dance-single:
     Challenge Itsugo15:
     Challenge:
     11:
     0.738,0.937,0.558,0.356,0.371: // measure 1
0000
0000
0000
0000
,  // measure 2
1001
0000
0000
0000
0011
0000
0000
0010
0000
0000
0100
0000
1100
0000
0000
0000
,  // measure 3
1000
0000
0000
0000
1010
0000
0000
0010
0000
0000
0100
0000
0101
0000
0000
0000
,  // measure 4
1000
0000
0000
0000
1100
0000
0000
0100
0000
0000
0010
0000
0011
0000
0000
0000
,  // measure 5
0001
0000
0000
0000
0101
0000
0000
0100
0000
0000
0010
0000
1000
0000
0001
0000
,  // measure 6
1001
0000
0000
0000
0011
0000
0000
0001
0010
0001
1000
0000
1001
0000
0000
0000
,  // measure 7
1000
0000
0000
0000
1010
0000
0000
1000
0010
1000
0001
0000
1001
0000
0000
0000
,  // measure 8
0100
0000
0000
0000
0101
0000
0000
0001
0100
0001
1000
0000
1001
0000
0000
0000
,  // measure 9
1000
0000
0000
0000
1100
0000
0000
1000
0100
1000
0001
0000
1000
0000
0001
0000
,  // measure 10
1001
1000
0001
0100
0010
1000
0001
0010
,  // measure 11
0001
0010
0001
0010
0100
0010
0100
0010
,  // measure 12
0100
1000
0001
0010
0100
1000
0001
0100
,  // measure 13
0010
1000
0010
0001
0010
1000
1010
1010
,  // measure 14
1001
0001
1000
0010
0100
0001
1000
0100
,  // measure 15
1000
0100
1000
0100
0010
0100
0010
0100
,  // measure 16
0010
0001
1000
0100
0010
0001
1000
0100
,  // measure 17
1100
0000
0000
1100
0000
0000
1100
0000
1001
0000
0000
0000
0100
0010
1000
0001
,  // measure 18
2002
3003
0001
0100
0020
0000
1030
0010
,  // measure 19
0200
0000
0301
1000
0200
0000
0010
0300
,  // measure 20
0220
0000
0000
0300
0100
0000
0000
0000
0100
0000
0000
0000
0100
0000
0000
0000
,  // measure 21
0M30
00M0
0001
0000
1000
0000
0100
0000
0010
0000
0001
0000
1000
0000
0100
0000
,  // measure 22
1100
0000
1000
0001
0200
0000
0310
1000
,  // measure 23
0002
0000
1003
0100
0000
1000
0001
0000
,  // measure 24
1001
0001
1000
0010
0001
0010
1000
0001
,  // measure 25
1001
0000
0000
1100
0000
0000
0011
0000
0000
0101
0000
0000
1010
0000
0101
0000
,  // measure 26
2002
3003
1000
0010
0200
0000
0301
0100
,  // measure 27
0020
0000
1030
0001
0020
0000
0100
0030
,  // measure 28
0220
0000
0000
0030
0010
0000
0000
0000
0010
0000
0000
0000
0010
0000
0000
0000
,  // measure 29
03M0
0M00
1000
0000
0001
0000
0010
0000
0100
0000
1000
0000
0001
0000
0010
0000
,  // measure 30
0011
0000
0001
1000
0020
0000
0130
0001
,  // measure 31
2000
0000
3001
0010
0000
0001
1000
0000
,  // measure 32
0001
1000
0001
1000
0001
0000
0100
0001
0100
0001
0100
0001
0100
0000
0001
0100
,  // measure 33
0001
0100
0010
1000
0010
1000
0001
1000
0001
0010
0100
1000
0100
0010
0001
1000
,  // measure 34
0100
0000
0000
0000
1100
0000
1000
0100
1000
0000
0001
0000
1001
0000
0000
0000
0100
0000
0000
0000
0101
0000
0001
0100
0001
0000
1000
0000
1001
0000
0000
0000
,  // measure 35
0010
0000
0000
0000
0011
0000
0001
0010
0001
0000
1000
0000
1001
0000
0000
0000
0010
0000
0000
0000
1010
0000
1000
0010
1000
0000
0001
0000
1001
0000
0000
0000
,  // measure 36
1001
0001
0010
0100
1000
0100
0001
0100
,  // measure 37
1000
0100
0010
0001
1000
0100
0010
0001
,  // measure 38
0010
1000
0010
0001
1000
0100
0010
0220
,  // measure 39
0330
0010
0010
0100
0100
1000
0001
1000
,  // measure 40
1001
1000
0010
0100
0001
0100
1000
0100
,  // measure 41
0001
0100
0010
1000
0001
0100
0010
1000
,  // measure 42
0010
0001
0010
1000
0001
0100
0010
0220
,  // measure 43
0330
0100
0100
0010
0010
1000
0001
1000
,  // measure 44
1001
0000
1000
0000
1100
0000
1000
0000
1001
0000
0001
0100
0010
0000
0110
0000
,  // measure 45
0010
0100
0010
0000
0110
0000
0010
1000
0001
0000
1000
0010
0100
0000
0110
0000
,  // measure 46
0100
0000
0001
0000
1000
0000
0001
0010
0001
0000
0010
0000
0100
1000
0100
0000
,  // measure 47
1000
0100
0010
0001
0010
0100
1000
0001
,  // measure 48
1001
0000
0001
0000
0101
0000
0001
0000
1001
0000
1000
0010
0100
0000
0110
0000
,  // measure 49
0100
0010
0100
0000
0110
0000
0100
0001
1000
0000
0001
0100
0010
0000
0110
0000
,  // measure 50
0010
0000
1000
0000
0001
0000
1000
0100
1000
0000
0100
0000
0010
0001
0010
0000
,  // measure 51
0001
0010
0100
1000
0001
0000
0010
0000
0100
1000
0001
0010
0100
0000
1000
0000
,  // measure 52
0200
0310
0200
0301
0200
0310
0200
1300
,  // measure 53
0002
0103
0020
1030
0002
0103
0001
1000
,  // measure 54
2001
0000
0001
0000
3001
0000
0001
0100
,  // measure 55
0010
1000
0100
0001
0100
1000
0001
0100
,  // measure 56
0020
1030
0020
0130
0020
0031
0020
0130
,  // measure 57
0020
1030
0002
0103
0020
1030
0001
1000
,  // measure 58
2001
0000
0100
0000
3001
0000
1000
0010
,  // measure 59
0100
0000
0001
0100
0010
0000
1000
0000
0010
0100
0001
0000
0101
0000
1001
0000
,  // measure 60
1000
0100
0010
0110
0010
0001
0010
0110
,  // measure 61
0100
0000
1000
0000
0100
0000
0110
0000
0011
0000
0000
1100
0000
0000
1001
0000
,  // measure 62
1001
0001
0100
0010
1000
0001
0100
1000
,  // measure 63
0100
0001
1000
0001
0010
0100
0020
0031
,  // measure 64
0011
0010
0100
0110
0100
1000
0100
0110
,  // measure 65
0010
0000
0001
0000
0010
0000
0110
0000
1100
0000
0000
0011
0000
0000
1001
0000
,  // measure 66
1000
0001
1000
0001
1000
0000
0001
0100
0010
1000
0001
0010
0100
0000
1000
0100
,  // measure 67
1000
0000
0001
0100
0001
0000
1000
0010
1000
0000
0010
0000
0100
0001
0010
0100
,  // measure 68
2000
3000
0001
0100
0020
0000
1030
0010
,  // measure 69
0200
0000
0301
1000
0200
0000
0010
0300
,  // measure 70
0220
0000
0000
0300
0001
0000
0000
0000
1000
0000
0000
0000
0100
0000
0000
0000
,  // measure 71
0M30
00M0
0001
0000
1000
0000
0100
0000
0010
0000
0001
0000
1000
0000
0100
0000
,  // measure 72
1100
0000
1000
0001
0200
0000
0310
1000
,  // measure 73
0002
0000
1003
0100
0000
1000
0001
0000
,  // measure 74
1001
0001
1000
0010
0001
0010
1000
0001
,  // measure 75
1001
0000
0000
1100
0000
0000
0011
0000
0000
0101
0000
0000
1010
0000
0101
0000
,  // measure 76
2002
3003
0001
0100
0020
0000
1030
0010
,  // measure 77
0200
0000
0301
1000
0200
0000
0010
0300
,  // measure 78
0220
0000
0000
0300
0001
0000
0000
0000
1000
0000
0000
0000
0100
0000
0000
0000
,  // measure 79
0M30
00M0
0001
0000
1000
0000
0100
0000
0010
0000
0001
0000
1000
0000
0100
0000
,  // measure 80
1100
0000
1000
0001
0200
0000
0310
1000
,  // measure 81
0002
0000
1003
0100
0000
1000
0001
0000
,  // measure 82
1000
0001
1000
0001
1000
0000
0010
1000
0010
1000
0010
1000
0010
0000
1000
0010
,  // measure 83
1000
0000
0001
0100
0001
0000
1000
0001
1000
0000
0001
0000
0010
0100
1000
0001
,  // measure 84
0010
0100
1000
0001
0010
0100
0010
0001
0000
1000
0100
0010
0100
1000
0001
0010
,  // measure 85
0100
1000
0001
0100
0010
1000
0010
0100
0000
0001
0100
0010
0100
0001
1000
0010
,  // measure 86
0100
0001
1000
0010
0100
0001
1000
0100
0000
0010
0100
1000
0100
0010
0001
1000
,  // measure 87
0100
0010
0001
0010
0100
1000
0001
0010
0000
0100
1000
0001
0100
0010
2000
0002
,  // measure 88
0000
3103
0000
0000
;

//---------------dance-single - Beginner Itsugo15----------------
#NOTES:
     dance-single:
     Beginner Itsugo15:
     Beginner:
     3:
     0.080,0.134,0.012,0.067,0.000:
0000
0000
0000
0000
,
1001
0000
0000
0000
,
0000
0000
0000
0000
,
0001
0000
0000
0000
,
0000
0000
0000
0000
,
1001
0000
0000
0000
,
0000
0000
0000
0000
,
1000
0000
0000
0000
,
0000
0000
0000
0000
,
0010
0000
0000
0000
,
0100
0000
0000
0000
,
0001
0000
0000
0000
,
1000
0000
0000
0000
,
0100
0000
0000
0000
,
0010
0000
0000
0000
,
0001
0000
0000
0000
,
0010
0000
0010
0000
,
0200
0000
0300
0000
,
0000
0000
0000
0000
,
2000
0000
3000
0000
,
0000
0000
0000
0000
,
0002
0000
0003
0000
,
0000
0000
0000
0000
,
0200
0000
0300
0000
,
0010
0000
0010
0000
,
2000
0000
3000
0000
,
0000
0000
0000
0000
,
0002
0000
0003
0000
,
0000
0000
0000
0000
,
0020
0000
0030
0000
,
0000
0000
0000
0000
,
0100
0000
0100
0000
,
1000
0000
0000
0000
,
0002
0000
0003
0000
,
0002
0000
0003
0000
,
1000
0000
0000
0000
,
0000
0000
0000
0000
,
0010
0000
0000
0000
,
0000
0000
0000
0000
,
0100
0000
0000
0000
,
0000
0000
0000
0000
,
0001
0000
0000
0000
,
0000
0000
0000
0000
,
1000
0000
0000
0000
,
0001
0000
0000
0000
,
0010
0000
0000
0000
,
0100
0000
0000
0000
,
1000
0000
0000
0000
,
0100
0000
0000
0000
,
0010
0000
0000
0000
,
0001
0000
0001
0000
,
1000
0000
0000
0000
,
0001
0000
0000
0000
,
1000
0000
0000
0000
,
0010
0000
1000
0000
,
0001
0000
0000
0000
,
1000
0000
0000
0000
,
0001
0000
0000
0000
,
0010
0000
0001
0000
,
1000
0000
0001
0000
,
1000
0000
0001
0000
,
0002
0000
0003
0000
,
1000
0000
0000
0000
,
0001
0000
1000
0000
,
0001
0000
1000
0000
,
2000
0000
3000
0000
,
0001
0000
0001
0000
,
0010
0000
0000
0000
,
0000
0000
0000
0000
,
0100
0000
0000
0000
,
0000
0000
0000
0000
,
1000
0000
0000
0000
,
0000
0000
0000
0000
,
0001
0000
0000
0000
,
0000
0000
0000
0000
,
0100
0000
0000
0000
,
0010
0000
0000
0000
,
1000
0000
0000
0000
,
0001
0000
0000
0000
,
1000
0000
0000
0000
,
0100
0000
0000
0000
,
0010
0000
0000
0000
,
0001
0000
0000
0000
,
1000
0000
0000
0000
,
0000
0000
0000
0000
,
1000
0000
0000
0000
,
0000
0000
0000
0000
,
0000
0001
0000
0000
;

//---------------dance-single - Light Itsugo15----------------
#NOTES:
     dance-single:
     Light Itsugo15:
     Easy:
     4:
     0.120,0.187,0.055,0.067,0.000:
0000
0000
0000
0000
,
1000
0000
0000
0000
,
0001
0000
0000
0000
,
0100
0000
0000
0000
,
0010
0000
0000
0000
,
1000
0000
0000
0000
,
0100
0000
0000
0000
,
0010
0000
0000
0000
,
0100
0000
0000
0000
,
1000
0000
0001
0000
,
1000
0000
0000
0000
,
0010
0000
0100
0000
,
0010
0000
0000
0000
,
0100
0000
0001
0000
,
0100
0000
0000
0000
,
0010
0000
1000
0000
,
0010
0000
0010
0000
,
1000
0000
0000
0000
,
0001
0000
0000
0000
,
0020
0000
0000
0030
,
0100
0000
0000
0000
,
1000
0000
0000
0000
,
0001
0000
0000
0000
,
0200
0000
0000
0300
,
0010
0000
1000
0000
,
0001
0000
0000
0000
,
1000
0000
0000
0000
,
0200
0000
0000
0300
,
0010
0000
0000
0000
,
0001
0000
0000
0000
,
1000
0000
0000
0000
,
0020
0000
0000
0030
,
0100
0000
0001
0000
,
2000
3000
0000
0000
,
0002
0003
0000
0000
,
1000
0000
0000
0000
,
0001
0000
0000
0000
,
0010
0000
0000
0000
,
0100
0000
0000
0000
,
0010
0000
0000
0000
,
0001
0000
0000
0000
,
1000
0000
0000
0000
,
0001
0000
0000
0000
,
0100
0000
0010
0000
,
1000
0000
0000
0000
,
1000
0000
0001
0000
,
0010
0000
0000
0000
,
0100
0000
1000
0000
,
0001
0000
0000
0000
,
0001
0000
0100
0000
,
0010
0000
1000
0000
,
1010
0000
1000
0000
,
0001
0000
0001
0000
,
0010
0000
0010
0000
,
0001
0000
0010
0000
,
0011
0000
0001
0000
,
1000
0000
1000
0000
,
0010
0000
0010
0000
,
1000
0000
0001
0000
,
1001
0000
0001
0000
,
1001
0000
1000
0000
,
1001
0000
0010
0000
,
0100
0000
1000
0000
,
1100
0000
0100
0000
,
0110
0000
0010
0000
,
0011
0000
0001
0000
,
1000
0000
0001
0000
,
1001
0000
0000
0000
,
1000
0000
0000
0000
,
0200
0000
0000
0300
,
0010
0000
0000
0000
,
0001
0000
0000
0000
,
1000
0000
0000
0000
,
0020
0000
0000
0030
,
0100
0000
0001
0000
,
1000
0000
0000
0000
,
0001
0000
0000
0000
,
0020
0000
0000
0030
,
0100
0000
0000
0000
,
1000
0000
0000
0000
,
0001
0000
0000
0000
,
0200
0000
0000
0300
,
0010
0000
1000
0000
,
0002
0000
0000
0003
,
0001
0000
0000
0000
,
1000
0000
0000
0000
,
1000
0000
0000
0000
,
0000
0010
0000
0000
;

//---------------dance-single - Medium Itsugo15----------------
#NOTES:
     dance-single:
     Medium Itsugo15:
     Medium:
     7:
     0.365,0.402,0.282,0.190,0.000:
0000
0000
0000
0000
,
1000
0010
0100
0101
,
0001
1001
1000
1100
,
0001
0010
0100
1100
,
1000
1001
0001
0101
,
1001
0000
0001
0000
1000
0010
1000
0000
,
0001
0000
0010
0000
0001
0010
0001
0000
,
0010
0000
0100
0000
1000
0001
0100
0000
,
0010
0000
1000
0000
0001
0010
0100
0000
,
0110
0010
0010
0001
,
1000
0100
0010
0001
,
1000
1000
1000
0001
,
0100
0010
1000
0001
,
0100
0100
0100
0001
,
1000
0100
0010
0100
,
1000
1000
1000
0001
,
2002
3003
2002
3003
,
1001
0001
1000
1000
,
0010
0010
0100
0001
,
0202
0003
0001
0000
0301
0000
0001
0000
,
0100
0010
1000
0001
,
1001
1000
0001
0001
,
0010
0010
0100
1000
,
2200
0000
3300
1000
,
0100
0010
0001
1000
,
1001
1000
0001
0001
,
0100
0100
0010
1000
,
2020
3000
1000
0000
1030
0000
1000
0000
,
0010
0100
0001
1000
,
1001
0001
1000
1000
,
0100
0100
0010
0001
,
0021
0001
0031
0001
,
0010
0100
1000
0001
,
1001
0000
1000
0000
1000
0000
0001
0100
,
0010
0000
0010
0000
0010
0000
1000
0001
,
1001
1001
0001
0001
,
1000
1000
0001
0100
,
0010
0010
1000
1000
,
0001
0010
0100
1000
,
1100
1100
0100
0100
,
1000
1000
0001
0100
,
0010
0010
1000
1000
,
0100
0010
0001
1000
,
1001
1001
1000
1000
,
0001
0001
1000
0010
,
0100
0100
0001
0001
,
1000
0100
0010
0001
,
0011
0011
0010
0010
,
0001
0001
1000
0010
,
0100
0001
0100
0010
,
1000
0010
0100
0001
,
0101
0000
0100
0000
0110
0000
0010
0100
,
0010
1000
0001
0010
,
0011
0001
1001
1000
,
1010
0000
0010
0100
0001
0000
1000
0100
,
1100
0000
1000
0000
1001
0000
0001
1000
,
0001
1000
0010
0100
,
0110
0000
0100
0000
0101
0000
0001
0100
,
0001
0000
1000
0001
1000
0000
0100
1000
,
0200
0310
0002
1003
,
0020
0130
0010
0100
,
0220
0000
0330
0010
,
0010
0100
0100
0001
,
0200
0310
2000
3001
,
0020
0130
0100
0010
,
0200
1300
0002
0103
,
0010
1000
0001
1000
,
1001
1000
0001
0001
,
0100
0100
0010
1000
,
2020
3000
1000
0000
1030
0000
1000
0000
,
0010
0100
0001
1000
,
1001
0001
1000
1000
,
0100
0100
0010
0001
,
0022
0000
0033
0001
,
0010
0100
1000
0001
,
1001
0001
1000
1000
,
0010
0010
0100
0001
,
0202
0003
0001
0000
0301
0000
0001
0000
,
0100
0010
1000
0001
,
1001
1000
0001
0001
,
0010
0010
0100
1000
,
1200
1000
1300
1000
,
0100
0010
0001
1000
,
2002
0000
3003
0000
,
0001
0000
0000
0000
,
1000
0000
0000
0000
,
0010
0000
0000
0000
,
0200
0310
0000
0000
;
