#TITLE:GRAVITY ERROR;
#SUBTITLE:トリガーハート エグゼリカ エンハンスド;
#ARTIST:彩音;
#TITLETRANSLIT:Gravity Error;
#SUBTITLETRANSLIT:TriggerHeart Exelica Enhanced;
#ARTISTTRANSLIT:Ayane;
#GENRE:Otaku's Dream 2nd Mix (Pad);
#CREDIT:7121DSP & Itsugo15;
#MENUCOLOR:;
#BANNER:Gravity Error.jpg;
#BACKGROUND:Gravity Error-bg.png;
#LYRICSPATH:Gravity Error.lrc;
#CDTITLE:Collab.png;
#MUSIC:Gravity Error.ogg;
#OFFSET:0.570;
#SAMPLESTART:20.460;
#SAMPLELENGTH:30.000;
#SELECTABLE:YES;
#LISTSORT:;
#BPMS:0.000=148.210;
#STOPS:330.000=2.000
;
#TICKCOUNT:0.000=6;
#BGCHANGES:0.440=Gravity Error.avi=1.000=1=1=0,
330.125=Gravity Error.avi=0.000=0=1=0,
99999=-nosongbg-=1.000=0=0=0 // don't automatically add -songbackground-
;
#KEYSOUNDS:;
#ATTACKS:;

//---------------dance-single - T121----------------
#NOTES:
     dance-single:
     T121:
     Hard:
     8:
     0.471,0.581,0.119,0.133,0.174:
0000
0000
0000
0000
,
0000
0000
0000
0000
,
0000
0000
0000
0000
,
0000
0000
0000
0000
,
0000
0000
1001
0000
,
1010
0000
0100
0000
0001
0010
0000
0100
,
0010
0000
0000
0000
0000
0000
0100
0000
0000
1000
0000
0000
0001
0000
0010
0000
0001
0000
0010
0000
0000
0000
0000
0000
,
0110
0000
1000
0000
0100
0010
0000
0010
,
0002
0000
0000
0000
0000
0000
0003
0000
0000
1000
0000
0000
0001
0000
0100
0000
0001
0000
0100
0000
0000
0000
0000
0000
,
0010
1000
0100
0010
0000
0001
1000
0000
,
0100
0010
0001
0100
0000
0010
0000
1000
,
0002
0000
0000
0003
,
0101
0000
0000
1000
0000
0000
1100
0000
1000
0100
1000
0100
1000
0000
0000
0000
,
0001
0000
1000
0100
1000
0000
0001
0000
,
1000
0000
0000
0001
0000
0000
0100
0000
0010
0000
0000
0000
1000
0000
0001
0000
,
0010
0000
0000
0100
0000
0000
1000
0000
0001
0000
0000
0000
1000
0000
0000
0000
,
0010
0000
0000
0100
0000
0000
0010
1000
0100
1000
0100
0010
,
0001
0000
0100
0010
0100
0000
0001
0000
,
1000
0000
0000
0100
0000
0000
0010
0000
0001
0000
0000
0000
0100
0000
0001
0000
,
1000
0000
0010
0100
0010
0000
0100
0000
,
0001
0000
0000
0000
1000
0000
0000
0000
0100
0000
1000
0000
0001
0010
0001
0010
,
0001
0000
0000
1001
0000
0000
0101
0000
,
0010
0000
1000
0000
0001
0010
0001
0100
,
0001
1000
0001
0100
0001
0000
0000
0100
,
0010
0000
1000
0000
0001
0010
0100
0010
,
0100
0000
0010
0000
0100
0000
1000
0000
0001
0000
0000
0100
0000
0000
0010
0000
,
1000
0000
0010
0000
0100
0001
0010
1000
,
0010
0001
0100
1000
0100
0000
0000
0010
,
1000
0000
0001
0000
0010
0100
0000
1000
,
0001
0000
0010
0000
0100
0000
0000
0000
1001
0000
0000
0001
0000
0000
0101
0000
,
0100
0000
0010
1000
0000
0010
0100
0001
,
2000
0000
0000
0000
0000
0000
0000
0000
3001
0000
0000
0100
0000
0000
1000
0000
,
0100
0000
0010
0000
0000
0000
1000
0000
0000
0000
0100
0000
0000
0010
0000
0000
,
0010
0000
0001
0010
1000
0000
0010
0100
,
0010
0001
0100
1000
0000
0100
0001
0010
,
0000
0100
1000
0001
,
0100
0000
0000
0001
0000
0000
0100
0000
0010
0000
0100
0000
0001
0000
2000
0000
,
0000
0000
0000
0000
0000
3000
0002
0000
0000
0000
0000
0000
0000
0000
0000
0003
,
0010
0000
0010
0100
0000
1000
0001
1000
,
0020
0000
0000
0000
0030
0000
0000
0000
0100
0000
0000
0001
0000
0000
1000
0000
,
0001
0000
0001
0010
0000
0200
0000
1300
,
0002
0000
0000
0000
0000
0003
0100
0000
0020
0000
0000
0000
0000
0000
0030
0000
,
0100
0001
0010
0001
0000
0100
0000
0010
,
1000
0100
0010
0001
0000
0001
0010
0000
,
0100
0000
0000
0010
0001
0100
0000
0000
,
0101
0000
0000
0100
0000
0000
0110
0000
1000
0000
0001
0000
1000
0000
0001
0000
,
1000
0100
1000
0010
0000
0100
0000
0020
,
0000
0130
0001
1000
0100
0010
0000
0001
,
1000
0000
0010
0000
0100
0001
0000
1000
,
0001
0000
1000
0000
0000
0000
0010
0000
1000
0100
1000
0100
1000
0010
1000
0010
,
1000
0001
0010
0100
0000
1000
0000
1000
,
0100
0010
0100
1000
0100
0010
0000
0001
,
0010
0000
0000
0100
0000
0000
1000
0000
0010
0000
0000
0100
0000
0000
0010
0000
,
0001
0000
0010
0000
1000
0000
0001
0000
1000
0010
1000
0010
1000
0100
1000
0100
,
1000
0000
0100
0000
1000
0010
0000
1000
,
0100
0000
0010
0001
0010
0000
0001
0000
,
0100
0000
0000
0000
0010
0000
0000
0000
1000
0000
0000
0001
0000
0000
0010
0000
,
0200
0000
0300
0010
0001
0000
1000
0010
,
0100
0001
0010
2000
0000
3010
0001
1000
,
0000
0010
0100
0001
,
2000
0000
0000
0000
0000
3000
0100
0010
,
0000
0001
1000
0002
0000
0000
0003
0010
,
0100
0000
0000
0000
1000
0000
0000
0000
0001
0000
0000
0100
0000
0000
0010
0000
,
1000
0000
0000
0100
0000
0000
0010
0000
0100
0000
0000
0000
1000
0000
0000
0000
,
0001
0000
0000
0000
1000
0000
0000
0000
0001
0000
0000
0100
0000
0000
0001
0000
,
2000
0000
0000
0000
0000
3000
0100
0000
0001
0000
0000
0000
0100
0000
0010
0000
,
0100
1000
0010
0100
0000
0001
1000
0000
,
1000
0100
0010
0100
0000
1000
0000
0001
,
0200
0000
0000
0000
0000
0000
0000
0000
0000
0000
0000
0000
0000
0000
0000
0300
,
0010
0000
0000
1000
0000
0000
1010
0000
1000
0000
0000
0000
0001
0000
0000
0000
,
0100
0000
0001
1000
0001
0000
0100
0000
,
0001
0000
0000
0010
0000
0000
1000
0000
0010
0000
0000
0000
0010
0000
0001
0000
,
0100
0000
0000
1000
0000
0000
0001
0000
0010
0000
0000
0000
1000
0000
0000
0000
,
0001
0000
0000
1000
0000
0000
0010
0100
0010
0100
0001
1000
,
0001
0000
0100
0010
1000
0000
0010
0000
,
0001
0000
0000
0010
0000
0000
0100
0000
0001
0000
0000
0000
1000
0000
0100
0000
,
0001
0000
0100
1000
0100
0000
1000
0000
,
0010
0000
0000
0000
0001
0000
0000
0000
0010
0000
1000
0000
0001
1000
0001
1000
,
0001
0000
0000
1001
0000
0000
0110
0000
,
2002
0000
0000
0000
,
0000
0000
0000
0000
,
0000
0000
0000
0000
,
0000
3003
1001
0000
;

//---------------dance-single - T121----------------
#NOTES:
     dance-single:
     T121:
     Medium:
     5:
     0.334,0.398,0.007,0.185,0.007:
0000
0000
0000
0000
,
0000
0000
0000
0000
,
0000
0000
0000
0000
,
0000
0000
0000
0000
,
0000
0000
1010
0000
,
0010
0000
0100
0000
0001
0000
0000
0100
,
0000
0100
0001
0000
,
0100
0000
0001
0000
0010
0000
0000
0100
,
2000
0000
3000
0010
0100
0000
0000
0000
,
0001
0000
0000
0010
0000
0100
1000
0000
,
0001
0000
0000
0001
0000
1000
0000
0001
,
2000
0000
0000
3000
,
1000
0000
0000
0010
0200
0000
0300
0000
,
0001
1000
1000
0010
,
1000
0000
0000
0100
0000
0000
0001
0000
,
0100
0000
0000
0010
0001
0000
1000
0000
,
0010
0000
0000
0000
0100
0000
0000
0000
0002
0000
0000
0000
2000
0000
0000
3003
,
0001
1000
0010
0001
,
0010
0000
0000
0100
0000
0000
0001
0000
,
1000
0010
0010
0100
,
0001
0000
1000
0000
0100
1000
0002
0000
,
0003
0000
0000
0001
0000
0000
0100
0000
,
0010
0000
1000
0000
0001
0000
0000
0100
,
0000
0001
1000
0000
1000
0000
0000
0100
,
0010
0000
0001
0000
1000
0000
0000
0010
,
0100
0000
0000
0001
1000
0000
0000
0100
,
0001
0000
0100
0000
0010
0000
0000
0001
,
1000
0000
0000
1000
0010
0000
0000
0100
,
0001
0000
1000
0000
0100
0010
0000
0100
,
1000
0000
0001
0000
0100
0000
0000
0001
,
1000
0000
0100
1000
0000
0010
0000
0000
,
0100
0000
0000
0000
0001
0000
0000
1000
,
0100
0000
0001
0000
0000
0100
1000
0000
,
0100
0000
1000
0000
0001
0000
0100
0010
,
0100
0000
0010
0000
0000
0010
0000
0100
,
0000
0001
1000
0001
,
1000
0000
0000
0001
0000
0000
0010
0000
0000
0000
0010
0000
0100
0000
2000
0000
,
0000
0000
0000
0000
0000
3000
0002
0000
0000
0000
0000
0000
0000
0000
0000
0003
,
0100
0000
0100
0010
0000
1000
0000
0001
,
0010
0000
0000
0000
0000
0000
0000
0000
0100
0000
0000
0010
0000
0000
0001
0000
,
1000
0000
1000
0100
0000
0020
0000
0030
,
0002
0000
0000
0000
0000
0003
0000
0000
0200
0000
0000
0000
0000
0000
0300
0000
,
0010
0000
0000
1000
0000
0010
0000
0100
,
0000
0010
0100
0001
0000
0001
0000
0000
,
0100
0000
0000
0010
1000
0100
0000
0000
,
0001
0000
0000
0100
0000
0010
0001
0000
,
0001
0000
1000
0100
0000
0010
0000
0200
,
0000
1300
0000
0000
0100
0010
0000
0001
,
1000
0000
0010
0000
0100
0001
0000
1000
,
0001
1000
0000
0010
2000
0000
0020
3000
,
1030
0100
0010
0001
,
0010
0010
0100
0100
,
1000
0000
0000
1000
0010
0000
0000
0010
,
0100
0001
2000
0002
,
3003
0000
1000
0000
1000
0010
0000
0100
,
0001
0001
1000
0100
,
1000
0000
0001
0000
0100
0000
0000
0010
,
2000
0000
3000
0100
0010
0000
0001
0000
,
0010
0000
0100
1000
0000
0001
1000
0001
,
0000
0100
0010
1000
,
0002
0000
0000
0000
0000
0003
0010
0100
,
0000
1000
0001
2000
0000
0000
3000
0100
,
0010
0000
0001
0000
1000
0000
0000
0010
,
0100
0000
0000
0001
1000
0000
0001
0000
,
1000
0000
0001
0000
1000
0000
0000
1000
,
0002
0000
0000
0000
0000
0003
0010
0000
0100
0000
0000
0000
1000
0000
0000
0000
,
1000
0000
0000
0001
0000
1000
0001
0000
,
0001
0000
0000
0100
0000
0010
0000
1000
,
0002
0000
0000
0000
0000
0000
0000
0000
0000
0000
0000
0000
0000
0000
0000
0003
,
1000
0000
0000
1000
0100
0000
0010
0000
,
0100
0000
1000
0001
1000
0000
0010
0000
,
1000
0000
0000
0001
0010
0000
0100
1000
,
0010
0000
0000
1000
0100
0000
1000
0000
,
0010
0001
0020
0200
,
0330
0100
0001
0100
,
1000
0000
0000
0100
0010
0000
1000
0000
,
0001
0000
0010
0001
0010
0000
0001
0000
,
0100
0000
0010
0000
1000
0001
2000
0000
,
3100
0000
0000
0010
0000
0000
0001
0000
,
2000
0000
0000
0000
,
0000
0000
0000
0000
,
0000
0000
0000
0000
,
0000
3000
0010
0000
;

//---------------dance-single - T121----------------
#NOTES:
     dance-single:
     T121:
     Easy:
     3:
     0.205,0.245,0.007,0.015,0.000:
0000
0000
0000
0000
,
0000
0000
0000
0000
,
0000
0000
0000
0000
,
0000
0000
0000
0000
,
0000
0000
1001
0000
,
0000
1000
0100
0000
,
0000
1000
0001
0000
,
1000
0100
0001
0000
,
0100
0000
0010
0000
,
0001
0000
0000
1000
0000
0001
0000
0000
,
0001
0000
0000
0100
0000
0010
0000
0000
,
0010
0000
0000
0000
,
0010
0000
0000
1000
0001
0000
0000
0000
,
0100
0000
0010
0000
,
0010
0000
0000
1000
0000
0000
0100
0000
,
0000
0010
0000
0001
,
0000
1000
0001
1000
,
0001
0000
0001
0000
,
0100
0000
0000
0010
0000
0000
1000
0000
,
0000
0001
0000
1000
,
0100
0000
1000
0100
,
0000
0000
0000
0010
0000
0000
0001
0000
,
0000
0100
0000
0001
,
0100
0000
0010
0000
,
1000
0100
0000
0000
,
1000
0000
0100
0000
,
1000
0001
0000
0100
,
0000
0100
0000
0010
,
0000
0010
1000
0000
,
1000
0001
0000
0000
,
0010
0000
0000
0010
0000
0001
0000
0000
,
1000
0000
0010
0000
,
0100
0000
0010
0000
0000
1000
0000
0000
,
0001
0000
0010
0100
,
0000
1000
0000
1000
,
0000
0001
0000
0100
,
0010
0000
1000
1000
,
0100
0000
0010
0000
,
0001
1000
0000
0010
,
0100
0000
0001
0000
,
1000
0100
0000
0010
,
0001
0000
0100
0000
,
0010
0000
1000
0001
,
0000
1000
0000
0100
,
0010
0000
0001
1000
,
0010
0000
0100
0001
,
1000
0100
0000
0010
,
0001
1000
0001
0000
,
0100
0010
1000
0000
,
0100
0000
0010
0001
,
1000
0001
0100
0000
,
0010
1000
0000
0001
,
0010
0000
0100
0000
,
1000
0010
0100
0001
,
0000
1000
0100
0000
,
0100
0010
0000
0000
,
0001
0000
0100
0000
,
0010
0000
1000
0000
,
0001
1000
0000
0100
,
0000
1000
0001
0010
,
0100
0000
0000
1000
,
0000
0100
0010
0000
,
0001
0100
0010
0000
,
1000
0000
1000
0100
,
0000
0010
0001
0000
,
1000
0000
0010
0000
,
0100
0000
0001
1000
,
0100
0000
0010
0001
,
2000
0000
0000
3000
,
0001
0000
0100
0010
,
1000
0001
0000
0001
,
0010
0100
0000
1000
,
0001
0100
0000
0010
,
1000
0100
0010
0001
,
1000
0010
0000
1000
,
0000
0001
0000
0100
,
0010
1000
0000
0100
,
0010
0001
0100
0010
,
1000
0000
0000
0001
0000
0000
0010
0000
,
0200
0000
0000
0000
,
0000
0000
0000
0000
,
0000
0000
0000
0000
,
0000
0000
0300
0000
;

//---------------dance-single - Itsugo----------------
#NOTES:
     dance-single:
     Itsugo:
     Challenge:
     10:
     0.690,0.765,0.615,0.489,0.259:
0000
0000
0000
0000
,
0000
0000
0000
0000
,
0000
0000
0000
0000
,
0000
0000
0000
0000
,
0000
0000
0000
0000
,
1001
0000
0000
0000
1000
0000
0000
0000
0010
0000
0000
0100
0000
0000
0001
0000
,
1000
0000
0100
0010
0002
0003
0011
0000
,
1001
0000
0000
0000
0001
0000
0000
0000
0100
0000
0000
0010
0000
0000
1000
0000
,
0200
0000
0310
0100
1000
0000
1100
0000
,
0100
1000
0010
0200
0000
0301
2000
0000
,
3100
0000
0010
0000
0001
0000
1000
0000
0000
0000
0010
0000
0000
0100
0000
0000
,
0004
4000
0000
0000
0000
0000
0000
0000
0000
0000
0000
0000
0000
0000
3003
0000
,
1001
0000
0000
0000
0000
0000
1100
0000
0000
0000
0000
0000
0011
0000
0000
0000
1000
0001
1000
0001
1000
0000
0000
0000
1010
0000
0000
0000
0001
0000
0100
0000
,
0001
0000
1000
0100
0000
0000
0010
0000
0110
0000
0000
0000
0011
0000
0000
0000
,
2001
0000
0000
3020
0000
0000
0230
0000
0004
0000
0000
0000
0300
0003
1000
0001
,
1000
0000
0010
0100
0000
0000
0001
0000
0101
0000
0000
0000
1001
0000
0000
0000
,
1100
0000
0000
1000
0000
0000
0100
0000
0000
0010
0000
0000
0100
0000
1000
0000
0001
0000
0010
0000
0100
0000
1000
0000
,
1100
0000
1000
0001
0000
0000
0010
0000
0110
0000
0000
0000
1100
0000
0000
0000
,
1002
0000
0000
0203
0000
0000
0320
0000
2030
0000
0040
0000
0000
0030
3010
0100
,
0001
0000
0010
0100
0000
0000
1000
0000
1100
0000
0000
0000
1001
0000
0000
0000
,
0101
0000
0001
0000
0100
0000
0010
0000
0100
0000
0001
0010
0100
1000
0100
0010
,
0002
0000
0000
2000
0003
0000
3001
0000
,
1001
0000
0000
0000
1000
0000
0000
0000
0010
0000
0000
0100
0000
0000
0001
0000
,
1000
0100
0001
0100
1000
0001
1001
0000
,
0101
0000
0100
0010
1000
0010
0001
0010
,
1000
0000
0001
0000
0010
0000
0100
0000
0110
0000
0000
1001
0000
0000
2000
0000
,
3001
0000
0000
0000
0001
0000
0000
0000
0100
0000
0000
0010
0000
0000
1000
0000
,
0001
0010
1000
0010
0001
1000
1001
0000
,
1010
0000
0010
0100
0001
0100
1000
0100
,
0001
0000
1000
0000
0100
0000
0010
0000
0110
0000
0000
1001
0000
0000
0110
0000
,
1001
0001
0100
0010
1000
0100
0010
0100
,
1000
0001
0010
0100
0010
0001
0100
1000
,
0100
0010
1000
0100
0001
0100
0010
0001
,
0100
0010
1000
0100
1000
0010
0100
0001
,
0010
0100
1000
0100
0010
0001
1000
0010
,
0100
0001
0100
0010
1000
0001
0010
1000
,
0010
0001
0100
1000
0100
0001
0100
0010
,
1000
0001
0010
0100
1000
0100
0010
0001
,
1001
0000
0001
0100
0000
0100
0010
1000
,
0100
0000
0000
0000
1100
0000
0000
0000
0011
0000
0000
1001
0000
0000
1010
0000
,
0110
0000
0200
0301
0000
0101
0001
1000
,
0200
0000
0310
0001
2000
3000
1001
0000
,
0001
0100
0010
0100
0001
1000
0100
0010
,
0100
1000
0010
0001
0010
1000
0100
0001
,
0100
0010
0001
0100
0010
1000
0001
0010
,
0011
0000
0000
0000
0000
0000
1010
0000
0000
0000
0000
0000
1001
0000
0000
0000
0001
1000
0001
1000
0001
0000
0000
0000
1000
0000
0000
0000
0010
0000
0000
0000
,
1010
0010
0100
0110
0100
0001
0101
0001
,
1001
1000
0100
0001
0100
0010
0001
1000
,
0020
0032
0203
2300
,
3010
0000
0001
0000
0010
0000
1000
0000
0001
0010
0100
1000
0100
0010
0001
0000
,
1001
0001
0100
0101
0100
0010
0110
1000
,
1010
0010
0100
0001
1000
0100
0010
0110
,
0200
0000
0000
2000
0300
0000
3010
0000
0200
0000
0000
0302
0000
0000
1003
0000
,
0001
0000
0000
0000
1000
0000
0000
0000
0001
0000
0000
0000
1000
0000
0000
0000
0001
0000
1000
0000
0001
0000
1000
0000
0001
0000
1000
0000
0001
1000
0001
1000
,
0002
0000
0000
0000
0023
0000
0000
0000
0230
0000
0000
1300
0000
0000
0001
0000
,
0100
0000
0000
0101
0000
0000
0002
0000
1003
0000
0000
0000
1001
0000
0000
0000
,
2000
0000
0000
0000
3200
0000
0000
0000
0320
0000
0000
0031
0000
0000
1000
0000
,
0020
0130
0002
1003
,
1001
0001
0010
0011
0000
0100
1000
1100
,
0000
1000
0002
0000
0203
0000
0320
0000
,
2030
0000
0001
0000
3001
0000
0001
1000
,
0000
1000
0001
0010
0100
1000
0100
0010
,
0002
0000
0000
0000
2003
0000
0000
0000
3020
0000
0030
0100
0000
0000
0001
0000
,
0100
0000
0000
0101
0000
0000
0002
0000
1003
0000
0000
0000
1001
0000
0000
0000
,
2000
0000
0000
0000
3200
0000
0000
0000
0320
0000
0000
0031
0000
0000
1000
0000
,
0002
0000
0013
0010
0200
0000
1300
0000
,
1100
1000
0001
1001
0000
0001
0101
0000
,
0101
0001
1000
1001
1000
0100
0001
0100
,
1000
0001
0100
0010
1000
0001
0010
0100
,
0110
0000
0000
0000
0000
0000
1100
0000
0000
0000
0000
0000
1001
0000
0000
0000
0001
1000
0001
1000
0001
0000
0000
0000
0101
0000
0000
0000
1000
0000
0010
0000
,
1000
0000
0001
0010
0000
0000
0100
0000
0110
0000
0000
0000
1100
0000
0000
0000
,
1002
0000
0000
0203
0000
0000
0320
0000
4000
0000
0000
0000
0030
3000
0001
1000
,
0001
0000
0100
0010
0000
0000
1000
0000
1010
0000
0000
0000
1001
0000
0000
0000
,
0011
0000
0000
0001
0000
0000
0010
0000
0000
0100
0000
0000
0010
0000
0001
0000
1000
0000
0100
0000
0010
0000
0001
0000
,
0011
0000
0001
1000
0000
0000
0100
0000
0110
0000
0000
0000
0011
0000
0000
0000
,
2001
0000
0000
3020
0000
0000
0230
0000
0302
0000
0400
0000
0000
0300
0103
0010
,
1000
0000
0100
0010
0000
0000
0001
0000
0011
0000
0000
0000
1001
0000
0000
0000
,
1010
0000
1000
0000
0010
0000
0100
0000
0010
0000
1000
0100
0010
0001
0010
0100
,
2000
0000
0000
0002
3000
0000
0103
0000
,
0220
0000
0000
0000
,
0000
0000
0000
0000
,
0000
0000
0000
0000
,
0000
0000
0000
0000
0000
0000
0000
0000
0000
0000
0000
0000
0000
0000
0000
0000
2332
3003
0000
0000
0000
0000
0000
0000
0000
0000
0000
0000
0000
0000
0000
0000
;

//---------------dance-single - Itsugo----------------
#NOTES:
     dance-single:
     Itsugo:
     Beginner:
     2:
     0.103,0.153,0.015,0.096,0.000: // measure 1
0000
0000
0000
0000
,  // measure 2
0000
0000
0000
0000
,  // measure 3
0000
0000
0000
0000
,  // measure 4
0000
0000
0000
0000
,  // measure 5
0000
0000
0000
0000
,  // measure 6
1000
0000
0000
0000
,  // measure 7
0010
0000
0000
0000
,  // measure 8
0100
0000
0000
0000
,  // measure 9
0001
0000
0000
0000
,  // measure 10
0001
0000
0000
0000
,  // measure 11
1000
0000
0000
0000
,  // measure 12
2002
0000
0000
0000
,  // measure 13
3003
0000
0000
0000
,  // measure 14
1000
0000
0000
0000
,  // measure 15
0100
0000
0000
0000
,  // measure 16
1000
0000
0000
0000
,  // measure 17
0001
0000
0000
0000
,  // measure 18
0100
0000
0000
0000
,  // measure 19
0001
0000
0000
0000
,  // measure 20
1000
0000
0000
0000
,  // measure 21
0100
0000
0000
0000
,  // measure 22
0020
0000
0000
0000
,  // measure 23
0031
0000
0000
0000
,  // measure 24
0001
0000
0000
0000
,  // measure 25
1000
0000
0000
0000
,  // measure 26
1000
0000
0000
0000
,  // measure 27
1001
0000
0000
0000
,  // measure 28
1000
0000
0000
0000
,  // measure 29
0010
0000
0000
0000
,  // measure 30
0100
0000
0000
0000
,  // measure 31
0001
0000
0000
0000
,  // measure 32
0001
0000
0000
0000
,  // measure 33
0100
0000
0000
0000
,  // measure 34
0100
0000
0000
0000
,  // measure 35
0010
0000
0000
0000
,  // measure 36
0010
0000
0000
0000
,  // measure 37
1000
0000
0000
0000
,  // measure 38
1000
0000
0000
0000
,  // measure 39
0002
0000
0000
0000
,  // measure 40
0013
0000
0000
0000
,  // measure 41
0200
0000
0000
0000
,  // measure 42
1300
0000
0000
0000
,  // measure 43
2000
0000
0000
0000
,  // measure 44
3001
0000
0000
0000
,  // measure 45
0002
0000
0000
0000
,  // measure 46
1003
0000
0000
0000
,  // measure 47
0010
0000
0000
0000
,  // measure 48
0100
0000
0000
0000
,  // measure 49
0001
0000
1000
0000
,  // measure 50
0100
0000
0010
0000
,  // measure 51
0001
0000
0000
0000
,  // measure 52
1000
0000
0000
0000
,  // measure 53
0010
0000
0100
0000
,  // measure 54
0001
0000
1000
0000
,  // measure 55
0200
0000
0000
0000
,  // measure 56
0320
0000
0000
0000
,  // measure 57
0032
0000
0000
0000
,  // measure 58
2003
0000
0000
0000
,  // measure 59
3010
0000
0000
0000
,  // measure 60
0100
0000
0000
0000
,  // measure 61
0001
0000
0000
0000
,  // measure 62
1000
0000
0000
0000
,  // measure 63
0100
0000
0010
0000
,  // measure 64
0001
0000
1000
0000
,  // measure 65
0010
0000
0100
0000
,  // measure 66
0001
0000
0100
0000
,  // measure 67
0010
0000
0000
0000
,  // measure 68
1000
0000
0000
0000
,  // measure 69
0002
0000
0000
0000
,  // measure 70
1003
0000
0000
0000
,  // measure 71
0100
0000
0000
0000
,  // measure 72
0010
0000
0000
0000
,  // measure 73
0001
0000
0000
0000
,  // measure 74
1000
0000
0000
0000
,  // measure 75
0010
0000
0000
0000
,  // measure 76
0100
0000
0000
0000
,  // measure 77
0001
0000
0000
0000
,  // measure 78
1000
0000
0000
0000
,  // measure 79
0100
0000
0000
0000
,  // measure 80
0020
0000
0000
0000
,  // measure 81
0000
0000
0000
0000
,  // measure 82
0000
0000
0000
0000
,  // measure 83
0000
0000
0030
0000
;
