#TITLE:フラグメンツ;
#SUBTITLE:東方活動写真館 ~第二幕~;
#ARTIST:発熱巫女~ず;
#TITLETRANSLIT:Fragments;
#SUBTITLETRANSLIT:Touhou Kinema Kan ~2nd Courtain~;
#ARTISTTRANSLIT:Hatsunetsumiko's;
#GENRE:Otaku's Dream 2nd Mix (Pad);
#CREDIT:Itsugo15;
#BANNER:Fragments-bn.jpg;
#BACKGROUND:Fragments-bg.jpg;
#LYRICSPATH:Fragments.lrc;
#CDTITLE:Itsugo15 SimifileS.png;
#MUSIC:Fragments.ogg;
#OFFSET:-0.250;
#SAMPLESTART:85.759;
#SAMPLELENGTH:30.000;
#SELECTABLE:YES;
#LISTSORT:;
#BPMS:0.000=80.000,34.000=160.000,194.000=80.000,196.000=160.000,356.000=80.000;
#STOPS:;
#TICKCOUNT:0.000=6;
#BGCHANGES:1.500=Fragments.avi=1.000=1=1=0,
356.000=Fragments-bg.jpg=1.000=0=0=1,
99999=-nosongbg-=1.000=0=0=0 // don't automatically add -songbackground-
;
#KEYSOUNDS:;
#ATTACKS:;

//---------------dance-single - Itsugo----------------
#NOTES:
     dance-single:
     Itsugo:
     Beginner:
     2:
     0.073,0.119,0.027,0.040,0.000:
0000
0000
0001
0000
,
0000
0000
1000
0000
,
0000
0000
0010
0000
,
0000
0000
0100
0000
,
0000
0000
0001
0000
,
0000
0000
1000
0000
,
0000
0000
0100
0000
,
0000
0000
0010
0000
,
0000
0000
0001
0000
,
0000
0000
0000
0000
,
0000
0000
0100
0000
,
0000
0000
0000
0000
,
0000
0000
0010
0000
,
0000
0000
0000
0000
,
0000
0000
1000
0000
,
0000
0000
0000
0000
,
0000
0000
1001
0000
,
0000
0000
0000
0000
,
0000
0000
1000
0000
,
0000
0000
0000
0000
,
0000
0000
0100
0000
,
0000
0000
0000
0000
,
0000
0000
0010
0000
,
0000
0000
0000
0000
,
0000
0000
0110
0000
,
0000
0000
0000
0000
,
0000
0000
0010
0000
,
0000
0000
0000
0000
,
0000
0000
0001
0000
,
0000
0000
0000
0000
,
0000
0000
0100
0000
,
0000
0000
0000
0000
,
0000
0000
0101
0000
,
0000
0000
0000
0000
,
0000
0000
0010
0000
,
0000
0000
0000
0000
,
0000
0000
1000
0000
,
0000
0000
0000
0000
,
0000
0000
0001
0000
,
0000
0000
0000
0000
,
0000
0000
1001
0000
,
0000
0000
0000
0000
,
0000
0000
1000
0000
,
0000
0000
0000
0000
,
0000
0000
0100
0000
,
0000
0000
0000
0000
,
0000
0000
0010
0000
,
0000
0000
0001
0000
,
0000
0000
2000
0000
,
3001
0000
0000
0000
,
1000
0000
0000
0000
,
0010
0000
0000
0000
,
0100
0000
0000
0000
,
0010
0000
0000
0000
,
1000
0000
0000
0000
,
0001
0000
0000
0000
,
0010
0000
0000
0000
,
0100
0000
0000
0000
,
0010
0000
0000
0000
,
0001
0000
0000
0000
,
1000
0000
0000
0000
,
0001
0000
0000
0000
,
0100
0000
0000
0000
,
0020
0000
0000
0000
,
1000
0000
0000
0000
,
1030
0000
0000
0000
,
0001
0000
0000
0000
,
0010
0000
0000
0000
,
0100
0000
0000
0000
,
0010
0000
0000
0000
,
0001
0000
0000
0000
,
0100
0000
0000
0000
,
0010
0000
0000
0000
,
1000
0000
0000
0000
,
0010
0000
0000
0000
,
0100
0000
0000
0000
,
0001
0000
0000
0000
,
1000
0000
0000
0000
,
0100
0000
0000
0000
,
0010
0000
0000
0000
,
0001
0000
0000
0000
,
2000
0000
0000
0000
,
0000
0000
0000
0000
,
3020
0000
0000
0000
,
0000
0000
0000
0000
,
0032
0000
0000
0000
,
0000
0000
0000
0000
,
0203
0000
0000
0000
,
0000
0000
0000
0000
,
1300
0000
0000
0000
;

//---------------dance-single - Itsugo----------------
#NOTES:
     dance-single:
     Itsugo:
     Medium:
     7:
     0.359,0.445,0.167,0.207,0.030:
0000
0000
0000
0000
0000
0000
0000
0000
1000
0000
0001
0010
0000
0001
0000
0000
,
0001
0000
0000
0000
1000
0000
0000
0000
0001
0000
1000
0010
0000
1000
0000
0000
,
0001
0000
0001
0000
0020
0000
0130
1000
,
0200
0000
0310
0001
2000
0000
3010
0100
,
0002
0000
0000
0000
1003
0000
0010
0000
0200
0000
0000
0010
0000
0000
0000
0000
,
0300
0000
0000
0000
0010
0000
1000
0000
0002
0000
0000
1000
0000
0000
0000
0000
,
0003
0000
0000
0000
1000
0000
0100
0000
0020
0000
0000
0001
0000
0000
0000
0000
,
0030
0000
0000
0000
0001
0000
0100
0000
0020
0000
0000
1000
0000
0000
0000
0200
,
0000
0000
0000
0330
1001
0000
1000
0000
,
0001
0000
0010
0000
0100
0000
0000
1000
,
0000
0001
1001
1000
,
0010
0000
0100
0000
0001
0000
0000
1000
,
0000
0001
1001
1000
,
0010
0000
0100
0000
0001
0000
0000
0100
,
0000
0010
0110
0010
,
1000
0000
0100
0000
1000
0000
0000
0001
,
0000
1000
1001
0001
,
1000
0001
1000
0000
0010
0000
0100
0000
,
0010
0100
0010
0000
1000
0000
0000
0001
,
0000
0000
0011
0000
0010
0000
0000
0100
,
0000
1100
1001
1000
,
0100
0010
0001
0000
0001
0000
1000
0000
,
0010
0100
0001
0000
0101
0000
0000
0100
,
0000
0000
0010
0000
1010
0000
0000
1000
,
0000
0001
1001
1000
,
0001
1000
0001
0000
0100
0000
0010
0000
,
0100
0010
0100
0000
0001
0000
0000
1000
,
0000
0000
1100
0000
0100
0000
0000
0010
,
0000
0011
1001
0001
,
0010
0100
1000
0000
0100
0000
0010
0000
,
0001
1000
0010
0000
1010
0000
0000
0010
,
0000
0100
0101
0001
,
0100
0000
0010
1000
0010
2000
0000
0000
,
3000
0001
0000
0020
0000
0100
0030
0000
,
0100
0000
1000
0000
0001
0000
0000
1000
,
0000
0000
0010
0000
1010
0000
0000
1000
,
0000
0001
0011
0001
,
1000
0010
0100
0010
,
1000
0000
0001
0000
1001
0000
0000
1000
,
0000
0000
0100
0000
1100
0000
0000
0100
,
0000
0000
0010
0000
0011
0000
0001
0010
,
0001
0000
1000
0000
0001
0000
1000
0001
,
1000
0000
0010
0000
1000
0000
0010
1000
,
0010
0000
0100
0000
0010
0000
0100
0010
,
0100
0010
0110
0100
,
0001
1000
1001
0001
,
0010
0100
0020
0032
,
1003
0001
0200
0000
,
0020
0000
0330
0000
,
0110
0000
0010
0000
1000
0000
0100
0020
,
0000
0000
0000
0000
0000
0030
0000
0000
,
0100
0000
1000
0000
0001
0000
0100
0020
,
0000
0030
0100
0000
0001
0000
1000
0200
,
0000
0300
1000
0000
0001
0000
0100
0020
,
0000
0030
0100
0000
0001
0000
1000
0200
,
0000
0300
0010
0000
0001
0000
1000
0002
,
0000
1000
0103
0010
,
0110
0000
0100
0000
0001
0000
0010
0200
,
0000
0000
0000
0000
0000
0300
0000
0000
,
0010
0000
0001
0000
1000
0000
0010
0200
,
0000
0300
0010
0000
1000
0000
0001
0020
,
0000
0030
0001
0000
1000
0000
0010
0200
,
0000
0300
0010
0000
1000
0000
0001
0020
,
0000
0000
0000
0000
,
0100
0100
0100
0100
,
0230
0000
0000
0000
,
0300
0000
0010
0000
0001
0000
1000
0200
,
0000
0000
0000
0000
,
0300
0000
1000
0000
0010
0000
0100
0001
,
0000
0000
0001
0000
0001
0000
0100
0010
,
0000
0000
0010
0000
0010
0000
1000
0001
,
0000
0000
1000
0000
1000
0000
0100
0010
,
0000
0100
1000
0100
,
0020
0000
0000
0000
,
0030
0000
0001
0000
0100
0000
0010
2000
,
0000
0000
0000
0000
,
3000
0000
0010
0000
0100
0000
0001
1000
,
0000
0000
1000
0000
1000
0000
0100
0010
,
0000
0010
0001
1000
,
0100
0000
0100
0000
0100
0000
0010
0002
,
0000
0000
0000
0000
,
0013
0000
0000
0100
0000
0100
0000
0000
,
1000
0000
0000
0001
0000
0001
0000
0000
,
0100
0000
0000
0010
0000
0010
0000
0000
,
1000
0001
0010
0100
,
1000
0000
0000
0100
0000
0100
0000
0000
,
0010
0000
0000
0001
0000
0001
0000
0000
,
1000
0000
0000
0010
0000
0010
0000
0000
,
0100
0001
0100
0010
,
1000
0000
0000
0000
;

//---------------dance-single - Itsugo----------------
#NOTES:
     dance-single:
     Itsugo:
     Hard:
     9:
     0.630,0.772,0.280,0.247,0.190:
0000
0000
0000
0000
0000
0000
0000
0000
0010
0100
0001
1000
0100
0010
0001
0000
,
0002
0000
0000
0000
1000
0000
0000
0000
1003
0000
0010
0100
0000
0100
0001
0000
,
0101
0100
0010
1000
0100
0010
0100
1000
1100
0000
1000
0000
0001
0000
0100
0001
,
0100
0000
0001
0000
1000
0000
0010
1000
0010
0000
0100
0000
0001
0000
1000
0001
,
1000
0001
0010
0100
0010
0001
1000
0010
0100
0000
0100
0001
0000
0001
0000
0001
,
0000
0100
0010
1000
0010
0100
0001
1000
0100
1000
0000
1000
0000
1000
0000
1000
,
0000
0100
0010
0000
0001
0000
1000
0010
0100
0000
0001
0000
1000
0000
0100
0010
,
0001
0000
1000
0000
0010
0000
0100
0001
2000
0000
3020
0000
0032
0000
0103
2000
,
0000
0000
0001
3001
1001
0000
1000
0001
,
0010
0000
0100
0000
0010
0000
0001
0010
0001
0000
0000
0000
1000
0000
0010
0000
,
0000
0000
0010
0000
0100
0000
0010
0100
0010
0000
1000
0000
0010
0000
0100
0000
,
0001
0000
0010
0000
0001
0000
1000
0001
1000
0000
0000
0000
0001
0000
0100
0000
,
0000
0000
0100
0000
0010
0000
0100
0010
0100
0000
0001
0000
1000
0000
0100
0000
,
0010
0000
0100
0000
1000
0000
0100
1000
0100
0000
0000
0000
0100
0000
0010
0000
,
0000
0000
0001
0000
1000
0000
0001
0100
0001
0000
0100
0000
0010
0000
1000
0000
,
0001
0010
0100
1000
0001
0000
0001
0010
,
0000
1000
0010
0001
1000
0000
1001
0000
,
1000
0100
0010
0001
0000
1000
0100
1100
,
0000
1100
0000
1000
0001
0000
0100
0010
,
0000
0000
1000
0010
1000
0000
0000
0000
0001
0000
0010
0000
0100
0000
0110
0000
,
0000
0110
0000
0010
0001
0000
1000
0010
,
0000
0100
0001
0100
1000
0100
0001
1000
,
0000
0100
0010
0000
0001
1000
0010
0100
,
0000
0010
1000
1010
0000
1001
0000
0101
,
0001
1000
0100
0010
0001
0000
0011
0000
,
0001
1000
0010
0100
0000
0001
0100
0010
,
0000
0000
1010
0000
0000
0000
1000
0010
1000
0000
0000
0000
0001
0000
0010
0000
,
0000
0000
0001
0010
0001
0000
0000
0000
0001
0000
1000
0000
0100
0000
1100
0000
,
0000
0101
0000
0001
1000
0000
0010
0100
,
0000
0010
1000
0002
0000
1003
0100
0020
,
0000
0001
0031
0001
1000
0000
1000
0010
,
0000
0010
0100
0101
0000
1001
0000
1100
,
1000
0100
0010
0100
1000
0002
0000
0003
,
0000
1000
0000
0010
0000
0100
0001
1000
,
0000
0001
0000
0001
1000
0000
0010
0100
,
0000
0000
0001
0100
0001
0000
0000
0000
0100
0000
0010
0000
1000
0000
1010
0000
,
0000
0000
1010
0000
0000
0000
0010
1000
0010
0000
0000
0000
1000
0000
0001
0000
,
0000
0010
0001
1000
0000
0010
0100
0001
,
0000
0101
0000
0000
0100
0010
1000
0001
,
0000
2000
3000
0002
0003
0020
0030
0200
,
0300
0000
0000
0000
1100
0000
0000
0000
1100
0000
0000
0000
1000
0100
1000
0000
,
0000
0100
0010
0000
0011
0000
0001
0100
,
0000
0010
1000
0000
1010
0000
1000
0001
,
0000
0001
1000
0000
1001
0000
1001
1000
,
1001
0001
1001
1000
1001
0000
0001
0010
,
0000
0010
0000
0001
0010
0100
1000
0100
,
0000
0000
0100
0000
0000
0000
1000
0100
1000
0000
0000
0000
0100
0000
0010
0000
,
0000
0001
1000
0000
0020
0100
0000
0001
,
0000
0100
0130
0000
2000
0000
3002
0000
,
0013
0000
0100
0000
1000
0000
0001
0000
0100
0000
0010
0000
1000
0000
0001
1000
,
0001
0000
0000
0000
1000
0000
0001
0000
0000
0000
0001
0000
1000
0000
0010
1000
,
0010
0000
0100
0000
0001
0000
1000
0000
0100
0000
0010
0000
0001
0000
1000
0001
,
1000
0000
0000
0000
0001
0000
1000
0000
0000
0000
1000
0000
0001
0000
0100
0001
,
0100
0000
0010
0000
1000
0000
0001
0000
0010
0000
0100
0000
1000
0000
0100
1000
,
0100
0000
0010
0000
0001
0000
1000
0000
0010
0000
1000
0000
0001
0000
1000
0001
,
2000
0000
0001
0000
0010
0000
0100
0200
,
0000
3300
1100
1000
1100
0100
1100
1000
,
1100
0000
0010
0000
0001
0000
1000
0000
0010
0000
0100
0000
0001
0000
1000
0001
,
1000
0000
0000
0000
0001
0000
1000
0000
0000
0000
1000
0000
0001
0000
0100
0001
,
0100
0000
0010
0000
1000
0000
0001
0000
0010
0000
0100
0000
1000
0000
0001
1000
,
0001
0000
0000
0000
1000
0000
0001
0000
0000
0000
0001
0000
1000
0000
0010
1000
,
0010
0000
0100
0000
0001
0000
1000
0000
0100
0000
0010
0000
0001
0000
0010
0001
,
0010
0000
0100
0000
1000
0000
0001
0000
0100
0000
0001
0000
1000
0000
0001
1000
,
0002
1000
1000
1000
,
1000
1003
1001
0001
1001
1000
1001
0001
,
1001
0000
1000
0010
0000
0100
0001
0000
,
0001
0100
1000
0100
0001
1000
0001
0010
,
0100
0000
1000
0100
0000
0010
0001
0000
,
0001
0010
1000
0010
0001
1000
0010
0100
,
0002
0000
0203
0000
0320
0000
1030
0001
,
0020
0000
0230
0000
2300
0000
3100
0010
,
0002
0000
2003
0000
3020
0000
0130
0001
,
0001
0100
0010
0100
0001
0001
1000
1000
,
0100
0000
0010
0001
0000
1000
0010
0000
,
0010
0010
1000
0100
0010
0010
0100
1000
,
0001
0000
0100
0010
0000
1000
0001
0000
,
1000
0010
0100
0000
0100
0000
0010
1000
,
0002
0000
0023
0000
0230
0000
1300
0100
,
0020
0000
0032
0000
2003
0000
3010
0100
,
0002
0000
0203
0000
2300
0000
3010
0002
,
0000
0000
0000
0000
,
0013
0000
0010
0001
0000
1000
0010
0000
,
0100
0000
0100
0001
0000
1000
0100
0000
,
1000
0000
1000
0001
0000
0010
0001
0000
,
0001
0000
0001
1000
0000
0010
1000
0000
,
1010
0000
0010
1000
0000
0001
0100
0000
,
0101
0000
0100
0001
0000
1000
0100
0000
,
1100
0000
0100
1000
0000
0001
0010
0000
,
0011
0000
0010
0001
0000
1000
0010
0100
,
0001
0000
0000
0000
;

//---------------dance-single - Itsugo----------------
#NOTES:
     dance-single:
     Itsugo:
     Challenge:
     11:
     0.788,0.980,0.414,0.327,0.374:
0000
0000
0000
0000
0000
0000
0000
0000
0010
1000
0001
0100
0001
1000
0100
0010
,
0002
0000
0000
0000
2003
0000
0000
0000
3010
0000
0010
0100
0000
0100
0001
0000
,
0001
0100
0010
1000
0010
0100
0001
1000
0200
0000
0320
0000
0032
0000
1003
0010
,
0200
0000
0302
0000
2003
0000
3010
0100
0002
0000
0203
0000
0320
0000
1030
0001
,
0010
1000
0010
0001
1000
0010
0001
0010
1000
0010
0100
0010
1000
0010
0100
0010
,
1000
0100
0001
1000
0001
0100
1000
0001
0100
0010
0100
0001
0100
0010
0100
0001
,
0100
0010
1000
0010
0100
0001
1000
0100
2200
3300
1000
0000
0001
0000
0100
0001
,
0202
0303
0001
0000
0100
0000
0010
1000
1010
0000
1001
0000
0011
0000
0010
0200
,
0000
1000
1000
1000
1000
1000
1000
1000
1300
0000
0001
0000
0100
0000
0010
0000
,
1000
0000
0001
0000
0010
0000
0100
0010
0001
0000
1000
0000
0010
0000
0100
0000
,
0001
0000
1000
0000
0100
0000
0010
0100
1000
0000
0001
0000
0010
0000
0100
0000
,
1000
0000
0001
0000
0100
0000
0010
0100
0001
0000
0100
0000
0010
0000
1000
0000
,
0100
1000
0001
0100
0101
0100
0010
0100
,
0001
0000
1000
0000
0100
0000
0010
0100
1000
0000
0001
0000
0100
0000
0010
0000
,
1000
0000
0001
0000
0010
0000
0100
0010
0001
0000
1000
0000
0100
0000
0010
0000
,
0001
0000
1000
0000
0010
0000
0100
0010
1000
0000
0010
0000
0100
0000
0001
0000
,
0010
0011
0110
0011
1001
1000
0010
0100
,
0001
0001
1000
0100
1100
0100
0010
0110
,
0010
0000
0001
0000
0011
0000
0001
0010
0100
0000
1000
0000
0001
0000
0100
0000
,
0010
0000
1000
0001
0010
0000
0100
0000
0010
0000
0001
0000
1000
0000
1001
0000
,
0000
0000
1001
0000
1000
0000
0010
0100
0001
0000
0100
0000
0010
0000
1000
0000
,
0010
0001
0010
0100
0010
1000
0001
0002
,
0000
0003
1001
0000
1000
0000
0100
0000
0010
0000
0100
0000
0001
0000
0100
0000
,
0010
0001
1000
1001
0000
0101
0000
1010
,
1000
0000
0001
0000
0010
0100
1000
0001
0100
0000
0000
0000
0101
0000
0000
0000
,
1000
0100
1100
0100
0010
0001
0011
0011
,
0000
0000
0011
0000
0001
0000
1000
0001
0100
0000
0002
0000
0100
0000
0103
0000
,
0100
0000
0010
1000
0001
0000
0010
0000
0100
0000
1000
0000
0001
0000
1001
0000
,
0000
0000
1001
0000
1000
0000
0010
0100
0001
0000
1000
0000
0100
0000
0010
0000
,
0010
0001
1000
1000
0010
0010
0100
0110
,
0000
0110
0000
0010
0100
0100
0001
1000
,
1000
0100
0010
0110
0000
0011
0000
1100
,
0000
0000
1001
0000
0001
0000
0010
0001
1000
0000
0010
0000
0100
0000
0001
0000
,
1000
0100
0001
0100
1000
1000
0001
1001
,
0000
0000
1001
0000
0001
0000
0100
0010
1000
0000
0001
0000
0010
0000
0100
0000
,
0001
0000
0100
1000
0001
0000
1000
0000
0010
0000
0100
0000
0001
0000
0101
0000
,
0000
0000
1001
0000
1000
0000
0100
0010
0001
0000
0010
0000
0100
0000
0100
0000
,
1000
0001
0001
0100
0010
1000
0001
0010
,
0000
0011
0001
0001
1000
0010
0200
0301
,
0000
1000
0200
0310
0000
0010
0001
1000
,
0010
0000
0100
0000
0001
0100
0010
1000
0001
0000
0000
0000
1000
0001
1000
0000
,
0000
1000
1100
0000
0110
0000
0010
0011
,
0000
0001
1001
0000
0101
0000
1000
1010
,
0000
0010
0110
0000
1001
0000
1001
0001
,
1001
0000
1000
0000
0001
1000
0001
1000
0001
0100
0001
0100
0010
0100
0010
0100
,
0010
0000
1000
0000
0001
0000
0010
0000
0100
1000
0100
1000
0100
0010
0100
0010
,
0100
0000
0010
0000
0001
0000
1000
0100
0010
0000
0001
0000
0001
0000
1000
0000
,
0000
0001
1000
1000
0001
1001
1001
1001
,
1001
0000
0000
0000
0000
0000
0000
0000
0101
0000
0000
0000
0000
0000
0000
0000
1001
0000
0000
0000
0000
0000
0000
0000
1100
0000
0000
0000
0000
0000
0000
0000
2001
0000
0000
0000
0000
0000
0000
0000
00M0
0M0M
0M0M
0M0M
0M0M
0M0M
00M0
0000
3002
0000
0M00
M0M0
M0M0
M0M0
M0M0
M0M0
M0M0
0M00
0000
0000
0000
0000
0000
0000
,
1003
0000
0010
0000
0100
0000
0010
0000
0001
0000
0010
0000
1000
0000
0001
0100
,
0020
0000
0000
0000
1000
0000
1000
0000
0000
0000
0100
0000
0130
0000
0100
0001
,
1000
0000
0100
0000
0010
0000
0100
0000
0001
0000
0100
0000
0010
0000
0100
1000
,
0002
0000
0000
0000
0100
0000
0100
0000
0000
0000
1000
0000
1003
0000
1000
0010
,
0100
0000
0001
0000
1000
0000
0100
0000
0010
0000
0001
0000
1000
0000
0010
0100
,
0001
0000
0100
0000
0010
0000
1000
0000
0001
0000
0010
0000
0100
0000
1000
0001
,
0100
0100
0010
0010
1000
1000
0001
0001
,
0010
0100
0110
1100
1001
0101
0110
1010
,
1001
0000
1000
0000
0100
0000
0010
0000
0100
0000
0001
0000
0100
0000
0010
0001
,
0200
0000
0000
0000
0001
0000
0001
0000
0000
0000
0010
0000
0310
0000
0010
1000
,
0001
0000
0010
0000
0100
0000
0010
0000
1000
0000
0010
0000
0100
0000
0010
0001
,
2000
0000
0000
0000
0010
0000
0010
0000
0000
0000
0001
0000
3001
0000
0001
0100
,
0010
0000
1000
0000
0001
0000
0010
0000
0100
0000
1000
0000
0001
0000
0100
0010
,
1000
0000
0010
0000
0100
0000
0001
0000
1000
0000
0100
0000
0010
0000
0001
1000
,
M002
0000
0M00
00M0
0M00
0000
M000
0000
1000
0000
0MM0
0000
1000
0000
MM00
0000
0MM0
0000
MM00
0000
1000
0000
0MM0
0000
1000
0000
MM00
0000
0MM0
0000
MM00
0000
,
1003
0000
1000
0000
0100
0000
0001
0000
0100
0000
1000
0000
0010
0000
0100
0001
,
1000
0000
1000
0001
0000
0001
1000
0000
,
0001
0000
0100
0000
1000
0000
0100
0000
0001
0000
1000
0000
0010
0000
0100
0001
,
0010
0000
0010
0100
0000
0100
0010
0000
,
0100
0000
1000
0000
0100
0000
0001
0000
0100
0000
0010
0000
0001
0000
1000
0100
,
0020
0000
0032
0000
0203
0000
1300
0002
,
0000
0000
0023
0000
2030
0000
3100
0002
,
0000
0000
2003
0000
3020
0000
0032
2000
,
3003
0000
0001
0000
0010
0000
1000
0000
0010
0000
0001
0000
0100
0000
0010
1000
,
0001
0000
0001
1000
0000
1000
0001
0000
,
1000
0000
0010
0000
0001
0000
0010
0000
1000
0000
0001
0000
0100
0000
0010
1000
,
0100
0000
0100
0010
0000
0010
0100
0000
,
0010
0000
0001
0000
0010
0000
1000
0000
0010
0000
0100
0000
1000
0000
0001
0010
,
0200
0000
2300
0000
3020
0000
0031
2000
,
0000
0000
3200
0000
0302
0000
0013
2000
,
0000
0000
3002
0000
0203
0000
2300
0002
,
0000
3000
1000
1000
1000
1000
1000
1000
,
1003
0010
1000
0100
0010
0001
1000
0010
,
0100
0001
1000
0100
0001
0100
1000
0001
,
0100
0010
1000
0010
0001
0010
1000
0001
,
0010
0100
0010
0001
1000
0100
0010
0100
,
1000
0010
0100
0010
1000
0001
0100
0010
,
0100
0001
0100
0010
1000
0100
0001
0100
,
0010
0001
1000
0010
0001
0010
0100
0001
,
0100
0010
1000
0010
0100
0001
1000
0100
,
0001
0000
0000
0000
;

//---------------dance-single - Itsugo----------------
#NOTES:
     dance-single:
     Itsugo:
     Easy:
     5:
     0.222,0.297,0.140,0.067,0.013: // measure 1
0000
0000
1000
0000
,  // measure 2
0000
0000
0010
0000
,  // measure 3
0000
0000
0100
0000
,  // measure 4
0000
0000
0001
0000
,  // measure 5
0000
0000
0000
0000
0000
0000
0000
0000
0101
0000
0000
1000
0000
0000
0000
0000
,  // measure 6
0000
0000
0000
0000
0000
0000
0000
0000
1100
0000
0000
0001
0000
0000
0000
0000
,  // measure 7
0000
0000
0000
0000
0000
0000
0000
0000
0011
0000
0000
1000
0000
0000
0000
0000
,  // measure 8
0000
0000
0000
0000
0000
0000
0000
0000
1010
0000
0000
0002
0000
0000
0000
0000
,  // measure 9
0000
1003
1001
0000
,  // measure 10
0001
0000
1000
0000
,  // measure 11
0100
0000
0010
0000
,  // measure 12
0001
0000
1000
0000
,  // measure 13
0010
0000
0100
0000
,  // measure 14
0001
0000
1000
0000
,  // measure 15
0100
0000
1000
0000
,  // measure 16
0010
0000
0100
0000
,  // measure 17
0001
0000
1001
0000
,  // measure 18
0100
0000
0010
0000
,  // measure 19
0001
0000
0011
0000
,  // measure 20
0001
0000
1000
0000
,  // measure 21
0010
0000
1010
0000
,  // measure 22
1000
0000
0100
0000
,  // measure 23
0010
0000
0001
0000
,  // measure 24
1000
0000
0010
0000
,  // measure 25
0100
0000
0110
0000
,  // measure 26
0010
0000
1000
0000
,  // measure 27
0001
0000
0100
0000
,  // measure 28
0001
0000
1000
0000
,  // measure 29
0100
0000
1100
0000
,  // measure 30
1000
0000
0010
0000
,  // measure 31
0100
0000
0001
0000
,  // measure 32
0010
0000
0100
0000
,  // measure 33
1000
0001
1001
0000
,  // measure 34
0001
0000
0100
0000
,  // measure 35
0010
0000
1000
0000
,  // measure 36
0100
0000
0010
0000
,  // measure 37
0001
0000
0011
0000
,  // measure 38
0010
0000
0100
0000
,  // measure 39
1000
0000
0001
0000
,  // measure 40
0100
0000
0010
0000
,  // measure 41
1000
0000
1010
0000
,  // measure 42
0010
0000
0110
0000
,  // measure 43
0100
0000
0101
0000
,  // measure 44
0001
0000
2000
0000
,  // measure 45
3200
0000
0310
0001
,  // measure 46
1000
0000
0010
0100
,  // measure 47
0001
0000
1000
0000
,  // measure 48
0100
0000
0010
0000
,  // measure 49
0001
0000
1000
0000
,  // measure 50
1001
0001
0001
0100
,  // measure 51
0010
0000
1000
0000
,  // measure 52
0100
0001
0100
0010
,  // measure 53
0001
0000
1000
0000
,  // measure 54
1001
0001
1000
0000
,  // measure 55
1001
1000
0001
0000
,  // measure 56
0010
0000
0100
0000
,  // measure 57
1000
0001
0100
0010
,  // measure 58
0110
0100
0100
0001
,  // measure 59
1000
0000
0100
0000
,  // measure 60
0010
0001
0010
1000
,  // measure 61
0010
0100
1000
0001
,  // measure 62
1001
1000
0001
0000
,  // measure 63
1001
0001
1000
0010
,  // measure 64
0200
0000
0010
0000
,  // measure 65
0301
1000
0100
0010
,  // measure 66
0001
0000
0000
1000
0000
0000
1000
0000
,  // measure 67
0010
0100
0001
1000
,  // measure 68
0100
0000
0000
0010
0000
0000
0010
0000
,  // measure 69
0001
0100
0010
1000
,  // measure 70
0002
0000
0010
0000
,  // measure 71
0023
0000
0100
0000
,  // measure 72
0230
0000
1000
0000
,  // measure 73
1300
0100
0010
0001
,  // measure 74
1000
0000
0000
0010
0000
0000
0010
0000
,  // measure 75
0100
0001
1000
0100
,  // measure 76
0010
0000
0000
0001
0000
0000
0001
0000
,  // measure 77
1000
0010
0100
0001
,  // measure 78
2000
0000
0100
0000
,  // measure 79
3200
0000
0010
0000
,  // measure 80
0310
0000
0001
0000
,  // measure 81
2000
0000
0000
0000
,  // measure 82
3010
0000
0000
0000
,  // measure 83
0100
0000
0000
0000
,  // measure 84
0001
0000
0000
0000
,  // measure 85
1000
0000
0000
0000
,  // measure 86
0100
0000
0000
0000
,  // measure 87
0010
0000
0000
0000
,  // measure 88
0001
0000
0000
0000
,  // measure 89
1000
0000
0000
0000
,  // measure 90
0010
0000
0000
0000
;
