#TITLE:0.1 [OP] 法界の火 ~ Flame for Puja;
#SUBTITLE:曼衍珠汝華 ~ Nada Upasana Pundarika;
#ARTIST:Demetori;
#TITLETRANSLIT:0.1 [OP] Fires of Hokkai ~ Flame for Puja;
#SUBTITLETRANSLIT:Manenjushaka ~ Nada Upasana Pundarika;
#ARTISTTRANSLIT:Demetori;
#GENRE:Itsugo15 SimifileS 1-30;
#CREDIT:Itsugo15;
#BANNER:Fires of Hokkai ~ Flame for Puja-bn.jpg;
#JACKET:Fires of Hokkai ~ Flame for Puja-Jacket.jpg;
#BACKGROUND:Fires of Hokkai ~ Flame for Puja-bg.jpg;
#LYRICSPATH:Fires of Hokkai ~ Flame for Puja.lrc;
#CDTITLE:Itsugo15 SimifileS.png;
#MUSIC:Fires of Hokkai ~ Flame for Puja.mp3;
#OFFSET:-2.386;
#SAMPLESTART:35.025;
#SAMPLELENGTH:30.000;
#SELECTABLE:YES;
#LISTSORT:;
#DISPLAYBPM:125.000;
#BPMS:0.000=125.000,4.000=250.000,64.000=125.000,66.000=62.500,82.000=125.000,144.500=250.000,147.500=125.000,178.000=250.000,181.000=62.500,197.250=10.000,197.500=200.000;
#STOPS:;
#TICKCOUNT:0.000=6;
#BGCHANGES:4.000=Fires of Hokkai ~ Flame for Puja-bg1.jpg=1.000=1=1=0,
33.000=Fires of Hokkai ~ Flame for Puja-bg4.jpg=1.000=1=1=0,
64.000=Fires of Hokkai ~ Flame for Puja-bg3.jpg=1.000=1=1=0,
72.000=Fires of Hokkai ~ Flame for Puja-bg2.jpg=1.000=1=1=0,
82.000=Fires of Hokkai ~ Flame for Puja-bg5.jpg=1.000=1=1=0,
94.000=Fires of Hokkai ~ Flame for Puja-bg6.jpg=1.000=1=1=0,
98.000=Fires of Hokkai ~ Flame for Puja-bg7.jpg=1.000=1=1=0,
114.000=Fires of Hokkai ~ Flame for Puja-bg8.jpg=1.000=1=1=0,
130.000=Fires of Hokkai ~ Flame for Puja-bg1.jpg=1.000=1=1=0,
144.500=Fires of Hokkai ~ Flame for Puja-bg5.jpg=1.000=0=1=0,
147.500=Fires of Hokkai ~ Flame for Puja-bg6.jpg=1.000=1=1=0,
163.500=Fires of Hokkai ~ Flame for Puja-bg5.jpg=1.000=1=1=0,
178.000=Fires of Hokkai ~ Flame for Puja-bg2.jpg=1.000=0=1=0,
181.000=Fires of Hokkai ~ Flame for Puja-bg9.jpg=1.000=1=1=0,
189.000=Fires of Hokkai ~ Flame for Puja-bg10.jpg=1.000=1=1=0,
197.250=Fires of Hokkai ~ Flame for Puja-bg.jpg=1.000=0=1=0,
99999=-nosongbg-=1.000=0=0=0 // don't automatically add -songbackground-
;
#KEYSOUNDS:;
#ATTACKS:;

//---------------dance-single - Itsugo15----------------
#NOTES:
     dance-single:
     Itsugo15:
     Challenge:
     11:
     0.548,0.824,0.514,0.121,1.000:
0000
0000
0000
0000
,
0002
0000
0000
0000
,
MMM0
0M00
0M00
0M00
MMM0
0000
MMM0
0M00
0M00
0M00
0000
MMM0
M000
MMM0
00M0
MMM0
,
0000
M0M0
M0M0
M0M0
MMM0
0000
MMM0
M000
MMM0
M0M0
MMM0
0000
MMM0
M0M0
M0M0
M0M0
,
MMM0
0000
0M00
MM00
0M00
0M00
MMM0
0000
MMM0
M000
MMM0
00M0
MMM0
0000
0000
0000
,
MMM0
M000
MMM0
00M0
MMM0
0000
MMM0
0M00
0M00
0M00
MMM0
0000
MMM0
MMM0
M0M0
M0M0
,
M0M0
0000
MMM0
0M00
0M00
0M00
MMM0
0000
MMM0
M000
MM00
M000
M000
0000
MMM0
0M00
,
0M00
0M00
MMM0
0000
M000
M000
M000
M000
MMM0
0000
MMM0
M000
MM00
M000
MMM0
0000
,
MMM0
M000
MMM0
00M0
2MM0
0000
0000
0000
3M00
MM00
0M00
0M00
MMM0
0000
MMM0
M000
,
MMM0
00M0
MMM0
0000
MMM0
0M00
0M00
0M00
0M00
0000
MMM0
M0M0
MMM0
M000
M000
0000
,
MMM0
M0M0
MMM0
M0M0
M0M0
0000
MMM0
M000
M000
M000
MMM0
0000
M0M0
M000
MM00
M000
,
M0M0
0000
0M00
MM00
0M00
0M00
MMM0
0000
0000
0000
MMM0
0000
0000
0000
MMM0
00M0
,
0MM0
00M0
MMM0
0000
MMM0
M0M0
M0M0
M0M0
MMM0
0000
M000
0M00
00M0
0M00
M000
0M00
,
00M0
0M00
M000
00M0
0M00
M000
0M00
00M0
0M00
M000
0M00
00M0
M000
0M00
00M0
M000
,
0M00
0000
00M0
0000
M000
0000
0M00
0000
00M0
0000
M000
0000
0M00
0000
00M0
0000
M000
0000
0M00
0000
00M0
M000
0M00
00M0
M000
0M00
00M0
M000
0M00
00M0
M000
0M00
,
00M0
0000
M000
0000
0M00
0000
00M0
M000
0M00
00M0
M000
0M00
00M0
M000
0M00
00M0
M000
0M00
00M0
M000
0M00
00M0
M000
0M00
00M0
M000
0M00
00M0
M000
0M00
00M0
M000
0M00
00M0
M000
0M00
00M0
M000
0M00
00M0
M000
0M00
00M0
M000
0M00
00M0
M000
0M00
00M0
M000
0M00
00M0
M000
0M00
00M0
M000
0M00
00M0
M000
0M00
00M0
M000
0M00
00M0
,
1003
0000
0000
0000
0001
0000
0000
0000
1000
0010
0100
1000
0100
0010
1000
0100
,
0000
0001
0100
0010
0001
0100
0010
1000
0001
0010
1000
0010
0100
1000
0001
0100
,
0020
1000
1000
1000
2030
0001
0001
0001
3100
0010
1000
0010
0100
1000
0001
0100
,
0000
0010
1000
0100
0001
0100
0010
0001
1000
0100
0010
0100
1000
0010
0100
1000
,
0000
0100
0001
1000
0100
0001
0100
1000
4100
0000
0100
0000
0001
0000
0001
0000
,
0010
0010
0001
0001
0000
0010
0010
0010
,
0001
0001
0100
0100
0001
0001
0010
0010
,
0100
0100
0001
0010
3400
1000
1000
0010
,
0340
0100
0001
0001
0034
0010
1000
1000
,
0100
0100
1000
1000
0000
0100
0100
0100
,
1000
1000
0010
0010
1000
1000
0100
0100
,
0010
0010
1000
0100
0013
0100
1000
0010
,
0100
0001
1000
0001
1001
1001
0001
0100
,
0101
0100
0010
1000
1010
1010
1000
0001
,
1001
0001
0010
0100
0110
0110
0100
1000
,
1100
1000
0001
0100
0101
0101
0001
1000
,
4001
0100
0001
3100
1001
1001
1000
0010
,
1010
0010
0100
0001
0101
0101
0001
1000
,
1001
1000
0100
0010
0110
0110
0010
0001
,
0011
0000
0000
0001
0000
0000
1000
0000
0000
0010
0000
0000
1010
0000
0000
1010
0000
0000
1000
0000
0000
0001
0010
0100
,
1000
0000
210M
00M0
0M00
000M
00M0
0M00
000M
00M0
0M00
000M
30M0
0000
1100
0000
,
1010
0010
0001
0011
0010
0100
0001
0101
,
1001
0100
0001
0101
0100
0010
0001
0011
,
1001
0100
1000
1100
0100
0010
1000
1010
,
1001
0100
0010
0014
1000
0100
1003
0011
,
0101
0100
1000
1100
0100
0010
1000
1010
,
1001
0010
1000
1010
0010
0100
1000
1100
,
1001
0010
0001
0011
0010
0100
0001
0101
,
1001
0000
0000
0000
0000
0000
0001
0000
0000
0000
0000
0000
1000
0000
0100
0000
0010
0000
0001
0000
0000
0000
0000
0000
M012
0000
0000
0M00
0000
0000
00M0
0000
0000
M000
0000
0000
0M00
0000
0000
00M0
0000
0000
M000
0000
0000
0M00
0000
0000
,
10M3
0000
0000
0000
0001
0001
0010
1000
0010
0001
1000
0010
0000
0001
0010
1000
,
0001
0100
0010
1000
0100
0100
0010
0001
0100
0010
1000
0100
0000
0001
0100
0010
,
0001
0100
0010
1000
0100
0100
0010
1000
0010
0001
1000
0010
0000
0100
0001
0100
,
1000
0100
0001
1000
0100
0100
0010
0001
0100
0010
1000
0100
0000
0010
0001
0010
,
1000
0010
0001
1000
1001
1001
0MM0
0MM0
MMMM
0MM0
0000
0000
0000
0000
0000
0000
;

//---------------dance-single - Itsugo15----------------
#NOTES:
     dance-single:
     Itsugo15:
     Hard:
     7:
     0.381,0.771,0.111,0.141,0.317: // measure 1
0000
0000
0000
0000
,  // measure 2
0002
0000
0000
0000
,  // measure 3
0000
0000
0000
0000
,  // measure 4
0000
0000
0000
0000
,  // measure 5
0000
0000
0000
0000
,  // measure 6
0000
0000
0000
0000
,  // measure 7
0000
0000
0000
0000
,  // measure 8
0000
0000
0000
0000
,  // measure 9
0000
2003
0000
0000
,  // measure 10
0000
0000
0000
0000
,  // measure 11
0000
0000
0000
0000
,  // measure 12
0000
0000
0000
0000
,  // measure 13
0000
0000
0000
0000
,  // measure 14
0000
0000
0000
0000
,  // measure 15
0000
0000
0000
0000
,  // measure 16
0000
0000
0000
0000
,  // measure 17
3001
0000
0000
0000
1000
0000
0000
0000
0010
1000
0010
1000
0010
1000
0100
0010
,  // measure 18
0000
0001
0010
0001
0010
0001
1000
0001
0100
0010
1000
0010
1000
0010
0100
0001
,  // measure 19
2000
0000
3100
0010
0002
0000
1003
0010
0100
0010
0100
0010
0100
0010
1000
0001
,  // measure 20
0000
1000
0001
1000
0001
1000
0001
0010
0100
1000
0100
1000
0100
0010
0001
1000
,  // measure 21
0000
0010
0100
0001
1000
0100
0010
0001
2000
0000
0000
0000
0010
0000
0000
0000
,  // measure 22
0001
0100
0010
0100
,  // measure 23
0001
0010
0001
0100
,  // measure 24
0010
0100
3002
0103
,  // measure 25
0020
1030
0002
0010
,  // measure 26
1000
0100
0010
0100
,  // measure 27
1000
0010
1000
0100
,  // measure 28
0010
0100
1000
0100
,  // measure 29
0010
0000
1003
0000
1001
1000
0100
0000
,  // measure 30
0010
0000
0001
0000
0011
0001
1000
0000
,  // measure 31
0010
0000
0100
0000
0110
0100
0001
0000
,  // measure 32
1000
0000
0100
0000
1100
1000
0001
0000
,  // measure 33
1002
1000
2000
3003
0101
0001
0100
0000
,  // measure 34
0010
0000
1000
0000
1010
1000
0001
0000
,  // measure 35
0010
0000
0100
0000
0110
0100
1000
0000
,  // measure 36
0001
0000
0100
0000
0101
0100
0010
0000
,  // measure 37
1010
0002
0000
0000
0000
0000
0000
1003
,  // measure 38
0001
1000
0000
0100
0000
0010
0000
0001
,  // measure 39
0010
0001
0000
1000
0000
0010
0000
0100
,  // measure 40
0010
0100
0000
0001
0000
1000
0000
0100
,  // measure 41
1000
0100
0000
0020
0001
0001
0001
0031
,  // measure 42
1000
0010
0000
0001
0000
0010
0000
1000
,  // measure 43
0001
0010
0000
1000
0000
0010
0000
0100
,  // measure 44
1000
0001
0000
0100
0000
1000
0000
0100
,  // measure 45
0001
1000
0000
1010
0002
0000
0000
0000
,  // measure 46
0000
0000
0000
0000
1003
0001
1000
0001
1000
0001
0100
0010
0000
1000
0010
1000
,  // measure 47
0001
1000
0100
1000
0001
1000
0001
1000
0001
1000
0100
0010
0000
0001
0010
0001
,  // measure 48
1000
0001
0100
0001
1000
0100
0010
0001
0010
0100
1000
0001
0000
0100
0010
0100
,  // measure 49
1000
0100
0010
0100
0001
0100
0010
1000
0010
0100
0001
1000
0000
0100
0010
0100
,  // measure 50
0001
0000
0100
0000
0010
0000
0100
0000
1000
0000
0002
0003
M00M
0000
0000
0000
0000
0000
0000
0000
0000
0000
0000
0000
0000
0000
0000
0000
0000
0000
0000
0000
;

//---------------dance-single - Itsugo15----------------
#NOTES:
     dance-single:
     Itsugo15:
     Medium:
     5:
     0.343,0.572,0.030,0.111,0.166:
0000
0000
0000
0000
,
0002
0000
0000
0000
,
0000
0000
0000
0000
,
0000
0000
0000
0000
,
0000
0000
0000
0000
,
0000
0000
0000
0000
,
0000
0000
0000
0000
,
0000
0000
0000
0000
,
0000
2000
3000
0000
,
0000
0000
0000
0000
,
0000
0000
0000
0000
,
0000
0000
0000
0000
,
0000
0000
0000
0000
,
0000
0000
0000
0000
,
0000
0000
0000
0000
,
0000
0000
0000
0000
,
1003
0000
0000
0000
0001
0000
0000
0000
0010
0001
0010
0001
0010
0001
0010
0100
,
0000
0000
0100
0000
1000
0000
0001
0000
0100
0001
0100
0001
0100
0001
0100
0010
,
1000
0000
0010
0000
1000
0000
0100
0000
0010
0100
0010
0100
0010
0100
0010
0001
,
0000
0000
0001
0000
0010
0000
0100
0000
1000
0001
1000
0001
1000
0001
1000
0010
,
0000
0010
1000
0001
1000
0100
1000
0100
,
1000
0100
1000
0010
0000
0000
0010
0000
,
0100
0000
0001
0000
0100
0001
0100
0001
,
0100
0001
0100
0010
2000
0000
3100
0010
,
0002
0000
0010
0010
0013
0001
0010
0001
,
0010
0001
1000
0010
0000
0000
0010
0000
,
0100
0000
0001
0000
1000
0001
1000
0001
,
1000
0001
1000
0010
0000
0000
0010
0000
,
0100
0000
0001
0000
1000
1000
0001
0000
,
0100
0000
0010
0000
1000
1000
0100
0000
,
0010
0000
0001
0000
0100
0100
0010
0000
,
1000
0000
0001
0000
0010
0010
0100
0000
,
1000
2000
3002
0000
0103
0100
0010
0000
,
1000
0000
0100
0000
0010
0010
0001
0000
,
1000
0000
0010
0000
0100
0100
0001
0000
,
1000
0000
0100
0000
0010
0010
0001
0000
,
1100
0002
0000
0000
0000
0000
0000
1003
,
0010
0100
0000
0001
0000
0100
0000
0010
,
1000
0100
0000
0010
0000
0001
0000
1000
,
0010
0100
0000
0001
0000
1000
0000
0100
,
0010
0002
0000
1000
1000
2000
3003
1001
,
0001
1000
0000
0010
0000
0100
0000
0001
,
0100
0010
0000
1000
0000
0100
0000
0010
,
0001
1000
0000
0010
0000
0100
0000
0001
,
1000
0100
0000
1100
0002
0000
0000
0000
,
0000
0000
0000
0000
1003
0001
1000
0001
1000
0001
1000
0010
0000
0000
0010
0000
,
1000
0000
0100
0000
1000
0100
1000
0100
1000
0100
0010
0001
0000
0000
0001
0000
,
0100
0000
0001
0000
0100
0001
0100
0001
0100
0001
0100
0010
0000
0000
0010
0000
,
1000
0000
0001
0000
1000
0001
1000
0001
1000
0001
0010
0100
0000
0000
0100
0000
,
1000
0000
0001
0000
0100
0020
0030
0000
0000
0000
0000
0000
0000
0000
0000
0000
;

//---------------dance-single - Itsugo15----------------
#NOTES:
     dance-single:
     Itsugo15:
     Easy:
     3:
     0.099,0.149,0.010,0.101,0.025:
0000
0000
0000
0000
,
0001
0000
0000
0000
,
0000
0000
0000
0000
,
0000
0000
0000
0000
,
0000
0000
0000
0000
,
0000
0000
0000
0000
,
0000
0000
0000
0000
,
0000
0000
0000
0000
,
0000
2000
3000
0000
,
0000
0000
0000
0000
,
0000
0000
0000
0000
,
0000
0000
0000
0000
,
0000
0000
0000
0000
,
0000
0000
0000
0000
,
0000
0000
0000
0000
,
0000
0000
0000
0000
,
0002
0000
1003
0000
,
0010
0000
0100
0000
,
0001
1000
0100
0000
,
0010
0000
0001
0000
,
1000
0000
2002
0000
,
0000
0000
0000
0000
,
0000
0000
0000
0000
,
3000
0000
1003
0000
,
0020
0000
0200
0000
,
0000
0000
0000
0000
,
0000
0000
0000
0000
,
0000
0000
0000
0000
,
0030
0000
0310
0000
,
1000
0000
0100
0000
,
0010
0000
0001
0000
,
1000
0000
0010
0000
,
0200
0000
0301
0000
,
0100
0000
1000
0000
,
0100
0000
0001
0000
,
0010
0000
0100
0000
,
2000
0000
0000
0000
0000
0000
0000
3001
,
0000
0000
0000
0010
0000
0000
0000
0100
,
0000
0000
0000
1000
0000
0000
0000
0001
,
0000
0000
0000
0100
0000
0000
0000
0010
,
0000
0000
0000
2000
0000
0000
0000
3010
,
0000
0000
0000
0001
0000
0000
0000
0010
,
0000
0000
0000
1000
0000
0000
0000
0100
,
0000
0000
0000
0010
0000
0000
0000
0001
,
0000
0000
0000
2000
0000
0000
0000
0000
,
0000
0000
0000
0000
3001
1000
0000
0000
0000
0000
0000
0000
0000
0000
0000
0000
,
0000
0000
0000
0000
0010
0100
0000
0000
0000
0000
0000
0000
0000
0000
0000
0000
,
0000
0000
0000
0000
0001
1000
0000
0000
0000
0000
0000
0000
0000
0000
0000
0000
,
0000
0000
0000
0000
0100
0010
0000
0000
0000
0000
0000
0000
0000
0000
0000
0000
,
0000
0000
0000
0000
0001
1000
0000
0000
0000
0000
0000
0000
0000
0000
0000
0000
;

//---------------dance-single - Itsugo15----------------
#NOTES:
     dance-single:
     Itsugo15:
     Beginner:
     1:
     0.078,0.124,0.020,0.151,0.000:
0000
0000
0000
0000
,
0001
0000
0000
0000
,
0000
0000
0000
0000
,
0000
0000
0000
0000
,
0000
0000
0000
0000
,
0000
0000
0000
0000
,
0000
0000
0000
0000
,
0000
0000
0000
0000
,
0000
0000
0000
0000
,
0000
0000
0000
0000
,
0000
0000
0000
0000
,
0000
0000
0000
0000
,
0000
0000
0000
0000
,
0000
0000
0000
0000
,
0000
0000
0000
0000
,
0000
0000
0000
0000
,
2000
0000
3100
0000
,
0000
0000
0010
0000
,
0001
1000
0010
0000
,
0000
0000
0100
0000
,
0000
0000
0220
0000
,
0000
0000
0000
0000
,
0000
0000
0000
0000
,
0330
0000
0001
0000
,
2000
3000
2002
0000
,
0000
0000
0000
0000
,
0000
0000
0000
0000
,
0000
0000
0000
0000
,
3003
0000
1000
0000
,
0000
0000
0100
0000
,
0000
0000
0010
0000
,
0000
0000
0001
0000
,
2000
0000
3001
0000
,
0000
0000
0100
0000
,
0000
0000
0010
0000
,
0000
0000
1000
0000
,
0002
0000
0000
0000
0000
0000
0000
1003
,
0000
0000
0000
0000
0000
0000
0000
0100
,
0000
0000
0000
0000
0000
0000
0000
0010
,
0000
0000
0000
0000
0000
0000
0000
0001
,
0000
0000
0000
2000
0000
0000
0000
3001
,
0000
0000
0000
0000
0000
0000
0000
0100
,
0000
0000
0000
0000
0000
0000
0000
0010
,
0000
0000
0000
0000
0000
0000
0000
1000
,
0000
0000
0000
0002
0000
0000
0000
0000
,
0000
0000
0000
0000
2003
3000
0000
0000
0000
0000
0000
0000
0000
0000
0000
0000
,
0000
0000
0000
0000
0200
0300
0000
0000
0000
0000
0000
0000
0000
0000
0000
0000
,
0000
0000
0000
0000
0002
0003
0000
0000
0000
0000
0000
0000
0000
0000
0000
0000
,
0000
0000
0000
0000
0020
0030
0000
0000
0000
0000
0000
0000
0000
0000
0000
0000
,
0000
0000
0000
0000
2000
3000
0000
0000
0000
0000
0000
0000
0000
0000
0000
0000
;
