#TITLE:Fast Forward;
#SUBTITLE:ぬらりひょんの孫 1st Opening;
#ARTIST:MONKEY MAJIK;
#TITLETRANSLIT:Fast Forward;
#SUBTITLETRANSLIT:Nurarihyon no Mago 1st Opening;
#ARTISTTRANSLIT:Monkey Majik;
#GENRE:Anime;
#CREDIT:Itsugo15;
#MENUCOLOR:;
#BANNER:Fast Forward-bn.jpg;
#BACKGROUND:Fast Forward-bg1.jpg;
#LYRICSPATH:Fast Forward.lrc;
#CDTITLE:Itsugo15 SimifileS.png;
#MUSIC:Fast Forward.mp3;
#OFFSET:0.275;
#SAMPLESTART:41.334;
#SAMPLELENGTH:30.000;
#SELECTABLE:YES;
#LISTSORT:;
#DISPLAYBPM:137.000;
#BPMS:0.000=137.000,36.000=68.500,68.000=137.000,94.000=137.020,108.000=68.500,110.000=137.000,142.000=68.500,144.000=137.000,172.000=68.500,175.000=34.250,177.000=17.125;
#STOPS:;
#TICKCOUNT:0.000=8;
#BGCHANGES:2.000=Fast Forward.avi=1.000=1=1=0,
170.000=Fast Forward-bg1.jpg=1.000=1=1=0,
175.000=Fast Forward-bg2.jpg=1.000=1=1=0,
99999=-nosongbg-=1.000=0=0=0 // don't automatically add -songbackground-
;
#KEYSOUNDS:;
#ATTACKS:;

//---------------dance-single - Heavy Itsugo15----------------
#NOTES:
     dance-single:
     Heavy Itsugo15:
     Hard:
     8:
     0.475,0.535,0.277,0.286,0.319:
0000
0000
0000
0000
,
1000
0001
0010
0100
1000
1000
0100
0100
,
0010
0100
1000
0100
0010
0100
1000
0000
,
0001
1000
0010
0100
0001
0001
0100
0100
,
0010
0100
0001
0100
0010
0100
0001
0000
,
0100
0010
1000
0001
0001
0001
0001
0010
,
0100
0010
0001
1000
1000
1000
0100
0010
,
0100
0100
1000
1000
0001
0001
0100
0010
,
0110
0110
0000
0000
1001
1001
1000
0002
,
0000
0013
0001
0010
0000
0001
0010
0100
0000
0110
0000
1100
0000
0100
1000
0100
,
0000
1000
0001
0100
0000
0001
0100
0010
0000
0010
0100
0001
0000
1000
0100
0010
,
0000
0100
1000
0002
0000
0103
0010
0200
0000
0000
0000
0302
0000
0103
0001
1000
,
0002
0000
0003
1001
0000
0001
1000
0000
1000
0001
0000
1000
0000
1000
0100
0010
,
0000
0001
0010
0001
0000
0010
0100
1000
0000
1100
0000
1001
0000
1000
0001
0100
,
0000
0001
0100
0002
0000
0203
0000
0320
0000
1000
0000
1030
0000
0001
0010
0100
,
0000
1000
0010
0100
0000
0001
0100
0002
0000
1000
0000
1003
0000
1000
0001
1000
,
0002
0000
0000
0200
0000
0303
0000
0001
0100
0010
0000
1000
0000
0001
1000
0000
,
1001
0000
1001
0000
1001
0000
0001
1000
,
0010
0100
0010
1000
0001
1000
0100
0010
,
0110
0000
0110
0000
0110
0000
0010
0001
,
1000
0001
0010
0100
1000
0100
0010
0001
,
0011
0000
0011
0000
0011
0000
0001
0010
,
0100
0010
0001
1000
0100
0010
0100
1000
,
1100
0000
0101
0000
1100
0000
0100
1000
,
0001
1001
0000
0101
0000
1010
0010
0000
,
0120
0000
0200
0030
0010
0000
0020
0300
,
1000
0000
2000
0030
0001
3000
2002
3003
,
2002
0000
0000
3003
0001
1000
0001
1000
,
0001
0000
1000
0000
0001
1000
0001
1000
0002
0000
0000
0000
0023
0000
0000
0000
,
0230
0000
1300
0001
0100
2000
0000
3100
,
0000
0001
1000
0000
0001
0010
0100
1000
,
0000
0100
0010
0001
1000
0100
0010
0100
,
0000
1000
0001
0100
0000
0010
1000
0002
,
0000
0000
0013
0100
0000
0010
0001
2000
,
0000
3000
0000
0001
2000
0000
0000
0002
,
0000
0000
0000
0000
0000
0000
3003
0000
1000
0100
0010
0001
0010
0100
1000
0001
,
1001
0000
1001
0000
0001
1000
0010
0000
,
0100
0010
0000
0110
0000
0010
1000
0000
,
0001
0100
0010
1000
0001
0000
1000
0100
,
0010
0100
1000
0001
0000
0100
0010
1000
,
0000
0010
0100
0002
0000
0000
1003
0100
,
0000
0010
0001
2000
0000
0000
3001
1000
,
0000
0001
1000
0001
0000
1000
0000
0100
,
0000
0000
0010
0000
0000
0000
0001
0000
0000
0000
0000
0000
0000
0000
2000
0000
0000
0000
0000
0000
3000
0000
0000
0000
0010
0000
0000
0100
0000
0000
0002
0000
,
0000
0000
0003
0000
;

//---------------dance-single - Medium Itsugo15----------------
#NOTES:
     dance-single:
     Medium Itsugo15:
     Medium:
     6:
     0.309,0.307,0.139,0.240,0.018: // measure 1
0000
0000
0000
0000
,  // measure 2
1000
0001
1000
0000
0010
1000
0010
0000
,  // measure 3
0100
0001
1000
0100
,  // measure 4
1000
0100
1000
0000
0100
0010
0100
0000
,  // measure 5
0010
0001
1000
0001
,  // measure 6
1000
0000
1000
0000
0001
1000
0001
1000
,  // measure 7
0001
0000
0001
0000
1000
0001
1000
0001
,  // measure 8
1000
0010
0100
0001
,  // measure 9
0202
0303
2002
3003
,  // measure 10
1000
0001
0010
0100
,  // measure 11
0010
0001
1000
0100
,  // measure 12
0010
0100
2000
3001
,  // measure 13
2000
0000
3001
0010
,  // measure 14
0001
1000
0100
0010
,  // measure 15
0100
1000
0001
0010
,  // measure 16
0100
0010
0002
1003
,  // measure 17
0002
0000
1003
0010
,  // measure 18
2010
0010
3010
1000
,  // measure 19
1000
0001
0001
0010
,  // measure 20
0012
0010
0013
0001
,  // measure 21
0001
1000
1000
0100
,  // measure 22
2100
0001
0100
3001
,  // measure 23
0100
0010
1000
0001
,  // measure 24
1001
0000
1001
0000
1001
0000
0001
1000
,  // measure 25
0001
2000
0000
0001
0000
3001
1000
0000
,  // measure 26
2002
0000
0000
0000
,  // measure 27
3003
0000
0001
0000
1000
0100
0010
0001
,  // measure 28
2000
0000
0001
0001
,  // measure 29
0001
0000
0000
0000
0002
0000
0000
3003
1001
0000
0000
0000
1001
0000
0000
0000
,  // measure 30
1001
0000
1000
0001
1000
0002
0000
0100
,  // measure 31
0000
0000
1003
0000
0001
1000
0001
2000
,  // measure 32
0000
0010
3100
0010
1000
0001
0100
0010
,  // measure 33
0000
0100
0010
1000
0000
0010
1000
0020
,  // measure 34
0000
0000
0130
0001
0000
0100
0001
0200
,  // measure 35
0000
0000
0000
0000
0302
0000
0000
2000
,  // measure 36
0000
0000
0000
0000
0000
0000
0000
3003
1000
0000
1000
0000
0001
0000
0001
0000
,  // measure 37
1001
0000
1001
0000
1001
0000
0001
1000
,  // measure 38
0001
2000
0000
0010
0000
0000
3001
0000
,  // measure 39
1000
0001
1000
0001
0010
0100
0010
0100
,  // measure 40
0010
0001
1000
0100
0000
1000
0001
0100
,  // measure 41
0000
0001
0100
0002
0000
0000
0103
0010
,  // measure 42
0000
1000
0010
1000
0000
0000
0001
0000
,  // measure 43
0001
1000
1000
0001
,  // measure 44
0020
0000
0000
0000
0030
0000
0100
0000
0000
0000
0000
0000
0000
0000
1000
0000
0000
0000
0000
0000
0000
0000
0000
0000
0001
0000
0000
1000
0000
0000
0002
0000
,  // measure 45
0000
0003
0000
0000
;

//---------------dance-single - Light Itsugo15----------------
#NOTES:
     dance-single:
     Light Itsugo15:
     Easy:
     4:
     0.125,0.141,0.037,0.111,0.000:
0000
0000
0000
0000
,
1000
0000
0001
0000
,
1000
0000
0000
0000
,
0010
0000
1000
0000
,
0010
0000
0000
0000
,
0100
0000
0001
0000
,
0100
0000
0000
0000
,
0010
0000
0100
0000
,
0010
0000
0010
0000
,
0100
0000
0000
0000
,
0001
0000
0000
0000
,
1000
0000
0000
0000
,
0001
0000
0001
0000
,
0010
0000
0000
0000
,
0100
0000
0000
0000
,
1000
0000
0000
0000
,
0001
0000
0000
0000
,
1001
1000
1000
0001
,
0000
0100
0000
0010
,
0110
0010
0010
1000
,
0000
0001
0000
0010
,
0011
0001
0001
1000
,
0000
0100
0000
0020
,
0000
0001
0031
0000
,
0001
0000
1000
0000
,
0020
0000
0000
0000
,
0000
0000
1030
2000
,
0002
3000
1003
0000
,
0001
0000
1001
0000
,
0001
0000
2000
0000
,
0010
3010
0100
0000
,
0001
0000
0100
0000
,
0010
0000
2000
0000
,
0000
0000
3002
0000
,
0000
0000
1003
0000
,
0001
0000
0200
0000
,
0301
0000
0010
0000
,
0002
0000
0100
0103
,
0010
0000
1000
0000
,
0010
0000
0100
0000
,
0002
0000
0000
0000
,
2003
0000
0000
0000
,
3001
0000
1000
0000
,
0002
0000
0000
1003
;

//---------------dance-single - Beginner Itsugo15----------------
#NOTES:
     dance-single:
     Beginner Itsugo15:
     Beginner:
     2:
     0.081,0.101,0.046,0.037,0.000:
0000
0000
0000
0000
,
1000
0000
0000
0000
,
0000
0000
0000
0000
,
0001
0000
0000
0000
,
0000
0000
0000
0000
,
0010
0000
0000
0000
,
0000
0000
0000
0000
,
0100
0000
0000
0000
,
1000
0000
0000
0000
,
0001
0000
0000
0000
,
0001
0000
0000
0000
,
1000
0000
0000
0000
,
1000
0000
0000
0000
,
0010
0000
0000
0000
,
0010
0000
0000
0000
,
0100
0000
0000
0000
,
0100
0000
0000
0000
,
0110
0000
0000
0000
,
0010
0000
1000
0000
,
0001
0000
0000
0000
,
0001
0000
1000
0000
,
0100
0000
0000
0000
,
0010
0000
0001
0000
,
1000
0000
0100
0000
,
0010
0000
0100
0000
,
0110
0000
0000
0000
,
0000
0000
0000
0000
,
2002
0000
3003
0000
,
0000
0000
1001
0000
,
1000
0000
0010
0000
,
0000
0000
0100
0000
,
0001
0000
1000
0000
,
0000
0000
0100
0000
,
0100
0000
0010
0000
,
0010
0000
0002
0000
,
0000
0000
0003
0000
,
1001
0000
0001
0000
,
0100
0000
0000
0000
,
0010
0000
1000
0000
,
0001
0000
0000
0000
,
0010
0000
0010
0000
,
0100
0000
0100
0000
,
2000
0000
0000
0000
,
3001
0000
0000
1000
;

//---------------dance-single - Challenge Itsugo15----------------
#NOTES:
     dance-single:
     Challenge Itsugo15:
     Challenge:
     10:
     0.582,0.613,0.360,0.360,0.416:
0000
0000
0000
0000
,
0001
1000
0010
0100
0100
0010
1000
1000
,
0010
0001
0010
1000
0001
0010
0100
1000
,
1100
1000
0100
0010
0010
0100
1000
1000
,
0100
0001
0100
1000
0100
0010
0001
1000
,
1001
1001
1000
0001
0001
0001
0001
0001
,
1001
1001
0001
1000
1000
1000
1000
1000
,
1010
0001
0011
1000
1100
0001
0101
1000
,
1001
2002
0000
3003
1001
2002
3003
0001
,
1000
0000
0010
1000
0000
0000
0001
0000
0000
0000
1000
0000
0100
0000
0000
0000
1100
0000
0100
0010
0000
0000
0001
0000
0000
0000
0010
0000
0100
0000
0000
0000
,
0110
0000
0010
0100
0000
0000
1000
0000
0000
0000
0001
0000
1000
0000
0000
0000
1001
0000
0001
0100
0000
0000
0010
0000
0000
0000
1000
0000
0010
0000
0000
0000
,
1010
0000
0010
0100
0000
0000
0001
0000
0000
0000
1000
0000
0001
0000
0000
0000
1001
0000
0001
1000
0000
0000
0010
0000
0000
0000
0100
0000
0001
0000
0000
0000
,
0101
0000
0100
0010
0000
0000
1000
0000
0000
0000
0001
0000
0010
0000
0000
0000
0011
0000
0010
0001
0000
0000
1000
0000
0000
0000
0010
0000
0100
0000
0000
0000
,
0001
0000
0100
0001
0000
0000
1000
0000
0000
0000
0001
0000
0010
0000
0000
0000
0011
0000
0010
0100
0000
0000
1000
0000
0000
0000
0100
0000
0010
0000
0000
0000
,
0110
0000
0100
0010
0000
0000
0001
0000
0000
0000
1000
0000
0001
0000
0000
0000
1001
0000
1000
0010
0000
0000
0100
0000
0000
0000
0001
0000
0100
0000
0000
0000
,
0101
0000
0100
0010
0000
0000
1000
0000
0000
0000
0001
0000
1000
0000
0000
0000
1001
0000
1000
0001
0000
0000
0100
0000
0000
0000
0010
0000
1000
0000
0000
0000
,
1010
0000
0010
0100
0000
0000
0001
0000
0000
0000
1000
0000
0100
0000
0000
0000
1100
0000
1000
0100
0000
0000
0010
0000
0000
0000
0100
0000
1000
0000
0001
0000
,
1001
0000
0001
0000
0100
0000
0010
0000
1000
0010
1000
0010
1000
0000
0001
0000
,
1000
0000
0100
0000
0010
0000
0100
0000
1000
0100
1000
0100
1000
0000
0001
0000
,
0010
0000
0100
0000
1000
0000
0100
0000
0010
0001
0010
0100
0010
0000
0001
0000
,
1000
0000
0100
0000
0010
0000
0100
0000
1000
0001
0010
0100
1000
0000
0001
0000
,
0100
0000
0010
0000
1000
0000
0010
0000
0100
0001
0100
0001
0100
0000
0010
0000
,
1000
0000
0001
0000
0010
0000
0100
0000
1000
0100
1000
0100
1000
0000
0001
0000
,
1001
0000
0001
1000
0001
0000
0100
0000
0000
0000
0101
0000
1010
0000
0000
0000
,
0001
0000
1000
0001
1000
0000
0100
0000
0000
0000
1100
0000
0011
0000
0000
0000
,
1002
1000
1000
1003
2001
0001
0001
3001
,
0102
0100
0100
0103
0210
0010
0010
0310
,
2002
0000
0000
3003
0001
1000
0001
1000
,
0001
0000
0010
0000
0100
1000
0100
0010
0002
0000
0013
0000
0200
0000
1300
0000
,
0002
0103
0010
1000
0001
0100
0010
1000
,
0010
0010
0100
0100
0001
0100
0010
0220
,
0330
0010
1000
0001
0100
1000
0100
0001
,
0000
1000
0100
0020
0000
0031
0010
0200
,
0000
0000
1300
0002
0000
0103
0010
2000
,
0000
0001
3001
0001
2000
0000
0000
0002
,
0000
0000
0000
0000
0000
0000
3003
0000
1000
0100
0010
0100
1000
0001
0010
0100
,
2000
3100
0020
0031
2000
3010
0100
0001
,
1000
0010
0100
0001
0100
0100
0010
0010
,
1000
0010
0100
0001
0100
0001
1000
0001
,
0010
1000
0010
0002
0000
1003
0100
0020
,
0000
0031
0010
0200
0000
0000
1300
0002
,
0000
0103
0010
2000
0000
0001
3001
2000
,
0000
0001
3001
2000
0000
3002
0003
0020
,
0030
0000
0200
0000
0000
0000
2300
0000
0000
0000
0000
0000
3000
0000
0002
0000
0000
0000
0003
0000
0000
0000
0000
0000
0200
0000
0000
0020
0000
0000
2000
0000
,
0000
3330
0000
0000
;
