#TITLE:F.D.D.;
#SUBTITLE:カオス ヘッド;
#ARTIST:いとうかなこ;
#TITLETRANSLIT:F.D.D.;
#SUBTITLETRANSLIT:Chaos Head;
#ARTISTTRANSLIT:Itou Kanako;
#GENRE:Itsugo15 SimifileS 31-60;
#CREDIT:Itsugo15;
#MENUCOLOR:;
#BANNER:F.D.D.-bn.png;
#BACKGROUND:F.D.D.-bg.png;
#LYRICSPATH:F.D.D.lrc;
#CDTITLE:Itsugo15 SimifileS.png;
#MUSIC:F.D.D..ogg;
#OFFSET:-1.673;
#SAMPLESTART:53.385;
#SAMPLELENGTH:30.000;
#SELECTABLE:YES;
#LISTSORT:;
#BPMS:0.000=165.000,6.500=330.000,12.000=165.000,112.000=82.500,120.000=165.000,200.000=82.500,208.000=165.000;
#STOPS:6.500=0.100
,7.000=0.100
,8.500=0.100
,10.000=0.100
,10.500=0.100
;
#TICKCOUNT:0.000=6;
#BGCHANGES:4.500=Chaos Head.avi=1.000=0=1=1,
236.000=F.D.D.-bg2.jpg=1.000=1=1=0,
283.500=F.D.D.-bg.jpg=1.000=0=1=0,
99999=-nosongbg-=1.000=0=0=0 // don't automatically add -songbackground-
;
#KEYSOUNDS:;
#ATTACKS:;

//---------------dance-single - Itsugo----------------
#NOTES:
     dance-single:
     Itsugo:
     Challenge:
     10:
     0.735,0.825,0.707,0.412,0.291:
0000
0000
0000
0000
,
0000
0000
0000
0000
0000
1100
1MM1
0000
,
0000
0110
0000
0000
0101
1MM1
0000
0000
,
M11M
0000
0000
1001
0000
1000
0010
0100
,
0001
0000
0000
0011
0000
0100
1000
0010
,
0100
0001
0100
1000
0100
0010
1000
0010
,
0002
0000
0000
0000
0023
0000
0000
0000
1030
0000
0100
0000
0010
0100
0010
0100
,
0010
0000
0100
0000
0010
0000
0001
0010
0001
0000
1000
0000
0010
0000
0100
0010
,
0100
0000
0001
0000
1000
0000
0100
1000
0100
0000
0010
0000
0001
0000
1000
0001
,
1000
0000
0100
0000
0010
0000
0001
0010
0001
0000
0100
0000
0010
0000
0001
0000
,
1000
0000
0100
0000
0001
0000
1000
0000
0100
0010
0001
0100
0010
1000
0010
0100
,
0002
0000
0000
0000
0000
0000
0000
0000
0000
0000
0000
0000
0000
0000
0000
0003
,
1001
2000
0100
3010
0100
0002
0100
0103
,
0010
1000
0200
0001
0010
1300
0002
1000
,
1003
0010
0200
0001
0000
0010
0000
1000
,
0000
0000
0010
0000
0000
0000
0302
0000
0000
0000
2000
0000
0000
0000
0000
3003
,
1001
0002
0010
0103
0010
2000
0010
3010
,
0100
0001
0010
2000
0000
3010
0001
2000
,
3001
0100
0020
1000
0000
0100
0000
0001
,
0000
0100
0000
2030
0000
3001
1001
0000
,
1100
0100
1000
0020
0000
0031
0010
2000
,
0000
3001
0100
2000
0000
3200
0010
0310
,
1010
1000
0100
0002
0000
0103
1000
0020
,
0000
0031
1000
0100
0010
0220
0330
0010
,
1000
0000
0100
0000
0010
0001
0010
0000
0001
0000
1000
0000
0010
0100
0001
0000
,
1000
0000
0100
0000
1000
0100
1000
0000
0100
0000
0010
0000
0001
1000
0100
0000
,
1100
0000
0011
0000
0010
0001
1000
2002
,
0000
0000
0000
0000
0000
0000
0010
0000
0003
0000
0200
0000
0001
0000
0000
3300
,
1100
0000
0000
0000
1001
0000
0000
0001
0000
0000
0100
0000
0101
0000
0000
0000
,
0110
0000
0000
0000
1010
0000
0000
1000
0000
0000
0001
0000
1001
0000
0110
0000
,
1001
0000
0001
0000
1000
0000
0100
1000
0100
0000
1000
0000
0010
0000
0001
0000
,
0010
0000
0100
0000
0001
0000
1000
0100
0010
0000
0001
0000
1000
0000
0010
0100
,
0002
0000
0000
0113
,
1000
0010
0000
0100
0000
0001
0010
0000
,
1100
0000
0010
0000
0001
0000
0101
0000
0100
0000
0010
0000
,
1010
0000
1000
0000
0100
0000
0011
0000
0001
0000
1000
0000
,
1001
0000
1000
0010
0000
0100
1000
0100
,
0001
0000
0010
0100
0000
0001
0100
1000
,
1100
0000
1000
0000
0010
0000
1010
0000
0010
0000
0100
0000
,
0110
0000
0000
0000
0100
0000
0000
0000
0001
0000
0000
0000
0101
0000
0000
0000
0000
0000
1001
0000
0000
1000
0000
0000
,
0100
0001
0100
1000
0001
0100
0000
0010
,
1000
0000
0100
0000
0000
0000
0001
0000
0000
0000
0100
0010
0001
0010
0100
0010
,
0001
0000
0100
0000
1000
0000
0001
0000
1000
0000
0100
0000
,
0001
0000
1000
0000
0100
0000
0001
0000
1000
0000
0001
0000
,
0100
0000
0010
0001
0000
1000
0010
0100
,
0001
0000
0100
0010
0000
1000
0001
0010
,
0100
0000
1100
0000
1000
0000
0010
0000
1010
0000
0010
0000
,
0100
0000
0000
0000
0110
0000
0000
0000
0100
0000
0000
0000
0002
0000
0000
0000
0000
0000
1003
0000
0000
0002
0000
0000
,
0103
0000
0010
1000
0100
0001
0100
1000
,
0002
0000
0000
0000
0000
0000
0103
0001
0100
0000
0010
0000
1000
0000
0100
0000
,
2200
0000
0000
0000
3311
0000
0000
2002
0000
0000
0000
0000
3113
0000
0MM0
0000
,
0202
0000
0000
0000
1313
M000
0M00
00M0
0001
0010
0100
1000
0000
0010
0100
0000
,
0110
0000
0000
0000
0101
0000
0100
0001
0100
0000
0001
0000
0010
0000
0100
0000
,
0110
0000
0000
0000
1100
0000
0100
1000
0100
0000
1000
0000
0010
0000
0100
0000
,
0002
0000
1000
M000
MM00
MMM0
MM00
M000
1003
0000
0000
0000
0001
0000
0101
0000
,
0000
0100
0010
1000
0100
0010
0100
1000
,
0010
0000
0001
1000
0100
0010
1000
0100
,
0002
0203
2300
3200
0320
0032
2003
0200
,
0000
0000
3300
0000
1100
0000
0100
0000
1000
0000
0001
0100
0001
0000
1000
0100
,
1000
0000
1001
0001
0100
0010
1000
0100
,
0010
0000
0011
0001
1000
0010
0001
0010
,
1000
0010
1000
0001
1000
0001
0010
0001
,
0010
0100
1000
0001
0100
0010
1000
0100
,
1100
0000
0110
0000
0110
0000
0110
0010
,
0001
0000
1001
0000
1001
0000
1001
1000
,
0010
0000
0110
0000
0110
0000
0110
0100
,
0001
0000
1001
0000
1001
0000
1001
1000
,
0100
0000
0110
0000
0011
0000
1001
1000
,
0010
0000
0110
0000
0101
0000
1010
0001
,
0100
0000
0110
0000
1100
0000
0011
0100
,
1000
0000
1010
0000
0110
0000
0101
1100
;

//---------------dance-single - Itsugo----------------
#NOTES:
     dance-single:
     Itsugo:
     Beginner:
     2:
     0.101,0.159,0.036,0.036,0.000:
0000
0000
0000
0000
,
0000
0000
0000
0000
,
0000
0000
0000
0000
,
1001
0000
0000
0000
,
0001
0000
0000
0000
,
1000
0000
0000
0000
,
1000
0000
0000
0000
,
0010
0000
0000
0000
,
0010
0000
0000
0000
,
0100
0000
0000
0000
,
0100
0000
0000
0000
,
0002
0000
0000
0000
,
1003
0000
0000
0000
,
1000
0000
0000
0000
,
1000
0000
0000
0000
,
1000
0000
0100
0000
,
1000
0000
0000
0000
,
1000
0000
0000
0000
,
1000
0000
0000
0000
,
1000
0000
0010
0000
,
0110
0000
0000
0000
,
0100
0000
0000
0000
,
0001
0000
0000
0000
,
0010
0000
0000
0000
,
0100
0000
0000
0000
,
0010
0000
0000
0000
,
0002
0000
0003
0000
,
1000
0000
0000
0000
,
0010
0000
0000
0000
,
0100
0000
0000
0000
,
0001
0000
0000
0000
,
1000
0000
0000
0000
,
0100
0000
0000
0000
,
0010
0000
0000
0000
,
0110
0000
0000
0000
,
0010
0000
0000
0000
,
0001
0000
0000
0000
,
1000
0000
0000
0000
,
0010
0000
0000
0000
,
0100
0000
0000
0000
,
0001
0000
0000
0000
,
1000
0000
0000
0000
,
1001
0000
0000
0000
,
1000
0000
0000
0000
,
0100
0000
0000
0000
,
0010
0000
0000
0000
,
0001
0000
0000
0000
,
0100
0000
0000
0000
,
1000
0000
0000
0000
,
0100
0000
0000
0000
,
0002
0003
0000
0000
,
2000
3000
0000
0000
,
0100
0000
0000
0000
,
0010
0000
0000
0000
,
0001
0000
0000
0000
,
1000
0000
0000
0000
,
0010
0000
0000
0000
,
0100
0000
0000
0000
,
0001
0000
0000
0000
,
0100
0000
0000
0000
,
0010
0000
0000
0000
,
1000
0000
0000
0000
,
0001
0000
0000
0000
,
0010
0000
0000
0000
,
0010
0000
0000
0000
,
0100
0000
0000
0000
,
0100
0000
0000
0000
,
1000
0000
0000
0000
,
1000
0000
0000
0000
,
0001
0000
0000
0000
,
0001
0000
0000
0000
,
0100
0000
0000
0000
;

//---------------dance-single - Itsugo----------------
#NOTES:
     dance-single:
     Itsugo:
     Easy:
     3:
     0.173,0.317,0.188,0.027,0.000:
0000
0000
0000
0000
,
0000
0000
0000
0000
,
0000
0000
0000
0000
,
1001
0000
0000
0000
,
0001
0000
0000
0000
,
1000
0000
0010
0000
,
1000
0000
0000
0000
,
0100
0000
0000
0000
,
0010
0000
0000
0000
,
0001
0000
0100
0000
,
0010
0000
1000
0000
,
0002
0000
0000
0000
,
0013
0000
0000
0000
,
0100
0000
0000
0000
,
1000
0000
0000
0000
,
0001
0000
0100
0000
,
0010
0000
0000
0000
,
1000
0000
0000
0000
,
0100
0000
0000
0000
,
0010
0000
0001
0000
,
0011
0000
0001
0000
,
1000
0000
0010
0000
,
1010
0000
1000
0000
,
0001
0000
0100
0000
,
0101
0000
0000
0000
,
0001
0000
0000
0000
,
1000
0000
0000
0000
,
0100
0000
0000
0000
,
1100
0000
1000
0000
,
1001
0000
0001
0000
,
0101
0000
0100
0000
,
0010
0000
1000
0000
,
0200
0000
0000
0000
,
1300
0000
0000
0000
,
0001
0000
0100
0000
,
1000
0000
0100
0000
,
0001
0000
0000
0000
,
1000
0000
0000
0000
,
0100
0000
0001
0000
,
0100
0000
0010
0000
,
0001
0000
0000
0000
,
1000
0000
0000
0000
,
0010
0000
0001
0000
,
1000
0000
0100
0000
,
0001
0000
0000
0000
,
1000
0000
0000
0000
,
0100
0000
0010
0000
,
0001
0000
1000
0000
,
0010
0000
0000
0000
,
0100
0000
0000
0000
,
0110
0000
0001
0000
,
1001
0000
1000
0000
,
0100
0000
0010
0000
,
0001
0000
1000
0000
,
0020
0000
0130
0000
,
0001
0000
0001
0000
,
1000
0000
1000
0000
,
0100
0000
0100
0000
,
0010
0000
0001
0000
,
0011
0000
0001
0000
,
1000
0000
0010
0000
,
1000
0000
0001
0000
,
0010
0000
0100
0000
,
0110
0000
0010
0000
,
0011
0000
0001
0000
,
1001
0000
1000
0000
,
1010
0000
0010
0000
,
0110
0000
0101
0000
,
1001
0000
1100
0000
,
0110
0000
0011
0000
,
1001
0000
0000
0000
1000
0000
0000
0001
;

//---------------dance-single - Itsugo----------------
#NOTES:
     dance-single:
     Itsugo:
     Medium:
     6:
     0.331,0.571,0.376,0.045,0.000:
0000
0000
0000
0000
,
0000
0000
0000
0000
0000
2002
0000
0000
,
0000
0000
0000
0000
0000
3003
0000
0000
,
1001
0000
0001
0000
,
1000
0000
0010
0000
,
0100
0000
0001
0000
,
1000
0000
0100
0010
,
0011
0000
0001
0000
,
1000
0000
0010
0000
,
0100
0000
0001
0000
,
1000
0000
0100
0010
,
0002
0000
0000
0000
,
1003
0000
0010
0000
,
0100
0000
0001
0000
,
1000
0000
0100
0000
,
0010
0000
0100
0000
,
1000
0000
0001
0000
,
0100
0000
0010
0000
,
0100
0000
0001
0000
,
1000
0000
1100
0000
,
1001
0000
0001
0000
,
0100
0000
0010
0000
,
1010
0000
1000
0000
,
0100
0000
0010
0000
,
0110
0000
0010
0000
,
0011
0000
0001
0000
,
1001
0000
1000
0000
,
0010
0000
0100
0000
,
0101
0001
1000
0100
,
1000
1001
0001
0101
,
0100
0100
0010
0000
,
1000
1000
0001
0010
,
0200
0000
0000
0000
,
1300
0000
0000
0001
0000
0000
0100
0000
,
0010
0010
1000
1000
,
0100
0100
0010
0001
,
1000
0000
0010
0000
,
0100
0000
0001
0000
,
1000
1000
0100
0100
,
0010
0010
0001
0000
,
1000
0010
0100
0001
,
0100
0100
0001
1000
,
1001
0100
1000
0100
,
0010
0010
0001
0001
,
0100
0010
1000
0100
,
1100
0100
0010
0001
,
0100
1000
0001
1000
,
0100
0001
1000
0100
,
0010
0010
0001
0100
,
0010
1000
0100
0010
,
0110
0010
0000
0001
,
0000
1000
0010
0100
,
0001
1000
0100
0010
,
0100
1000
0010
0001
,
0020
0000
1030
0001
,
0100
0100
0010
0010
,
1000
1000
0100
0001
,
0100
0100
1000
1000
,
0010
0100
0001
1001
,
1100
0100
0010
0001
,
0100
1000
0100
0001
,
0010
1000
0010
0100
,
1000
0001
0100
0010
,
0110
1010
1000
1100
,
0100
0110
0011
0101
,
0100
0110
1010
1100
,
0100
0110
1100
1001
,
0001
0100
0110
1010
,
1100
0110
1001
0110
,
0011
1001
1010
0110
,
1001
0000
0110
0000
1010
0000
1000
0001
;

//---------------dance-single - Itsugo----------------
#NOTES:
     dance-single:
     Itsugo:
     Hard:
     9:
     0.548,0.666,0.430,0.098,0.040:
0000
0000
0000
0000
,
0000
0000
0000
0000
0000
1000
0001
0000
,
0000
0010
0000
0000
0100
1000
0000
0000
,
1100
0000
0000
1000
0000
0100
0000
0010
,
0001
0000
0000
0001
0000
0100
0000
0010
,
1000
0010
1000
0001
1000
0001
0010
0000
,
0200
0000
1000
0000
0010
0000
0001
0300
,
0010
0100
0010
0000
0001
1000
0001
0000
,
0100
0010
0100
0000
0001
0100
0001
0000
,
1000
0001
1000
0000
0100
1000
0100
0000
,
0010
0001
0010
0100
1000
0010
0100
0001
,
2000
0000
0000
0000
,
3001
0000
0100
0010
0000
0010
0100
0000
,
0101
0000
1000
0100
0000
0100
0010
0000
,
0011
0000
0001
0010
0000
0100
0000
1000
,
0000
0001
0000
0100
0000
0020
0000
0030
,
1010
0000
1000
0001
0000
0010
0100
0010
,
0000
0010
0001
0100
0000
0010
1000
0010
,
0000
0100
0001
0010
0000
0001
0000
0100
,
0000
0010
0000
1000
0000
1010
0000
0000
,
1000
0001
0010
0100
0000
0010
0001
0100
,
0000
0010
0001
0010
0000
1000
0100
0000
,
1000
0100
0010
0001
0000
0010
0100
1000
,
0000
0010
0100
0001
0010
0100
0000
0100
,
0010
0000
0001
0000
0100
0000
0010
1000
,
0100
0110
0010
0001
,
2000
0000
0000
0000
0000
0000
3001
0200
,
0000
0000
0000
0310
0000
1000
0001
0000
,
1001
0000
0000
0000
1000
0000
0000
0100
0000
0000
0010
0000
0011
0000
0000
0000
,
1001
0000
0000
0000
1000
0000
0000
0010
0000
0000
0100
0000
0110
0000
0101
0000
,
1001
0000
0011
0000
1000
0100
1000
0000
,
0010
0100
0001
0010
0000
0100
0010
0001
,
2000
0001
0010
0100
,
3100
0010
0000
0001
0000
0100
0010
0000
,
0110
0000
1000
0100
1100
0000
0010
0001
,
0011
0000
1000
0010
0100
0000
0001
0010
,
0100
0000
0100
1000
0000
1001
0000
0001
,
0100
0000
0010
1000
0000
1100
0000
0100
,
0010
0000
0001
0100
0010
0000
0100
0001
,
1000
0000
0100
0010
0001
0000
0011
0000
,
0010
0100
1000
0010
0100
0001
0000
0100
,
0010
0000
1000
0000
0000
0000
1100
0000
0000
0000
0010
0001
0010
0001
0010
0001
,
0010
0000
0100
1000
0010
0000
0010
0100
,
0001
0000
0001
0100
0010
0000
0010
1000
,
0100
0000
0010
0001
0000
0010
0100
1000
,
0010
0000
0010
0100
0000
0100
0001
0010
,
0100
0000
0001
0100
0010
0000
0100
1000
,
0010
0000
1000
0001
0100
0000
0010
1000
,
0100
0000
0010
0001
1000
0010
0100
0001
,
0010
0000
0010
0001
0100
0010
1000
0001
,
1001
0000
0000
0000
1000
0000
0000
1100
0000
0000
0010
0000
0011
0000
0001
0000
,
2000
0000
0000
3000
1001
0000
0001
0000
0100
0010
0000
1000
0000
0100
0010
0000
,
0011
0000
0001
1000
0010
1000
0100
0010
,
0100
0000
0010
0100
1000
0010
0100
0001
,
2000
0100
0000
0000
3001
0000
0010
0000
,
0011
0010
0100
1000
,
0010
0100
0101
0001
,
0010
0100
0010
0000
0100
1000
0100
0000
,
1000
0010
1000
0001
0100
0010
1000
0001
,
0010
0110
0001
2000
,
3010
0110
0100
0001
,
0010
0011
0010
0100
,
1000
1001
0001
0200
,
0310
0000
1010
0000
1001
0000
0010
0001
,
1000
0000
1100
0000
0011
0000
0010
0001
,
0100
0000
0101
0000
0110
0000
0010
1000
,
0100
0000
1100
0000
0110
0000
0010
0001
,
0100
0000
0110
0000
1001
0000
1000
0100
,
0010
0000
0011
0000
0101
0000
0100
0010
,
1000
0000
1001
0000
1100
0000
0100
0010
,
0001
0000
0011
0000
0101
0000
2001
3100
;
