#TITLE:DAYS;
#SUBTITLE:交響詩篇エウレカセブン 1st Opening;
#ARTIST:FLOW;
#TITLETRANSLIT:Days;
#SUBTITLETRANSLIT:Eureka Seven 1st Opening;
#ARTISTTRANSLIT:Flow;
#GENRE:Itsugo15 SimifileS 1-30 DDR Version;
#CREDIT:Itsugo15;
#MENUCOLOR:;
#BANNER:Days-2.avi;
#BACKGROUND:Days-bg1.jpg;
#LYRICSPATH:Days.lrc;
#CDTITLE:Itsugo15 SimifileS.png;
#MUSIC:Days.mp3;
#OFFSET:0.925;
#SAMPLESTART:81.215;
#SAMPLELENGTH:30.000;
#SELECTABLE:YES;
#LISTSORT:;
#BPMS:0.000=126.150;
#STOPS:;
#TICKCOUNT:0.000=6;
#BGCHANGES:9.000=Days-1.avi=1.000=1=0=0,
113.000=Days-bg2.jpg=1.000=1=0=1,
172.000=Days-2.avi=1.000=1=0=0,
268.500=Days-bg1.jpg=1.000=0=1=0,
99999=-nosongbg-=1.000=0=0=0 // don't automatically add -songbackground-
;
#KEYSOUNDS:;
#ATTACKS:;

//---------------dance-single - Beginner Itsugo15----------------
#NOTES:
     dance-single:
     Beginner Itsugo15:
     Beginner:
     2:
     0.105,0.151,0.098,0.023,0.000:
0000
0000
0000
0000
,
0000
0000
0000
0000
,
0000
0000
0000
0000
,
1000
0000
0000
0000
,
0100
0000
0000
0000
,
0010
0000
0000
0000
,
0001
0000
0000
0000
,
1001
0000
0000
0000
,
1000
0000
0000
0000
,
0001
0000
0000
0000
,
1000
0000
0000
0000
,
1001
0000
0000
0000
,
1000
0000
0000
0000
,
1000
0000
0000
0000
,
0001
0000
0000
0000
,
0001
0000
0000
0000
,
0010
0000
0000
0000
,
0010
0000
0000
0000
0000
0000
0000
0100
,
0000
0000
0000
0000
,
0110
0000
0000
0000
,
0001
0000
0000
0000
,
0001
0000
0000
0000
,
1000
0000
0000
0000
,
1000
0000
0000
0000
,
0010
0000
0000
0000
,
1010
0000
0001
0000
,
0001
0000
1000
0000
,
1000
0000
0100
0000
,
0010
0000
0110
0000
,
0010
0000
0010
0000
,
0001
0000
0001
0000
,
1000
0000
1000
0000
,
0010
0000
0010
0000
,
1010
0000
0000
0000
,
0110
0000
0000
0000
,
0001
0000
1000
0000
,
1000
0000
0200
0000
,
0310
0000
0100
0000
,
0100
0000
1000
0000
,
1000
0000
0001
0000
,
0001
0000
0100
0000
,
0010
0000
1000
0000
,
1000
0000
0100
0000
,
0110
0000
0010
0000
,
0010
0000
0001
0000
,
0001
0000
0100
0000
,
0010
0000
0110
0000
,
1001
0000
0000
0000
,
1000
0000
0000
0000
,
0010
0000
0000
0000
,
0100
0000
0000
0000
,
0110
0000
0000
0000
,
0001
0000
0000
0000
,
1000
0000
0000
0000
,
0100
0000
0000
0000
,
0110
0000
0000
0000
,
0010
0000
0000
0000
,
0001
0000
0000
0000
0000
0000
0000
1000
,
0000
0000
0000
0000
,
1001
0000
0000
0000
,
0010
0000
0000
0000
,
0200
0000
0000
0000
,
0300
0000
0000
0000
,
0001
0000
0000
0000
,
1000
0000
0000
0000
,
0002
0000
0000
0000
,
0000
0000
0000
0000
,
0003
0000
0000
0000
;

//---------------dance-single - Easy Itsugo15----------------
#NOTES:
     dance-single:
     Easy Itsugo15:
     Easy:
     4:
     0.173,0.201,0.105,0.075,0.000:
0000
0000
0000
0000
,
0000
0000
0000
0000
,
0000
0000
0000
0000
,
2000
0000
3000
0000
,
0200
0000
0300
0000
,
0020
0000
0030
0000
,
0002
0000
0003
0000
,
1001
0000
0000
0000
,
0100
0000
0000
0000
,
0010
0000
0000
1000
,
1010
0000
0000
1000
,
1001
0000
0010
0000
,
0100
0000
0001
0000
,
0001
0000
1000
0000
,
0100
0000
0010
0000
,
0010
0000
0001
0000
,
1000
0000
0001
0000
,
0001
0000
0000
0000
1000
0000
0000
1002
,
0000
0000
0000
0000
,
1003
0000
0100
0000
,
0010
0000
0001
0000
,
1000
0000
0010
0000
,
0100
0000
0001
0000
,
1001
0000
0000
0000
,
0110
0000
0000
0000
,
0010
0000
0000
0100
0000
0000
1000
0000
,
0000
0001
0000
0000
1000
0000
0001
0000
,
1000
0000
0000
0001
0000
0000
0010
0000
,
0000
0100
0000
0000
1100
0000
0000
0000
,
0010
0010
1000
1000
,
0001
0001
0100
0000
,
0001
0001
1000
1000
,
0100
0100
0010
0000
,
0001
0001
1000
0001
,
1000
0000
0000
0000
,
0100
0010
0001
0100
,
0001
0000
0000
0000
,
1000
1000
0010
0010
,
0100
0100
0001
0000
,
0001
1000
0010
0100
,
0001
1000
0100
0000
,
1000
1000
0001
1000
,
0001
0001
1000
0001
,
0100
0000
0000
0010
0000
0000
1000
0000
,
0000
0001
0000
0000
1000
0000
0001
0000
,
1000
0000
0000
0010
0000
0000
0100
0000
,
0000
0001
0000
0000
0101
0000
0001
0000
,
1000
0000
0100
0000
,
0010
0000
0001
0000
,
1000
0000
0010
0000
,
0100
0000
0001
0000
,
0101
0000
0100
0000
,
0010
0000
1000
0000
,
0001
0000
0020
0000
,
0030
0000
0010
0000
,
0110
0000
0100
0000
,
1000
0000
0001
0000
,
0100
0000
0010
0000
,
0110
0000
0100
0000
,
0101
0000
0001
0000
,
1000
0000
0001
0000
,
2002
0000
0000
0000
,
0000
3003
0000
0000
,
0001
0000
1000
0000
,
0100
0000
0010
0000
,
0220
0000
0000
0000
,
0000
0000
0000
0000
,
0330
0000
0000
0000
;

//---------------dance-single - Medium Itsugo15----------------
#NOTES:
     dance-single:
     Medium Itsugo15:
     Medium:
     6:
     0.287,0.302,0.203,0.113,0.000:
0000
0000
0000
0000
,
0000
0000
0000
0000
,
0000
0000
0000
0000
,
0002
0010
0003
0000
,
2000
0010
3000
0000
,
0020
1000
0030
0000
,
0200
0001
0300
0001
,
1001
0000
0000
0100
,
0100
0000
0010
0000
,
0001
0000
0100
0000
,
0010
0000
1000
0001
,
1001
0001
0001
0100
,
0100
0001
2000
0001
,
3001
0010
0010
0100
,
0100
1000
0002
0100
,
0103
0010
1000
0001
,
0010
0100
1000
0001
,
2002
0000
0000
0000
3003
0000
1000
0002
,
0000
0000
0003
1001
,
1001
0001
0001
0010
,
0001
0001
0100
0010
,
1000
1000
0010
0010
,
0100
0100
0001
0001
,
1001
1000
0000
1000
,
0000
0100
0000
0100
,
0100
0010
0000
0010
0001
0000
0001
1000
,
0000
1000
0001
0000
1001
0000
1001
0000
,
1000
0010
0000
0010
0100
0000
0100
0001
,
0000
0001
1000
0000
,
1001
0001
1000
0010
,
0100
0010
1000
1010
,
0010
1000
0100
0010
,
0001
1000
0010
0100
,
0110
0010
1000
0001
,
0010
0100
0100
0010
,
0110
0010
0001
1000
,
0001
0010
0100
1000
,
1100
0010
0001
1000
,
0001
0100
0010
0110
,
0010
1000
0100
0010
,
0100
1000
1100
0000
,
1000
0001
1001
1001
,
0001
1000
1001
1001
,
0001
1000
0000
1000
0001
0000
0001
1000
,
0000
1000
0001
0000
1001
0000
1001
0000
,
0100
0010
0000
0010
0100
0000
0100
0010
,
0000
0010
0100
0000
1000
0000
0001
0000
,
1001
1000
0010
0100
,
0001
0010
0100
0010
,
0001
0100
1000
0100
,
0001
1000
0100
0010
,
0011
0001
1000
1000
,
0001
0100
0010
1000
,
0001
0001
0200
0000
,
0300
0000
0010
1000
,
1010
1000
0001
0010
,
0100
1000
0100
0010
,
0001
0000
1000
0000
0010
0000
0100
0110
,
0000
0010
0100
0001
,
1000
1000
0001
1000
,
0001
0001
1000
0001
,
2002
0000
0000
0000
,
3003
0000
1000
0100
,
0010
0010
0100
0010
,
0100
0100
0010
0100
,
0220
0000
0000
0000
,
0000
0000
0000
0000
0000
0000
0000
0002
,
0333
0000
0000
0000
;

//---------------dance-single - Heavy Itsugo15----------------
#NOTES:
     dance-single:
     Heavy Itsugo15:
     Hard:
     8:
     0.516,0.478,0.398,0.173,0.015: // measure 1
0000
0000
0000
0000
,  // measure 2
0001
0000
0001
0000
1000
0001
1000
0000
,  // measure 3
1000
0000
1000
0000
0010
1000
0001
0010
,  // measure 4
0200
0000
1300
0000
0100
0010
0001
1000
,  // measure 5
0020
0000
0130
0000
0001
0100
0010
1000
,  // measure 6
0002
0000
0013
0000
0100
0010
0001
1000
,  // measure 7
0020
0000
0000
0000
0130
0000
0000
0000
0001
0000
0100
0000
0010
1000
0010
1000
,  // measure 8
0020
0000
0100
0000
0130
0000
0001
0010
,  // measure 9
0000
0010
0100
0000
1100
0100
0010
0001
,  // measure 10
2000
0000
3010
0200
0000
0301
0000
0101
,  // measure 11
0000
0110
0000
1010
1000
0001
0010
0100
,  // measure 12
1000
0100
0010
0000
0010
0001
1000
0000
,  // measure 13
1000
0010
0100
0100
0001
0001
1000
1000
,  // measure 14
0200
0300
0100
1000
0010
0000
0100
0001
,  // measure 15
0010
0010
0100
0100
1000
1000
0001
0001
,  // measure 16
0200
0300
0010
1000
0001
0000
0001
1000
,  // measure 17
0010
0010
0100
0100
0001
0001
1000
1000
,  // measure 18
0200
0300
0010
0001
0000
1001
0000
0110
,  // measure 19
0000
0010
0010
0010
0010
0010
0010
0010
,  // measure 20
0110
0000
0010
1000
0010
0000
1000
0000
,  // measure 21
1001
0000
1000
0001
1000
0000
0100
0000
,  // measure 22
1100
0000
1000
0100
0010
0000
0100
0000
,  // measure 23
0110
0000
0001
0010
0100
0000
0010
0000
,  // measure 24
0110
0000
0010
0001
0000
0011
0000
0000
,  // measure 25
1001
0000
1000
0010
0000
1010
0000
0000
,  // measure 26
0101
0001
0000
1001
1000
0000
1100
0100
,  // measure 27
0000
0010
0001
0000
0001
0000
0001
0000
,  // measure 28
0011
0001
0000
1001
1000
0000
1010
0010
,  // measure 29
0000
0100
0001
1000
0100
0000
1100
0000
,  // measure 30
0011
0001
1000
0010
0100
0000
0101
0000
,  // measure 31
0001
1000
0010
0100
0001
1000
1000
0000
,  // measure 32
1100
0100
0100
0010
0010
0001
1000
0010
,  // measure 33
0100
0100
0001
0001
1000
0001
0010
0000
,  // measure 34
0011
0010
0001
0100
1000
0100
0001
0101
,  // measure 35
0000
0100
0010
1000
1010
1000
1001
0000
,  // measure 36
0001
0010
0100
0010
0001
1000
0010
0100
,  // measure 37
0001
0001
0000
0001
0100
1000
0100
0001
,  // measure 38
0010
0100
1000
0100
0010
0001
1000
0010
,  // measure 39
0100
0001
0100
0010
1000
0000
1010
0000
,  // measure 40
0010
1000
0001
0010
0001
0100
0010
0100
,  // measure 41
1000
0100
0010
0100
0001
0000
0101
0000
,  // measure 42
0001
1000
0001
0010
0011
0000
0011
0000
,  // measure 43
0001
0100
0010
1000
1010
0000
1010
0000
,  // measure 44
1010
1000
0000
1001
0001
0000
0011
0010
,  // measure 45
0000
0100
1000
0000
1000
0000
1000
0000
,  // measure 46
1100
1000
0000
1001
0001
0000
0101
0100
,  // measure 47
0000
0010
1000
0001
0010
0000
0011
0000
,  // measure 48
1100
0100
0010
0001
1000
0010
0100
0010
,  // measure 49
1000
0001
0010
0200
0000
1300
0100
0010
,  // measure 50
0001
1000
0010
0100
0001
0100
0010
2000
,  // measure 51
0000
3001
0020
0000
0030
0100
0010
0001
,  // measure 52
0011
0000
0001
1000
0000
1010
0000
1000
,  // measure 53
0001
0000
0000
0000
0101
0000
0000
0000
0100
0000
0000
0001
0000
0000
0010
0000
,  // measure 54
0100
0000
0000
1000
0000
0000
0200
0000
0010
0000
0000
0000
1000
0000
0000
0000
,  // measure 55
0310
0001
0011
1001
,  // measure 56
1010
0010
1000
0001
0010
0100
0010
0001
,  // measure 57
1000
0010
0100
0002
0000
0103
0010
1000
,  // measure 58
0002
0000
0013
0100
0010
0001
1000
2002
,  // measure 59
3003
0001
0010
0100
0010
0001
1000
0010
,  // measure 60
1010
1000
0010
0010
0100
0100
0001
0001
,  // measure 61
0101
0001
1000
1000
0100
0100
0010
0010
,  // measure 62
0120
0000
0100
0000
0100
0030
0100
0010
,  // measure 63
0002
0000
1003
0020
0000
0130
0002
0003
,  // measure 64
0101
0001
1000
1000
0100
0010
0100
1000
,  // measure 65
0001
0001
1000
1000
0010
0010
0100
0001
,  // measure 66
2000
0000
0000
0001
0000
0000
0001
0000
,  // measure 67
0001
0000
0000
0001
0000
0001
0001
0100
,  // measure 68
0000
3000
0000
0000
0000
0000
0000
0000
;

//---------------dance-single - Challenge Itsugo15----------------
#NOTES:
     dance-single:
     Challenge Itsugo15:
     Challenge:
     10:
     0.677,0.653,0.488,0.240,0.435:
0000
0000
0000
0000
,
0010
1000
0000
0000
0100
0000
0000
0000
0010
0000
0100
0000
1000
0000
0000
0000
,
0001
0100
0000
0000
0010
0000
0000
0000
1000
0010
0100
0001
1000
0010
0100
0001
,
0101
0000
0001
0000
0001
0100
0000
0010
1000
0000
0100
0000
0010
0000
0001
0000
,
1000
0000
0100
0000
0010
0001
0000
1000
0100
0000
0010
0000
0100
0000
1000
0000
,
0001
0000
0010
0000
0100
1000
0000
0001
0100
0000
0010
0000
1000
0000
0001
1000
,
0001
0000
0100
0000
0010
0000
1000
0000
0010
0000
0100
0000
0001
0100
0001
0100
,
0001
0000
0100
0000
0010
1000
0000
0001
0010
0000
0100
0000
0110
0000
0110
0000
,
0100
0000
1000
0000
0001
0010
0000
0100
1000
0000
0002
0003
0200
0300
0020
0030
,
2000
0000
0000
3000
0002
0003
0020
0000
0000
0030
0200
0000
0000
0300
2000
0000
,
0000
3000
0002
0000
0000
0003
2000
0000
0000
3000
0020
0030
0100
0000
0001
0100
,
0001
0100
0110
0010
1000
0001
1001
1000
,
0100
0010
0110
0100
0100
0100
0010
0010
,
0002
0003
0011
0001
1000
0010
1010
1000
,
0001
0100
0101
0001
0001
0001
1000
1000
,
0200
0300
1100
1000
0001
0100
0101
0001
,
0010
0100
0110
0010
0010
0010
0001
0001
,
2000
3000
0010
0100
0001
0100
0010
0110
,
0000
0110
0110
0110
0110
0110
0110
0110
,
1001
0001
0011
0010
0100
1000
1100
0100
,
0010
0001
0011
0010
0100
1000
1100
0100
,
1000
0010
1010
1000
0001
0100
0101
0001
,
1000
0010
1010
1000
0001
0100
0101
0001
,
1001
0000
1000
0000
1010
0000
0020
0000
0000
0030
0200
0000
0000
0300
0002
0003
,
2000
0000
3000
0000
1100
0000
0000
0000
0200
0000
0300
0020
0000
0030
0002
0003
,
1000
0000
0010
1000
0010
0000
0100
0000
0001
0100
0001
M000
1000
0M00
0100
0000
,
0000
00M0
0010
000M
0001
0000
0000
0000
0011
0000
0000
0000
1100
0000
0000
0000
,
1000
0000
0100
1000
0100
0000
0010
0000
0001
0010
0001
M000
1000
00M0
0010
0000
,
0000
0M00
0100
000M
0001
0000
0000
0000
0101
0000
0000
0000
1001
0000
0000
0000
,
1000
0010
0100
0001
1000
0001
1000
0001
0100
0000
0000
0100
0001
0100
0000
0010
,
1000
0001
0010
0100
0010
0001
1000
0100
1000
0000
0000
0000
1100
0000
0000
0000
,
1000
0100
1000
0100
0010
0001
1000
0010
0100
0000
0001
0100
0000
0000
0010
0000
,
1000
0000
0001
0010
0000
0100
1000
0000
0100
0000
0010
0001
0000
0000
1000
0000
,
1001
0000
0001
1000
0001
1000
0010
0000
0100
0000
0001
1000
0000
0000
0100
0000
,
0000
0000
1000
0100
1000
0001
0100
0000
0101
0000
1001
0000
1100
0000
0000
0000
,
0001
0010
0000
0100
1000
0001
0000
1000
0010
0000
0100
0001
0000
0001
0100
0001
,
1000
0010
0000
1010
1000
0001
0011
0110
,
1100
0000
1000
0100
0000
0010
0001
0000
1000
0010
0000
0100
0001
0000
0100
0010
,
0000
1000
0001
0000
0010
0100
0000
1000
0100
0000
0000
0000
1100
0000
0000
0100
,
0010
0000
0001
0000
0010
0001
0010
0001
1000
0001
0100
0010
0100
0000
0001
0000
,
0100
0010
1000
0010
0100
0001
1000
0100
1000
0000
0000
0000
0000
0000
1000
0100
,
0010
0000
0010
0000
0010
0000
0001
0000
0011
0000
0000
0011
0000
0000
0001
0000
,
0001
0010
0100
0010
0001
1000
0010
0100
0001
0000
0000
0101
0000
0000
0101
0000
,
0001
0000
0100
0001
0100
0000
0010
0000
1000
0010
1000
000M
0001
00M0
0010
0000
,
0000
0M00
0100
M000
1000
0000
0000
0000
1100
0000
0000
0000
0011
0000
0000
0000
,
0001
0000
0010
0001
0010
0000
0100
0000
1000
0100
1000
000M
0001
0M00
0100
0000
,
0000
00M0
0010
M000
1000
0000
0000
0000
1010
0000
0000
0000
1001
0000
0000
0000
,
0011
0001
0010
0100
0010
0001
1000
0010
,
0100
0000
0010
0000
1000
0000
0001
1000
0001
0000
0010
0000
0001
0000
0100
0000
,
0010
1000
0100
0010
0100
1000
0001
0200
,
0300
0100
0010
2000
3000
1000
0100
0010
,
0011
0000
0001
0000
1000
0000
0010
1000
0010
0000
0200
0000
0300
0000
0001
0000
,
2000
0000
3000
0000
1001
0000
0000
0000
0011
0000
0000
0100
0000
0000
1000
0000
,
0010
0000
0000
0100
0000
0000
0001
0000
2000
0000
0000
0000
0100
0000
0000
0000
,
3010
0000
0000
0000
0010
0000
0100
0000
0001
0000
1000
0000
0100
1000
0100
1000
,
1100
1000
0100
0010
0100
1000
0001
0100
,
0010
0000
0100
0000
0001
0000
1000
0001
1000
0000
0100
0000
1000
0000
0010
0000
,
0100
0001
0010
0100
0010
0001
1000
2002
,
3003
0001
0100
0001
1000
0001
0010
0100
,
1100
0000
1000
0000
0001
0000
0100
0001
0100
0000
0010
0000
1000
0000
0001
0000
,
0010
0000
0100
1000
0100
0000
0010
0000
0100
0000
1000
0000
0001
0000
0100
0000
,
0210
0000
1000
0000
1300
0100
0001
1000
,
0100
0000
0010
0000
0001
0000
1000
0001
1000
0000
0010
0000
0100
0001
0100
0001
,
0101
0000
0001
0000
0100
0000
0010
0000
1000
0100
0000
0100
0010
0000
0010
0000
,
0001
0000
1000
0000
0010
0000
0100
0000
0001
0100
0000
0001
1000
0000
1001
0000
,
2200
0000
0000
0001
0000
0000
0010
0000
,
0001
0000
0000
0010
0300
0002
0010
0010
,
30M3
0000
0000
0000
;
