#TITLE:Daydream Syndrome;
#SUBTITLE:夢喰いメリー;
#ARTIST:藤原鞠菜;
#TITLETRANSLIT:Daydream Syndrome;
#SUBTITLETRANSLIT:Yumekui Merry;
#ARTISTTRANSLIT:Fujiwara Marina;
#GENRE:Otaku's Dream 2nd Mix (Pad);
#CREDIT:Itsugo & Sdj';
#MENUCOLOR:;
#BANNER:daydreambn.png;
#BACKGROUND:daydreambg.png;
#LYRICSPATH:Daydream Syndrome.lrc;
#CDTITLE:Collab.png;
#MUSIC:Daydream Syndrome.ogg;
#OFFSET:0.212;
#SAMPLESTART:54.969;
#SAMPLELENGTH:30.000;
#SELECTABLE:YES;
#LISTSORT:;
#BPMS:0.000=103.000,12.000=206.000,44.000=103.000,60.000=206.000,92.000=103.000,99.750=206.000,116.250=103.000,124.000=206.000,226.500=103.000,227.500=206.000;
#STOPS:;
#TICKCOUNT:0.000=6;
#BGCHANGES:0.000=merry OP.avi=1.000=1=0=0,
259.000=daydreambg.png=1.000=1=0=0,
99999=-nosongbg-=1.000=0=0=0 // don't automatically add -songbackground-
;
#KEYSOUNDS:;
#ATTACKS:;

//---------------dance-single - Sdj'----------------
#NOTES:
     dance-single:
     Sdj':
     Challenge:
     11:
     0.948,1.000,0.624,1.000,0.624: // measure 1
0000
0000
0000
0000
,  // measure 2
0001
0100
0010
0100
0000
0000
0010
0100
0010
0100
0000
0000
1000
0100
1000
0001
,  // measure 3
1000
0010
1000
0010
0000
0000
1000
0001
1000
0001
0000
0000
1001
1001
0000
0000
,  // measure 4
1000
1000
0010
0100
0001
0010
0001
2001
,  // measure 5
3000
0000
0001
0000
0010
0000
0100
0000
1000
0001
1000
0000
0020
0000
0030
0000
,  // measure 6
1001
0001
1000
0010
0100
0001
1000
1002
,  // measure 7
0003
0000
1000
0000
0100
0000
0010
0000
0001
1000
0001
0000
0200
0000
0300
0000
,  // measure 8
1001
0001
0100
0010
1000
0100
1000
2001
,  // measure 9
3000
0000
0001
0000
0010
0000
0100
0000
1000
0001
1000
0000
1001
0000
0000
0000
,  // measure 10
0001
0101
0000
1000
1010
0000
0001
2001
,  // measure 11
0000
0000
0010
0000
0010
0000
0010
3000
,  // measure 12
1010
0000
2000
3200
0300
0020
0030
0002
0000
0000
0000
0003
0100
0010
0000
0010
,  // measure 13
2000
3000
0001
0100
0000
0010
0000
2000
0000
0000
0000
3000
0100
0010
0000
0010
,  // measure 14
0002
0003
1000
0010
0000
0100
0000
0002
0000
0000
0000
0003
0000
0100
0000
0010
,  // measure 15
2000
0000
0000
0000
3020
0000
0000
0000
0230
0000
0000
0000
0302
0000
0003
1000
,  // measure 16
0100
1000
0100
0020
MM3M
0000
0001
0001
,  // measure 17
0100
0020
MM3M
0000
1010
0001
1010
1000
,  // measure 18
0100
0010
0100
2000
3MMM
0000
1000
0100
,  // measure 19
0010
0002
MMM3
0000
0101
1000
0101
0001
,  // measure 20
0010
0100
0010
0002
MMM3
0000
0001
0010
,  // measure 21
0100
0000
2000
0000
3MMM
0000
0000
0000
1000
0010
1000
0000
0001
1000
0001
0000
,  // measure 22
0110
0000
0100
0000
0010
0000
0100
0000
0010
1000
0010
0000
1000
0000
0100
0000
,  // measure 23
0010
0001
0010
0000
0001
0000
0010
0000
0100
0000
1000
0000
0002
0000
2003
0000
,  // measure 24
3200
0300
0020
0030
0002
0003
2000
3000
0200
0300
0020
0030
0002
0003
0200
0300
0020
0030
2000
3000
0002
0003
0020
0030
0200
0300
2000
3000
0002
0003
2000
3000
,  // measure 25
0040
0000
0000
0000
0000
0030
1000
0010
0000
MMMM
0000
0000
1000
1001
0000
2002
,  // measure 26
0000
3003
0000
0001
0000
0001
0000
0100
0000
0010
0000
1000
0000
0010
0000
1010
,  // measure 27
0000
0000
0000
1000
0000
1010
0000
0000
0000
1000
0000
0001
0000
0100
0000
0001
,  // measure 28
1000
0010
1000
0100
1000
0010
1000
0100
1000
0001
0010
0001
0100
0001
0010
0001
,  // measure 29
0100
0001
1000
0100
0010
0001
0010
0100
1000
0002
0000
0003
0000
1000
0000
1000
,  // measure 30
0000
2000
0000
0000
0000
3200
0000
0000
0000
0320
0000
MM3M
0000
0002
0000
0003
,  // measure 31
0000
2001
0000
0000
0000
0000
0000
0001
3001
0000
MMMM
MMMM
0000
0001
1001
0000
,  // measure 32
2002
3003
1000
1000
0010
0100
0001
0010
,  // measure 33
0011
0000
0001
0001
0100
0010
1000
0100
,  // measure 34
1100
0000
0000
0000
1010
0000
1000
0100
1000
0000
0010
0100
0010
0000
0100
0001
,  // measure 35
0100
0000
0001
0010
0001
0000
0100
0010
0100
0000
0010
1000
0100
0010
0001
0000
,  // measure 36
1000
2002
3003
0022
0033
0202
0303
2020
,  // measure 37
3030
0000
1000
0000
0001
0000
2002
0000
3003
0000
0000
MMMM
0000
MMMM
0000
0000
,  // measure 38
2000
0100
3100
0010
0001
0101
1000
0100
,  // measure 39
0020
0030
0002
0010
0013
0100
1000
1001
,  // measure 40
0001
0000
0100
0010
0100
0000
0220
0000
0330
0000
2020
0000
3030
0000
1000
0000
,  // measure 41
2002
3003
0001
0010
0100
1000
0010
0100
,  // measure 42
0110
0000
1000
0001
0001
0000
0010
0100
,  // measure 43
1000
0000
1000
1001
0000
1010
0000
1001
,  // measure 44
0000
0011
0000
0101
0000
1001
0000
0100
,  // measure 45
0020
0000
0000
0000
1000
0000
1030
0000
0000
0000
1000
0001
1000
0000
0000
0000
,  // measure 46
0002
0100
0103
0010
1000
1100
1000
0001
,  // measure 47
2000
0000
3000
0000
2000
0000
0100
0000
3100
0000
0010
0000
0001
0000
0100
0010
,  // measure 48
0100
1001
1000
0010
0100
0001
1000
0010
,  // measure 49
0120
0000
1000
1030
0000
2000
0000
3001
,  // measure 50
1001
0000
0001
1000
1000
0000
0010
0100
,  // measure 51
0110
0000
1000
0200
0000
0320
0000
0032
,  // measure 52
0003
0000
1000
0001
1000
0000
0010
0100
0010
0000
1000
0001
1000
0000
0010
0000
,  // measure 53
1000
0001
1000
0010
0100
0001
0100
0001
1000
0100
0010
0001
0010
0100
2000
0000
,  // measure 54
3001
0000
1001
0000
0000
MMMM
0000
0000
1010
0000
0000
MMMM
0000
0000
1000
0000
,  // measure 55
0000
MMMM
0000
0000
0110
0000
0000
MMMM
0000
0000
0001
0000
MMMM
0000
0100
0000
,  // measure 56
MMMM
0000
0010
0000
0000
MMMM
0000
0000
1010
0000
0000
MMMM
0000
0000
1000
0000
,  // measure 57
0000
MMMM
0000
0000
2002
0000
0000
0000
3003
0000
MMMM
0000
MMMM
0000
1000
0000
,  // measure 58
0010
0010
2000
3MMM
0000
1000
0100
0100
,  // measure 59
0020
MM3M
0000
0001
0010
0001
0001
0100
,  // measure 60
0010
0010
2000
3MMM
0000
1000
0001
0001
,  // measure 61
0200
M3MM
0000
0100
0001
0001
0100
0001
,  // measure 62
1000
1000
0002
MMM3
0000
0001
1000
1000
,  // measure 63
0020
MM3M
0000
0010
1000
1000
0010
1000
,  // measure 64
0001
0001
2000
3MMM
0000
1000
0100
0100
,  // measure 65
0020
MM3M
0000
0011
1001
0000
0000
0000
;

//---------------dance-single - Itsugo----------------
#NOTES:
     dance-single:
     Itsugo:
     Beginner:
     2:
     0.162,0.252,0.167,0.011,0.061:
0000
0000
0000
0000
,
1000
0000
0000
0000
,
0001
0000
0000
0000
,
1001
0000
0000
0000
,
1000
0000
0000
0000
,
0010
0000
0000
0000
,
0100
0000
0000
0000
,
0001
0000
0000
0000
,
1000
0000
0000
0000
,
0001
0000
0000
0000
0000
0000
0000
1001
,
0000
0000
0000
0000
,
1000
0000
0000
0100
,
0010
0000
0000
0010
,
0001
0000
0000
0001
,
0100
0000
0000
0100
,
0010
0000
0000
0000
,
1000
0000
0000
0000
,
0100
0000
0000
0000
,
0010
0000
0000
0000
,
0100
0000
0000
0000
,
1000
0000
0000
0000
,
0001
0000
1000
0000
,
0010
0000
0100
0000
,
0110
0000
0000
0000
,
1001
0000
0000
0000
0000
0000
0000
0000
0000
0000
0000
0000
0000
0000
0000
1100
,
0000
0000
0000
0000
0000
0000
0000
0000
0001
0000
0000
0000
0000
0000
0000
0101
,
0000
0000
0000
0000
0000
0000
0000
0000
1000
0000
0000
0000
0000
0000
0000
1010
,
0000
0000
0000
0000
0000
0000
0000
0000
0000
0001
0000
0000
0000
0000
0000
0000
,
0000
0010
0000
0000
0000
0000
0000
0000
0000
0100
0000
0000
0000
0000
0000
0000
,
0000
1000
0000
0000
0000
0000
0000
0000
0000
0000
0000
0000
0000
0000
0000
0000
,
0000
0001
0000
0000
0000
0000
0000
0000
0000
0000
0000
0000
0000
0000
0000
0000
,
0101
0000
0000
0000
0000
0000
0000
0000
0000
1000
0000
0000
0000
0000
0000
0000
,
1010
0000
0000
0000
0000
0000
0000
0000
0000
0001
0000
0000
0000
0000
0000
0000
,
0011
0000
0000
0100
0000
0000
0000
0100
,
0000
0000
0000
1000
0000
0000
0000
0001
,
0000
1001
0000
0000
0000
1000
0000
0000
,
0000
0001
0000
0000
0000
0000
0000
0000
,
1001
0000
0000
0000
,
1000
0000
0000
0000
,
0010
0000
0000
0000
,
0100
0000
0000
0000
,
0001
0000
0000
0000
,
1000
0000
0000
0000
,
0100
0000
0000
0000
,
0010
0000
0000
0000
0000
0000
0000
0000
0000
0001
0000
0000
0000
0000
0000
0000
,
0011
0000
0000
0000
,
1000
0000
0000
0000
,
0010
0000
0000
0000
,
0100
0000
0000
0000
,
0001
0000
0000
0000
,
0100
0000
0000
0000
,
0010
0000
0000
0000
,
1000
0000
0000
0001
,
0000
1001
0000
0000
0000
0000
0000
0100
,
0000
0000
0000
0000
,
0000
0110
0000
0000
0000
0000
0000
0001
,
0000
0000
0000
0000
0000
0000
0000
1000
,
0000
0000
0000
0000
0000
0010
0000
0000
,
0000
0000
0000
0100
0000
0000
0000
0001
,
0000
0000
0000
0000
0000
1000
0000
0000
,
0000
0000
0000
0100
0000
0000
0000
0010
,
0000
0000
0000
0000
0000
0001
0000
0000
,
0000
0000
0000
1000
0000
0000
0000
0010
,
0000
0000
0000
0000
0000
0100
0000
0000
,
0000
0000
0000
0002
0000
0003
0000
0000
;

//---------------dance-single - Itsugo----------------
#NOTES:
     dance-single:
     Itsugo:
     Easy:
     4:
     0.220,0.324,0.189,0.078,0.033:
0000
0000
0000
0000
,
0001
0000
0000
0000
,
1000
0000
0000
0000
,
1001
0000
0001
0000
,
1000
0000
0010
0000
,
0000
0000
1000
0000
,
0100
0000
0010
0000
,
0000
0000
0001
0000
,
1000
0000
0010
0000
,
0100
0000
0000
0001
0000
0000
0000
2000
,
0000
0000
0000
3000
,
1001
0000
0000
0001
,
1000
0000
0000
1000
,
0010
0000
0000
0010
,
0100
0000
0000
0100
,
0001
0000
0000
0000
,
1000
0000
0000
0000
,
0100
0000
0000
0000
,
0010
0000
0000
0000
,
0001
0000
0000
0000
,
1000
0000
0000
0000
,
0010
0000
0100
0000
,
0001
0000
0010
0000
,
0200
0000
0000
0000
,
2300
0000
0000
0000
0000
0000
0000
0000
0000
0000
0000
0000
0000
0000
3000
1001
,
0000
0000
0000
0000
0000
0000
0000
0000
0000
0001
0000
0000
0000
0000
0000
0101
,
0000
0000
0000
0000
0000
0000
0000
0000
0000
1000
0000
0000
0000
0000
0000
1010
,
0000
0000
0010
0000
,
0100
0000
0001
0000
,
2000
0000
0000
0000
,
3000
0200
0000
0000
0000
0000
0000
0000
0000
0000
0000
0000
0000
0000
0300
0000
,
1100
0000
0000
0000
0000
0010
0000
0000
,
0011
0000
0000
0000
0000
0001
0000
0000
,
0101
0000
0000
0000
0000
0100
0000
0000
,
0000
0010
0000
0000
0000
1000
0000
0000
,
0000
0100
0000
0000
0000
0010
0000
0000
,
0000
0100
0000
0000
0000
0000
0000
0000
,
1001
0000
0000
0000
0000
0001
0000
0000
,
0101
0000
0000
0000
0000
1000
0000
0000
,
0000
1100
0000
0000
0000
0010
0000
0000
,
0000
0001
0000
0000
0000
1000
0000
0000
,
1001
0000
0000
0000
0000
0001
0000
0000
,
0000
0100
0000
0000
0000
0010
0000
0000
,
0000
1000
0000
0000
0000
0001
0000
0000
,
1001
0000
0000
1000
0000
0001
0000
0000
,
0011
0000
0000
0000
0000
0010
0000
0000
,
0110
0000
0000
0000
0000
0100
0000
0000
,
0000
1000
0000
0000
0000
0001
0000
0000
,
1001
0000
0000
0000
0000
0001
0000
0000
,
0011
0000
0000
0001
0000
0000
0000
0001
,
0000
0000
0000
1000
0000
0000
0000
0010
,
0000
0000
0000
0100
0000
0000
0000
0001
,
0000
0000
0000
1000
0000
0100
0000
0000
,
0000
0010
0000
0000
0001
0000
0000
1000
,
0000
0000
0010
0000
0000
0100
0000
0001
,
0000
1000
0000
0000
0100
0000
0000
0010
,
0000
0000
0001
0000
0000
2000
0000
3010
,
0000
0000
0000
0000
0000
0100
0000
0000
,
0000
0000
0000
0001
0000
0000
0000
1000
,
0000
0000
0000
0000
0000
0100
0000
0000
,
0000
0000
0000
0010
0000
0000
0000
0001
,
0000
0000
0000
0000
0000
1000
0000
0000
,
0000
0000
0000
0010
0000
0000
0000
0100
,
0000
0000
0000
0000
0000
0001
0000
0000
,
0000
0000
0000
1000
0200
0000
0300
0000
;

//---------------dance-single - Itsugo----------------
#NOTES:
     dance-single:
     Itsugo:
     Medium:
     6:
     0.329,0.360,0.223,0.045,0.072:
0000
0000
0000
0000
,
1001
0000
0000
0001
0000
0000
0100
0000
,
0010
0000
0000
1000
0000
0000
0100
0000
,
1100
0000
0010
0000
,
0001
0000
1000
0000
,
0010
0000
0100
0000
,
0001
0000
1000
0000
,
0100
0000
0010
0000
,
0001
0000
1000
0000
,
0001
0010
0000
0001
1000
0000
1000
0020
,
0000
0000
0000
0000
0000
0030
0000
0000
,
0101
0000
0000
1000
,
0100
0000
0000
0010
,
0001
0000
0000
1000
,
0010
0100
0001
0010
,
0100
1000
0001
0000
,
1000
0010
0100
0000
,
0001
0010
0100
0000
,
1000
0010
0100
0000
,
0001
0010
0100
0000
,
0100
0010
0001
0000
,
1000
0010
0100
0001
,
0010
0100
1000
0010
,
0100
0000
0000
0000
,
0002
0003
0000
1000
,
1100
0000
0000
0000
0000
0100
0000
0000
0000
0010
0000
0000
0000
0000
0000
0000
,
0011
0000
0000
0000
0000
0001
0000
0000
0000
1000
0000
0000
0000
0000
0000
0000
,
1010
0000
0000
0000
0000
0010
0000
0000
0000
0100
0000
0000
0000
0001
0000
0000
,
0000
0010
0000
0000
0000
0100
0000
0000
0000
0010
0000
0000
0000
0001
0000
0000
,
0000
1000
0000
0000
0000
0000
0000
0000
0000
0000
0000
0000
0000
0000
0000
0000
,
0000
0010
0000
0000
0000
0000
0000
0000
0000
0000
0000
0000
0000
0000
0000
0000
,
1010
0000
0000
0010
0000
0100
0000
0000
,
0101
0000
0000
0001
0000
0010
0000
0000
,
0110
0000
0000
0100
0000
1000
0000
1000
,
0000
0010
0000
0010
0000
0100
0000
0100
,
0000
0001
0000
0010
0000
0100
0000
1000
,
0000
0001
1000
0001
0000
0000
0000
0000
,
1001
0000
0000
1000
0000
0010
0000
0000
,
0110
0000
0000
0100
0000
0001
0000
0000
,
0000
0001
0000
0010
0000
0100
0000
1000
,
0010
0000
0000
0100
0000
0001
0000
0000
,
0011
0000
0000
0010
0000
0100
0000
1000
,
0000
0010
0000
0010
0000
0100
0000
0001
,
0000
0010
0000
0000
0100
0000
0000
1000
,
0000
0000
0001
0000
0000
0100
0010
0000
,
1010
0000
0000
1000
0000
0100
0000
0000
,
0011
0000
0000
0010
0000
0100
0000
1000
,
0000
0001
0000
0001
0000
0100
0000
0000
,
0010
0000
0000
1000
0000
0100
0000
0010
,
0100
0000
0000
1000
0000
0010
0000
0100
,
0001
0000
0000
1000
0000
0100
0000
0010
,
0000
0001
0000
0000
1000
0000
0000
0010
,
0000
0000
0100
0001
0000
0010
0000
0100
,
0000
1100
0000
0000
0101
0000
0000
0110
,
0000
0000
0100
0000
0000
0100
0000
0010
,
0000
1010
0000
0000
0101
0000
0000
1100
,
0000
0000
1000
0000
0000
0002
0000
1003
,
0000
0000
0000
0000
0000
0100
0000
0000
,
0000
0000
0000
0010
0000
0001
0000
0100
,
0000
0000
0000
0000
0000
0010
0000
0000
,
0000
0000
0000
1000
0000
0100
0000
0010
,
0000
0000
0000
0000
0000
0001
0000
0000
,
0000
0000
0000
0100
0000
0010
0000
1000
,
0000
0000
0000
0000
0000
0001
0000
0000
,
0000
0000
0000
0010
0200
0000
0300
0000
;

//---------------dance-single - Itsugo----------------
#NOTES:
     dance-single:
     Itsugo:
     Hard:
     9:
     0.674,0.649,0.323,0.401,0.351:
0000
0000
0000
0000
,
1000
0001
1000
0001
0000
0000
0100
0001
0100
0010
0000
0000
1000
0100
0010
0100
,
1000
0001
0100
0010
0000
0000
1000
0100
0010
0001
0000
0000
2000
0002
0000
3003
,
1001
0000
0001
0000
0100
0000
0100
0020
,
0000
0030
1000
0000
0100
0000
0010
0000
,
0100
0000
1000
0000
0001
0000
0100
0020
,
0000
0030
1000
0000
0100
0000
0010
0000
,
0100
0000
1000
0000
0010
0000
0100
0002
,
0000
0003
0010
0000
0100
0000
1000
0000
,
0001
0100
0000
0010
1000
0000
0100
0020
,
0000
0000
0001
0000
0001
0000
0001
0030
,
1001
0000
0001
0100
0000
0010
0000
2000
0000
0000
0000
0000
3100
0010
0000
0010
,
0001
0000
0010
0100
0000
1000
0000
0002
0000
0000
0000
0000
0003
1001
0000
0001
,
0100
0000
0010
1000
0000
0100
0000
0020
0000
0000
0000
0000
0030
0100
0000
1000
,
0002
2003
3200
0320
,
0031
1000
0010
0200
0000
0300
0001
0010
,
0100
2000
0000
3000
0010
0100
0001
0010
,
0100
0000
0010
0000
0001
0000
0200
0000
0000
0300
0000
0000
0010
0000
1000
0000
,
0100
0020
0000
0030
0001
0010
0100
1000
,
0010
0100
0001
0200
0000
0300
0010
1000
,
0100
0020
0000
0030
0010
0100
1000
0010
,
1000
0000
1000
0001
0000
0001
0010
0000
,
0010
0100
0000
0100
1000
0010
0100
0001
,
0020
0030
0200
0300
2000
3000
0020
0030
,
0102
0000
0000
0000
0000
0000
0000
0000
0013
0000
0000
0000
0100
1000
0000
1001
,
0000
0000
0000
1000
0000
0010
0000
0100
0000
0001
0000
0010
0000
0100
0000
1000
,
0000
0000
0000
0100
0000
0010
0000
0001
0000
1000
0000
0010
0000
0100
0000
0001
,
0000
0000
0000
0010
0000
0001
0000
0010
0000
0100
0000
0010
0000
0100
0000
0010
,
0000
0001
0000
0010
0000
0001
0000
0100
0000
0010
0000
1000
0000
0100
0000
0010
,
0000
0002
0000
0003
0000
0020
0000
0030
0000
0200
0000
0300
0000
2000
0000
3000
,
0000
2002
0000
0000
0000
0000
0000
0000
0000
0000
3003
0000
0000
1000
0001
0000
,
1001
0000
0000
1000
0000
0010
0100
0000
,
0101
0000
0000
0001
0000
0010
0100
0000
,
1100
0000
0000
1000
0010
0100
0001
0100
,
0010
1000
0001
0010
0100
1000
0010
0100
,
0001
0101
0000
0011
0000
1100
0000
0101
,
0000
1000
0010
1000
0000
0001
1000
0000
,
1001
0000
0001
0100
0010
1000
0100
0010
,
0110
0000
0100
1000
0001
0100
0010
1000
,
0100
0010
0000
0001
0000
0100
0000
0010
,
1000
0000
0100
0010
0000
0011
0001
0000
,
1001
0000
1000
0001
1000
0001
0100
0010
,
1000
0000
1000
0010
0100
0001
0000
0001
,
0010
0100
0000
1000
0010
0100
0000
0001
,
0100
0000
0010
1000
0100
0010
0001
0000
,
1001
0000
1000
0010
0100
0001
0010
0100
,
1000
0000
0100
0010
0001
1000
0010
0100
,
0001
0010
0000
0100
0000
1000
0000
0010
,
0100
0000
0001
0100
0010
1000
0100
0000
,
1100
0000
0100
0010
0000
0001
0000
1000
,
0020
0000
0000
0130
0001
0010
0000
0100
,
0000
2000
0000
3002
0000
0013
0000
0100
,
1000
0000
0001
1000
0000
0010
0100
0001
,
0010
0011
0000
0000
1100
0000
0000
1010
,
0000
0000
0101
0000
0000
0011
0000
1100
,
0000
1010
0000
0000
0110
0000
0000
0101
,
0000
0000
0011
0000
0000
0200
1000
1300
,
0010
0100
0001
0000
0000
0100
0010
1000
,
0100
0000
0000
0010
0001
1000
0010
0100
,
0001
0010
0100
0000
0000
0010
0001
0100
,
0010
0000
0000
1000
0100
0010
0001
1000
,
0010
0100
0001
0000
0000
0100
0010
1000
,
0100
0000
0000
0010
0001
1000
0010
0100
,
0001
0010
0100
0000
0000
0010
0001
1000
,
0010
0000
0000
0200
0002
0000
0303
0000
;
