#TITLE:Cuando Me Enamoro;
#SUBTITLE:Jessy Terrero;
#ARTIST:Enrique Iglesias Feat. Juan Luis Guerra;
#TITLETRANSLIT:Cuando Me Enamoro;
#SUBTITLETRANSLIT:Jessy Terrero;
#ARTISTTRANSLIT:Enrique Iglesias Feat. Juan Luis Guerra;
#GENRE:Romantic;
#CREDIT:Itsugo15 (yo Pe!!);
#MENUCOLOR:;
#BANNER:Cuando Me Enamoro-bn.png;
#BACKGROUND:Cuando Me Enamoro-bg.png;
#LYRICSPATH:Cuando Me Enamoro.lrc;
#CDTITLE:Itsugo15 SimifileS.png;
#MUSIC:Cuando Me Enamoro.mp3;
#OFFSET:1.100;
#SAMPLESTART:30.290;
#SAMPLELENGTH:30.000;
#SELECTABLE:YES;
#LISTSORT:;
#BPMS:0.000=126.000;
#STOPS:;
#TICKCOUNT:0.000=8;
#BGCHANGES:0.000=Cuando Me Enamoro.avi=1.000=0=1=0,
241.500=Cuando Me Enamoro-bg.png=1.000=1=1=0,
99999=-nosongbg-=1.000=0=0=0 // don't automatically add -songbackground-
;
#KEYSOUNDS:;
#ATTACKS:;

//---------------dance-single - Heavy Itsugo15----------------
#NOTES:
     dance-single:
     Heavy Itsugo15:
     Hard:
     8:
     0.501,0.515,0.449,0.133,0.000:
0000
0000
0000
0000
,
1001
0001
0011
0010
,
0110
0000
0200
0300
0010
0001
1000
0001
,
0010
0110
0100
1100
,
1000
0000
2002
3003
0001
0100
0010
0100
,
0001
0100
0001
0100
0000
0001
1000
0002
,
0000
0010
0000
0013
0000
0100
1000
0000
,
1000
0100
1000
0100
0000
1000
0001
2000
,
0000
0010
0000
3010
0000
0100
0001
0000
,
0001
0100
0010
1000
0001
0010
0100
0010
,
0001
1000
0010
0100
0001
0000
0101
0000
,
1010
0000
0001
0010
0000
0100
1000
0001
,
1001
0110
1001
0010
,
0100
1000
0100
1000
0000
0100
0010
0001
,
0000
0010
0001
0010
0000
0001
1000
0000
,
0010
1000
0010
1000
0000
0010
0100
0001
,
0000
0100
0001
0100
0000
0001
1000
0000
,
1001
0000
1010
0000
0010
0100
0001
0000
,
0101
0000
1001
0000
1000
0100
0010
0000
,
0011
0000
0101
0000
0001
0100
0010
0000
,
1010
0000
1100
0000
1000
0100
0010
0001
,
1000
0010
0100
0002
0000
0103
0010
1000
,
0000
0001
0010
0100
1000
0001
0010
0100
,
1000
0100
0010
0002
0000
1003
0010
0100
,
0001
0100
0010
0000
1000
0001
0010
0100
,
0110
0000
0010
0100
1000
0100
0010
0100
,
1000
0100
0010
0001
1000
0010
0100
0001
,
0101
0000
1010
0000
0010
1000
0001
0010
,
0010
0100
1100
1000
1001
1000
0001
1001
,
0101
0000
0001
0001
0100
0010
0100
0001
,
1000
0100
0010
0001
1000
0100
0010
0001
,
0011
0000
1000
0010
0100
0010
1000
0001
,
0010
0100
1000
0001
0010
0100
1000
0001
,
1001
0110
1001
0011
,
1100
0000
1000
0100
1000
0001
2000
0000
,
3020
0130
1001
1010
,
0101
0000
0001
0100
0001
1000
0002
0000
,
0013
0000
0010
0001
0010
0000
0100
1000
,
0100
0000
1000
0001
1000
0000
1100
0000
,
1001
0000
0010
1000
0010
0000
0100
0100
,
0001
0010
0011
0001
1001
0001
1000
1001
,
1010
0000
1000
1000
0010
0100
0010
1000
,
0001
0010
0100
1000
0001
0010
0100
1000
,
1100
0000
0001
0100
0010
0100
0001
1000
,
0100
0010
0001
1000
0100
0010
0001
1000
,
1001
0110
1001
1100
,
0011
0000
0001
0010
0001
1000
0002
0000
,
0203
0310
1001
0101
,
1010
0000
1000
0010
1000
0001
2000
0000
,
3100
0000
0100
1000
0100
0000
0010
0001
,
0010
0000
0001
1000
0001
0000
0011
0000
,
1001
0000
0100
0001
0100
0000
0010
1000
,
0010
0010
1000
0001
0010
0100
1000
0100
,
0010
0001
0010
0001
0000
1000
0001
1000
,
0000
1100
0000
0101
0100
0010
0100
0001
,
2000
0001
0100
0010
,
0100
0000
3001
0000
0001
0010
0100
1000
,
0002
0010
1000
0100
,
1000
0000
0010
0000
1003
0100
0010
0100
,
2000
0000
0000
0000
,
0000
0000
0000
0000
,
0000
0000
0000
0000
,
3000
0000
0000
0000
;

//---------------dance-single - Light Itsugo15----------------
#NOTES:
     dance-single:
     Light Itsugo15:
     Easy:
     4:
     0.160,0.177,0.083,0.141,0.000:
0000
0000
0000
0000
,
1000
0000
0000
0000
,
0100
0000
0010
0000
,
0001
0000
0000
0000
,
1000
0000
0010
0000
,
0200
0000
0000
0300
,
0010
0000
1000
0000
,
0002
0000
0000
0003
,
0010
0000
0100
0000
,
1000
0000
1000
0000
,
2000
0000
0000
3000
,
0100
0000
0100
0000
,
0200
0000
0000
0300
,
0010
0000
0001
0000
,
1000
0000
0010
0000
,
0200
0000
0000
0300
,
0100
0000
0100
0000
,
0010
0000
1000
0000
,
0001
0000
0001
0000
,
0010
0000
0100
0000
,
1000
0000
1000
0000
,
0100
0000
0010
0000
,
0002
0000
1003
0000
,
0001
0000
1000
0000
,
0002
0000
1003
0000
,
0001
0000
0010
0000
,
0100
0000
1000
0000
,
0100
0000
1000
0000
,
0001
0000
1000
0000
,
1001
0000
1000
0000
,
0010
0000
1000
0000
,
1010
0000
0010
0000
,
0100
0000
0010
0000
,
0110
0000
0100
0000
,
0001
0000
1000
0000
,
0200
0000
0010
0000
,
1300
0000
0001
0000
,
0200
0000
0010
0000
,
0301
0000
0010
0000
,
0100
0000
1000
0000
,
0001
0000
1000
0000
,
1001
0000
1000
0000
,
0010
0000
0100
0000
,
0001
0000
0200
0000
,
0010
0000
0301
0000
,
1000
0000
0200
0000
,
0010
0000
1300
0000
,
0001
0000
0010
0000
,
0100
0000
1000
0000
,
1100
0000
0001
0000
,
1000
0000
0010
0000
,
1010
0000
0010
0000
,
0100
0000
0001
0000
,
0101
0000
0100
0000
,
0001
0000
1000
0000
,
2002
0000
0000
3003
,
0001
0000
1000
0000
,
2020
0000
0000
3030
,
0010
0000
0100
0000
,
0220
0000
0000
0000
,
0000
0000
0000
0000
,
0330
0000
0000
0000
;

//---------------dance-single - Medium Itsugo15----------------
#NOTES:
     dance-single:
     Medium Itsugo15:
     Medium:
     6:
     0.309,0.355,0.233,0.133,0.000:
0000
0000
0000
0000
,
2001
0001
0000
0001
,
0000
3001
1000
0010
,
2010
0010
0000
0010
,
0000
3010
0100
0001
,
0201
0001
0000
0001
,
0000
0301
0001
1000
,
2001
0001
0000
0001
,
0000
3001
2000
3010
,
1010
0010
0000
0010
,
0000
0010
0100
0001
,
0101
0001
0000
0001
,
0000
0001
1000
0010
,
0100
0001
0000
0100
0000
0010
0100
0010
,
0000
1000
1010
0010
,
1000
0010
0000
0100
0000
0010
0100
0010
,
0000
0100
0101
0001
,
1000
1001
0001
0010
,
0100
0010
0001
1000
,
1001
1000
0010
0100
,
0010
1000
0001
1001
,
1000
0001
1000
0002
0000
1000
0000
1000
,
0003
1000
0010
0100
,
0010
0100
0010
0200
0000
0010
0000
0010
,
0300
0010
0100
0001
,
0101
0100
0000
0100
,
0000
0100
0001
1000
,
1001
1000
0000
1000
,
0000
0000
1000
0001
1000
0001
1000
0001
,
1000
1001
0100
1100
,
0010
0000
1010
0000
0010
1000
0010
1000
,
0010
1010
1000
1001
,
0001
0000
0011
0000
0010
0001
0010
0001
,
0010
0100
0000
0100
,
0000
0000
0100
0010
0001
1000
0002
0000
,
0000
0003
1000
0000
0000
0000
1000
0000
,
0000
0000
1000
0001
0100
0000
0010
0000
,
0110
0010
0000
0010
,
0000
0000
0010
0000
0000
0000
0200
0302
,
0000
0103
0000
0100
,
0000
0000
0100
0010
0100
0010
0100
0010
,
0100
0110
0001
0101
,
1000
0000
1100
0000
1000
0100
1000
0100
,
1000
1100
0100
0110
,
0010
0000
0011
0000
0001
0010
0001
0010
,
0001
0001
0000
0001
,
0000
0000
0001
1000
0010
0100
0010
2000
,
0000
3001
0000
0001
,
0000
0000
0001
1000
0100
0000
0010
0000
,
0110
0100
0000
0100
,
0000
0000
0100
0000
0000
0000
0020
0032
,
0000
0013
0000
0010
,
0000
0010
0001
1000
,
1001
0001
0000
0001
,
0000
0000
0001
0000
0000
1000
0001
0000
,
0020
0001
0000
0001
,
0000
0031
1000
0010
,
0200
0001
0000
0001
,
0000
0301
0100
0010
,
2000
0000
0000
0000
,
0000
0000
0000
0000
,
3000
0000
0000
0000
;

//---------------dance-single - Challenge Itsugo15----------------
#NOTES:
     dance-single:
     Challenge Itsugo15:
     Challenge:
     10:
     0.667,0.670,0.490,0.324,0.100: // measure 1
0000
0000
0000
0000
0000
1000
0001
0000
,  // measure 2
1001
0000
1000
0000
0010
0000
0100
0000
0010
0000
1000
0000
0100
0000
1000
0100
,  // measure 3
1000
0000
0100
0000
0010
0000
0100
0000
1000
0000
0001
0000
0100
0000
0010
0100
,  // measure 4
0010
0000
1000
0000
0001
0000
0010
0000
0001
0000
1000
0000
0100
0000
0010
0100
,  // measure 5
0010
0000
0100
0000
1000
0000
0001
0000
0100
0000
0010
0000
1000
0000
0001
1000
,  // measure 6
0001
0010
0100
2000
0000
3100
0010
0002
,  // measure 7
0000
0013
0001
1000
0001
0010
0001
1000
,  // measure 8
0001
0100
0010
2000
0000
3010
0100
0002
,  // measure 9
0000
0103
0001
1000
0001
0100
0001
0001
,  // measure 10
0010
0100
1000
0100
0010
0001
0010
0100
,  // measure 11
0010
0001
1000
0010
0100
0000
0102
0000
,  // measure 12
1003
0000
1000
0010
0100
0001
0100
0001
,  // measure 13
0010
0100
1000
1000
0100
0100
0010
0001
,  // measure 14
0011
0001
1000
2002
3003
1000
0010
2020
,  // measure 15
3030
1000
0010
0100
0010
1000
0100
0010
,  // measure 16
0011
0001
1000
2002
3003
0001
0100
0202
,  // measure 17
0303
0001
0100
0010
0100
0001
0010
0100
,  // measure 18
1100
1000
1001
0001
0011
0010
0110
0010
,  // measure 19
0011
0001
1001
1000
1001
0001
1001
1000
,  // measure 20
1001
0001
0101
0100
0110
0010
1010
1000
,  // measure 21
1001
0001
1001
1000
1001
0001
1001
1000
,  // measure 22
1100
1000
0001
2002
3003
0001
0100
0202
,  // measure 23
0303
0001
0100
0010
0100
0001
0010
0100
,  // measure 24
1100
1000
0001
2002
3003
1000
0010
2020
,  // measure 25
3030
1000
0010
0100
0010
1000
0100
0010
,  // measure 26
0022
0033
0001
0001
0010
0010
0100
0100
,  // measure 27
1000
0100
0010
0100
1000
0001
0100
0010
,  // measure 28
1010
1000
0100
0020
0000
0031
0010
0100
,  // measure 29
1000
0000
1100
0000
1000
0000
1001
0000
0001
0000
0010
0000
0011
0000
0001
0010
,  // measure 30
0100
0000
1000
0100
1000
0000
0100
0010
0100
0000
0001
0010
0001
0000
1000
0000
,  // measure 31
0010
0000
0100
0000
0010
0000
1000
0000
0001
0000
0010
0000
0100
0000
1000
0100
,  // measure 32
0010
0000
0001
0010
0001
0000
1000
0001
1000
0000
0010
1000
0010
0000
0100
0000
,  // measure 33
0001
1000
0100
0010
0100
1000
0001
0010
,  // measure 34
0200
0010
0010
0320
0000
0031
1000
0020
,  // measure 35
0000
1030
0001
0010
0100
1000
0002
0013
,  // measure 36
0011
0010
0001
1001
0000
1001
0001
0011
,  // measure 37
0010
0100
1000
0100
0010
0001
1000
0010
,  // measure 38
1010
0010
0100
0201
0000
0310
1000
1010
,  // measure 39
1000
0010
0100
0010
1000
0001
1001
0001
,  // measure 40
0101
0001
1001
1000
0001
0010
0100
1000
,  // measure 41
0100
0000
0010
0000
0001
0000
1001
0000
1000
0000
0100
0000
1100
0000
1000
0100
,  // measure 42
0010
0000
0001
0010
0001
0000
0010
0100
0010
0000
1000
0100
1000
0000
0001
0000
,  // measure 43
0100
0000
0010
0000
0100
0000
0001
0000
1000
0000
0100
0000
0010
0000
0001
0010
,  // measure 44
0100
0000
1000
0100
1000
0000
0001
1000
0001
0000
0100
0001
0100
0000
0010
0000
,  // measure 45
1000
0001
0010
0100
0010
0001
1000
0100
,  // measure 46
0020
0100
0100
0230
0000
1300
0001
0200
,  // measure 47
0000
0301
1000
0100
0010
0001
2000
3100
,  // measure 48
1100
1000
0100
0120
0000
0130
1000
1100
,  // measure 49
0100
0010
0001
0010
0100
1000
0001
0100
,  // measure 50
0101
0100
0010
1020
0000
0130
0001
0101
,  // measure 51
0001
0100
0010
0100
0001
1000
1001
1000
,  // measure 52
1010
1000
1001
0001
1000
0100
0010
0001
,  // measure 53
0010
0100
1000
0001
0010
0100
1000
0100
,  // measure 54
0110
0010
0001
2000
0000
3001
0100
0020
,  // measure 55
0000
1030
0001
0100
0010
1000
0010
0100
,  // measure 56
0101
0000
0001
0000
0100
0000
0010
0000
0100
0000
0001
0000
0010
0000
0001
0010
,  // measure 57
0001
0000
0010
0000
0100
0000
0010
0000
0001
0000
1000
0000
0010
0000
0100
0010
,  // measure 58
0100
0000
0001
0000
1000
0000
0100
0000
1000
0000
0001
0000
0010
0000
0100
0010
,  // measure 59
0100
0000
0010
0000
0001
0000
1000
0000
0010
0000
0100
0000
0001
0000
1000
0001
,  // measure 60
2002
0000
0000
0000
,  // measure 61
0000
0000
0000
0000
,  // measure 62
0000
0000
0000
0000
,  // measure 63
3003
0000
0000
0000
;

//---------------dance-single - Beginner Itsugo15----------------
#NOTES:
     dance-single:
     Beginner Itsugo15:
     Beginner:
     3:
     0.128,0.172,0.066,0.017,0.000:
0000
0000
0000
0000
,
0001
0000
0000
0000
,
0001
0000
0000
0000
,
0010
0000
0000
0000
,
0010
0000
0000
0000
,
0001
0000
0000
0000
,
1000
0000
0000
0000
,
0010
0000
0000
0000
,
0010
0000
0000
0000
,
1000
0000
0000
0000
,
1000
0000
0000
0000
,
0100
0000
0000
0000
,
0100
0000
0000
0000
,
0010
0000
0000
0000
,
0001
0000
0000
0000
,
1000
0000
0000
0000
,
0010
0000
0000
0000
,
0100
0000
0000
0000
,
0100
0000
0000
0000
,
0001
0000
0000
0000
,
0001
0000
0000
0000
,
1000
0000
0000
0000
,
0100
0000
0000
0000
,
0010
0000
0000
0000
,
0001
0000
0000
0000
,
0100
0000
0000
0000
,
0100
0000
0000
0000
,
0010
0000
0000
0000
,
0010
0000
1000
0000
,
1001
0000
0001
1000
,
0001
0000
0010
0000
,
0100
0000
0010
0100
,
0010
0000
0100
0000
,
1000
0000
0001
1000
,
0001
0000
0100
0000
,
0010
0000
0100
0010
,
0100
0000
0001
0000
,
1000
0000
0001
1000
,
0001
0000
0000
0000
,
1000
0000
0000
0000
,
0001
0000
1000
0001
,
1001
0000
1000
0000
,
0001
0100
0010
0000
,
0110
0000
0010
0000
,
0100
0001
1000
0000
,
1001
0000
0001
0000
,
1000
0100
0010
0000
,
0110
0000
0010
0000
,
0100
1000
0001
0000
,
1001
0000
0001
0000
,
1000
0001
0010
0000
,
0011
0000
0010
0000
,
0001
1000
0100
0000
,
1100
0000
0100
0000
,
1000
0000
0001
0000
,
2000
0000
0000
0000
,
3010
0000
0010
0000
,
0200
0000
0000
0000
,
0301
0000
0001
0000
,
1000
0000
0000
0000
;
