#TITLE:Crimson Glory;
#SUBTITLE:Touhou - Remilia Scarlet;
#ARTIST:NJK Records feat. 3L;
#TITLETRANSLIT:Crimson Glory;
#SUBTITLETRANSLIT:Touhou - Remilia Scarlet;
#ARTISTTRANSLIT:NJK Records feat. 3L;
#GENRE:Touhou;
#CREDIT:Itsugo15;
#MENUCOLOR:;
#BANNER:Crimson Glory-bn.jpg;
#BACKGROUND:Crimson Glory-bg1.jpg;
#LYRICSPATH:Crimson Glory.lrc;
#CDTITLE:Itsugo15 SimifileS.png;
#MUSIC:Crimson Glory.mp3;
#OFFSET:1.185;
#SAMPLESTART:41.236;
#SAMPLELENGTH:30.000;
#SELECTABLE:YES;
#LISTSORT:;
#BPMS:0.000=145.000;
#STOPS:;
#TICKCOUNT:0.000=6;
#BGCHANGES:8.000=Crimson Glory-bg2.jpg=1.000=1=1=0,
72.000=Crimson Glory-bg3.jpg=1.000=1=1=0,
136.000=Crimson Glory-bg4.jpg=1.000=1=1=0,
200.000=Crimson Glory-bg5.jpg=1.000=1=1=0,
232.000=Crimson Glory-bg1.jpg=1.000=1=1=0,
99999=-nosongbg-=1.000=0=0=0 // don't automatically add -songbackground-
;
#KEYSOUNDS:;
#ATTACKS:;

//---------------dance-single - Heavy Itsugo15----------------
#NOTES:
     dance-single:
     Heavy Itsugo15:
     Hard:
     9:
     0.620,0.691,0.252,0.242,0.194:
0000
0000
0000
0000
,
0000
0001
0001
0001
,
1000
0010
1010
0000
0010
0100
0110
0000
,
0100
0001
1000
0100
0001
0100
1000
0001
,
0100
0010
0110
0000
0010
1000
1010
0000
,
1000
0001
0010
0100
0010
0001
1000
0010
,
0100
0001
0101
0000
0001
1000
1001
0000
,
1000
0010
0100
0001
0100
0010
1000
0001
,
0010
0100
1000
0100
0010
0100
1000
0100
,
0010
0001
0010
0100
0010
0001
0010
0100
,
1000
0100
1100
0000
0100
0010
0110
0000
,
0010
0001
1000
0010
1000
0001
0010
0100
,
0010
0001
0011
0000
0001
1000
1001
0000
,
1000
0010
0100
0010
1000
0001
0010
0100
,
1000
0100
1100
0000
1000
0001
1001
0000
,
0001
0100
0010
1000
0010
0100
0001
1000
,
0100
0010
0001
0010
0100
0010
0001
0010
,
0100
1000
0100
0010
0100
1000
0100
0010
,
0002
0000
0000
0003
0001
0000
2000
0000
0000
3000
1000
0000
0002
0000
0000
0000
,
0000
0000
0000
0003
1001
0000
1010
0000
,
0101
0000
0110
0000
0010
0100
0010
1000
,
0001
0010
0100
0010
0000
0010
0001
1000
,
0100
0100
1000
0010
0010
0100
0001
0002
,
0003
1000
0001
2000
3000
1000
0001
0010
,
0011
0100
1100
1000
,
1001
0110
1001
0110
,
1001
0000
0000
0000
1000
0000
0000
0001
0010
0000
0000
0100
1000
0000
0010
0000
,
0100
0010
1000
0010
0100
0001
0100
0010
,
0110
0000
0000
0000
0100
0000
0000
0001
0100
0000
0000
0010
1000
0000
0100
0000
,
0010
0100
1000
0100
0010
0001
0010
0100
,
0010
0000
0001
0010
0002
0000
0003
0000
1000
0000
0001
1000
0002
0000
0003
0000
,
0100
0000
0001
0100
0002
0000
0003
0000
0100
0000
0010
0100
0010
0000
1000
0000
,
0100
0000
0000
0010
0000
0000
0001
0000
0100
0000
0000
0010
0000
0000
1000
0000
,
0001
0000
0001
0000
0001
1000
0001
1000
,
0010
0000
0000
0000
1010
0000
0000
0000
0010
1000
0010
1000
0010
1000
0010
0000
,
0100
0000
0001
0000
1000
0000
0100
0000
0010
0001
0010
0001
0010
0001
0010
0001
,
0020
0130
2000
3001
,
0200
0000
0000
0000
0310
0000
0000
0000
0100
0010
0100
0010
0100
0000
0010
0000
,
1000
0001
0010
0100
0010
0002
1000
0103
,
0010
0000
0000
0000
0000
0000
0000
0000
1000
0000
0000
0000
0000
0000
0000
0000
0001
0000
0000
0000
0000
0000
0000
0000
0010
0000
0000
0000
0000
0000
0000
0000
0200
0000
0000
0000
0000
0000
0000
0000
1000
0000
0000
0000
0000
0000
0000
0000
1000
0000
0000
0000
0000
0000
0000
0000
1300
0000
0000
0000
0000
0000
0000
1000
,
0100
0000
0000
0000
0000
0000
0000
0000
0000
0000
0000
0000
0000
0000
0000
0100
0010
0000
0000
0000
0000
0000
0000
0000
0000
0000
0000
0000
0000
0000
0000
0000
0010
0000
0000
0000
0000
0000
0000
0000
0001
0000
0000
0000
0000
0000
0000
0000
1000
0000
0000
0000
0000
0000
0000
0000
0000
0000
0000
0000
0000
0000
0000
0000
,
0001
1000
0001
0010
0100
1000
0100
0010
,
0001
0000
0000
0000
0011
0000
0000
0000
0001
0010
0001
0010
0001
0010
0001
0000
,
1000
0000
0010
0000
0100
0000
0010
0000
1000
0010
1000
0010
1000
0010
1000
0010
,
0200
0310
2000
3001
,
0020
0000
0000
0000
0130
0000
0000
0000
0010
0100
0010
0100
0010
0000
0100
0000
,
0010
0001
1000
0010
0100
0002
0100
1003
,
0010
0000
0000
0000
0000
0000
0000
0000
1000
0000
0000
0000
0000
0000
0000
0000
0100
0000
0000
0000
0000
0000
0000
0000
0010
0000
0000
0000
0000
0000
0000
0000
0002
0000
0000
0000
0000
0000
0000
0000
0010
0000
0000
0000
0000
0000
0000
0000
0010
0000
0000
0000
0000
0000
0000
0000
0013
0000
0000
0000
0000
0000
0000
0010
,
0001
0000
0000
0000
0000
0000
0000
0000
0000
0000
0000
0000
0000
0000
0000
0001
1000
0000
0000
0000
0000
0000
0000
0000
0000
0000
0000
0000
0000
0000
0000
0000
1000
0000
0000
0000
0000
0000
0000
0000
0010
0000
0000
0000
0000
0000
0000
0000
0100
0000
0000
0000
0000
0000
0000
0000
0000
0000
0000
0000
0000
0000
0000
0000
,
0010
0100
0001
0100
0010
1000
0010
0100
,
0002
0000
0003
1000
0000
0001
1000
0001
,
2000
0000
3000
0010
0100
0001
1000
0000
,
0002
0000
0003
0010
0000
0100
0000
1000
,
0000
0100
0010
0000
0010
0200
0000
0300
,
2000
0000
0000
3000
1000
0100
0010
0001
,
0010
0001
0010
0001
0010
0001
0010
0001
1000
0000
0001
0000
0010
0000
0100
0000
,
1000
0100
1000
0100
1000
0100
1000
0100
1000
0000
0001
0000
0100
0000
0010
0000
,
2000
0000
0000
0000
,
0002
0000
0000
0000
,
0000
0000
0000
0000
,
0000
0000
0000
0000
,
0000
0000
0000
0000
,
3003
0000
0000
0000
;

//---------------dance-single - Challenge Itsugo15----------------
#NOTES:
     dance-single:
     Challenge Itsugo15:
     Challenge:
     13:
     1.000,1.000,0.436,0.184,1.000:
0000
0000
0000
0000
,
0000
0000
0000
0000
1000
0000
0001
0000
1000
0000
0001
0000
1000
0001
1000
0001
,
1000
0010
0100
0001
0100
0010
0110
0000
0010
1000
0001
0010
0100
1000
1100
0000
,
1000
0100
0010
0100
1000
0001
0100
0010
0100
0001
1000
0001
1000
0010
0100
0010
,
0100
0001
1000
0100
0010
0001
0011
0000
0001
1000
0100
0010
0100
1000
1100
0000
,
1000
0100
0010
0100
1000
0001
0100
0010
0100
0001
1000
0001
1000
0010
0100
0010
,
0100
0001
1000
0010
0100
0001
0101
0000
0001
0100
0010
1000
0001
0010
0011
0000
,
0001
0010
0100
0010
0001
1000
0010
0100
0010
1000
0001
1000
0001
0010
0100
0010
,
0100
1000
0001
0010
0100
1000
0100
0010
0001
1000
0100
0010
0001
0010
0100
1000
,
1000
0100
0100
0010
0010
0001
0001
1000
1000
0010
0010
0100
0100
0001
0001
0000
,
0101
0100
0010
1000
0010
0100
0110
0000
0100
0001
1000
0100
0010
0001
0011
0000
,
0001
0010
0100
0010
0001
1000
0010
0100
0010
1000
0001
1000
0001
0100
0010
0100
,
0010
1000
0001
0010
0100
1000
1100
0000
1000
0001
0010
0100
0010
0001
0011
0000
,
0001
0010
0100
0010
0001
1000
0010
0100
0010
1000
0001
1000
0001
0100
0010
0100
,
0010
1000
0001
0100
0010
1000
1010
0000
1000
0010
0100
0001
1000
0100
1100
0000
,
1000
0100
0010
0100
1000
0001
0100
0010
0100
0001
1000
0001
1000
0100
0010
0100
,
0010
0001
1000
0100
0010
0001
0010
0100
1000
0001
0010
0100
1000
0100
0010
0001
,
0001
0010
0010
0100
0100
1000
1000
0001
0001
0100
0100
0010
0010
1000
1000
0010
,
0100
0000
0000
0000
0000
0000
0100
0000
0000
0000
0000
0000
0100
0000
0000
0000
0000
0000
0100
0000
0000
0000
0000
0100
0001
0000
0000
0000
0000
0000
0001
0000
0000
0000
0000
0000
0001
0000
0000
0000
0000
0001
1000
0000
0000
0000
0000
0000
,
1000
0000
0000
0000
0000
0000
1000
0000
0000
0000
0000
1000
0100
0000
0000
0000
0000
0000
0100
0000
0000
0000
0000
0000
0110
0000
0000
0000
0000
0000
0010
0000
0000
0000
0000
0000
0011
0000
0000
0000
0000
0000
0001
0000
0000
0000
0000
0000
,
1001
0000
1000
0000
0001
0000
0100
0001
0100
0000
0010
0000
1000
0000
0100
0000
,
0010
0001
0010
0200
1000
1300
0001
0100
,
0010
0100
0001
1000
0100
0100
0010
0002
,
1000
0103
0020
0100
0031
0010
1000
0001
,
2001
0000
3001
0100
0102
0000
0013
0100
,
0110
0100
1100
1000
1001
0001
0101
0100
,
0110
0000
0010
0000
1000
0000
0001
0000
0010
0001
0010
0000
0001
0000
1000
0001
,
1001
1000
1010
0010
0110
0010
1010
0010
,
0110
0000
0100
0000
0001
0000
1000
0000
0100
1000
0100
0000
1000
0000
0001
1000
,
1001
0001
0101
0100
0110
0100
0101
0100
,
0110
0000
0010
0100
0010
0000
0100
0000
0010
0100
0010
0000
1000
0000
0001
0000
,
1001
0000
0001
1000
0001
0000
1000
0000
0001
1000
0001
0000
1000
0001
1000
0000
,
1001
0000
0001
0000
0001
0010
0100
0000
0110
0000
0010
0000
0010
0100
1000
0000
,
1100
0000
1000
0000
1001
0000
0001
0000
0101
0000
0001
1000
0001
0000
0100
0000
,
0001
0000
0010
0000
0100
0000
0010
0000
0001
0010
0001
0010
0001
0010
0001
0010
,
0001
0000
0000
0100
0000
0000
0010
0000
0000
0100
0000
0000
0001
0000
1000
0000
0010
0000
0100
0000
0010
0000
1000
0000
0100
0000
0010
0000
0100
0000
1000
0000
,
0100
0000
0000
0000
0000
0000
1000
0000
0000
0000
0000
0000
0100
0000
0000
0000
0000
0000
1000
0000
0000
0000
0000
0000
0100
0000
0000
0000
0000
0000
1000
0000
0000
0000
0000
0000
0100
0000
0000
0000
0000
0000
0000
0000
0000
0000
0000
0000
1000
0000
0000
0000
0000
0000
0000
0000
0000
0000
0000
0000
0000
0000
0000
0000
0100
0000
0000
0000
0000
0000
0000
0000
0000
0000
0000
0000
0000
0000
0000
0000
1000
0000
0000
0000
0000
0000
0000
0000
0000
0000
0000
0000
0000
0000
0000
0000
0001
0000
0000
0000
0000
0000
0000
0000
0000
0000
0000
0000
0000
0000
0000
0000
0100
0000
0000
0000
0000
0000
0000
0000
0000
0000
0000
0000
0000
0000
0000
0000
0001
0000
0000
0000
0000
0000
0000
0000
0000
0000
0000
0000
0000
0000
0000
0000
0010
0000
0000
0000
0000
0000
0000
0000
0000
0000
0000
0000
0000
0000
0000
0000
0000
0000
0000
0000
0000
0000
0000
0000
0001
0000
0000
0000
0000
0000
0000
0000
0000
0000
0000
0000
0010
0000
0000
0000
0000
0000
0000
0000
0000
0000
0000
0000
,
0100
0010
0001
1000
0010
0000
1010
0000
1000
0010
1000
0010
1000
0000
0101
0001
,
0100
0000
0010
0000
1000
0000
0100
0000
0010
0000
0100
0000
1000
0000
0001
0000
0100
0000
0010
0000
0100
0000
0001
0000
1000
0001
1000
0001
1000
0001
1000
0000
,
0001
0100
0010
1000
0100
0010
0100
1000
0001
0100
0010
1000
0010
0100
0001
0010
,
0100
1000
0000
0001
1000
0000
0001
0100
0001
0100
0001
0100
0001
0000
0101
0000
,
0001
0100
0010
0100
0001
1000
0010
0100
0010
1000
0001
0010
0100
1000
0100
0010
,
0001
0000
0010
0000
0100
0000
0010
0000
0001
0010
0001
0010
0001
0010
0001
0010
,
0001
0000
0000
0100
0000
0000
0010
0000
0000
0100
0000
0000
0001
0000
1000
0000
0010
0000
0100
0000
0010
0000
1000
0000
0100
0000
0010
0000
0100
0000
1000
0000
,
0100
0000
0000
0000
0000
0000
1000
0000
0000
0000
0000
0000
0100
0000
0000
0000
0000
0000
1000
0000
0000
0000
0000
0000
0100
0000
0000
0000
0000
0000
1000
0000
0000
0000
0000
0000
0100
0000
0000
0000
0000
0000
0000
0000
0000
0000
0000
0000
1000
0000
0000
0000
0000
0000
0000
0000
0000
0000
0000
0000
0000
0000
0000
0000
0100
0000
0000
0000
0000
0000
0000
0000
0000
0000
0000
0000
0000
0000
0000
0000
1000
0000
0000
0000
0000
0000
0000
0000
0000
0000
0000
0000
0000
0000
0000
0000
0001
0000
0000
0000
0000
0000
0000
0000
0000
0000
0000
0000
0000
0000
0000
0000
0100
0000
0000
0000
0000
0000
0000
0000
0000
0000
0000
0000
0000
0000
0000
0000
0001
0000
0000
0000
0000
0000
0000
0000
0000
0000
0000
0000
0000
0000
0000
0000
0010
0000
0000
0000
0000
0000
0000
0000
0000
0000
0000
0000
0000
0000
0000
0000
0000
0000
0000
0000
0000
0000
0000
0000
0001
0000
0000
0000
0000
0000
0000
0000
0000
0000
0000
0000
0010
0000
0000
0000
0000
0000
0000
0000
0000
0000
0000
0000
,
0100
0010
0001
1000
0010
0000
1010
0000
1000
0010
1000
0010
1000
0000
0101
0001
,
0100
0000
0010
0000
1000
0000
0100
0000
0010
0000
0100
0000
1000
0000
0001
0000
0100
0000
0010
0000
0100
0000
0001
0000
1000
0001
1000
0001
1000
0001
1000
0000
,
0001
0100
0010
1000
0100
0010
0100
1000
0001
0100
0010
1000
0010
0100
0001
0010
,
0100
1000
0000
0001
1000
0000
0001
0100
0001
0100
0001
0100
0001
0000
0101
0000
,
0001
0100
0010
0100
0001
1000
0010
0100
0010
1000
0001
0010
0100
1000
0100
0010
,
0002
0000
0000
0023
0030
0100
1000
0001
,
0200
0000
0310
0100
0001
1000
0200
0000
,
0320
0000
0031
2000
0000
3002
0000
2003
,
0000
3001
1000
0002
0000
1003
0001
1000
,
0002
0000
0013
0100
1000
0001
0100
0010
,
1000
0001
0100
0010
0100
0001
1000
0100
0010
0000
0001
0000
1000
0000
0010
0000
,
0100
0001
1000
0100
0010
0100
1000
0002
0000
0103
0010
1000
0001
0010
0100
2000
,
0200
0000
0000
0000
,
0004
0000
0000
0000
,
0000
0000
0000
0000
,
0000
0000
0000
0000
,
0000
0000
0000
0000
,
3303
0000
0000
0000
;

//---------------dance-single - Medium Itsugo15----------------
#NOTES:
     dance-single:
     Medium Itsugo15:
     Medium:
     6:
     0.370,0.451,0.204,0.155,0.010: // measure 1
0000
0000
0000
0000
,  // measure 2
0000
0000
0000
0000
,  // measure 3
1000
0100
1000
0000
0100
0000
0010
0000
,  // measure 4
0001
0010
0001
0000
1000
0000
0010
0000
,  // measure 5
1000
0010
1000
0000
0010
0000
0100
0000
,  // measure 6
0001
0100
0001
0000
1000
0000
0100
0000
,  // measure 7
1000
0100
1000
0000
0100
0000
0010
0000
,  // measure 8
0001
0010
0001
0000
1000
0000
0001
0000
,  // measure 9
0100
0001
0100
0000
0001
1000
0001
0000
,  // measure 10
0020
0001
0001
0130
,  // measure 11
1100
0000
1000
0000
0100
0000
0010
0001
,  // measure 12
0100
0000
0010
0000
1000
0000
0010
0100
,  // measure 13
0001
0000
1000
0000
0001
0000
0010
0100
,  // measure 14
1000
0000
0001
0000
1000
0000
0100
0010
,  // measure 15
0001
0000
0100
0000
0010
0000
0100
0001
,  // measure 16
1000
0000
0100
0000
0010
0000
0100
1000
,  // measure 17
0001
0000
0001
0100
0010
0000
0010
0100
,  // measure 18
0001
0001
0001
0001
,  // measure 19
1002
0000
0000
2003
0000
0000
3020
0000
,  // measure 20
0000
0000
0100
0130
,  // measure 21
0001
1001
0001
0011
,  // measure 22
0010
0100
1000
0001
,  // measure 23
0100
0010
0010
0100
,  // measure 24
0100
0001
0001
1000
,  // measure 25
2000
0000
3002
0000
,  // measure 26
0023
0000
0000
0000
0000
0030
0100
1000
,  // measure 27
0001
0000
0000
0000
0000
0000
0000
0000
0000
0000
0000
0000
1000
0000
0000
0000
0001
0000
0000
0000
0000
0020
0000
0000
,  // measure 28
0000
0000
0000
0000
0030
0000
0010
0001
,  // measure 29
1000
0000
0000
0000
0000
0000
0000
0000
0000
0000
0000
0000
0001
0000
0000
0000
1000
0000
0000
0000
0000
0200
0000
0000
,  // measure 30
0000
0000
0300
0100
,  // measure 31
0100
1000
1000
0001
,  // measure 32
0001
0010
0010
0001
,  // measure 33
1001
1000
1100
0200
,  // measure 34
0010
0010
0001
1300
,  // measure 35
1100
0000
1000
0000
1000
0100
1000
0000
,  // measure 36
0100
0110
0010
0011
,  // measure 37
0001
0000
1000
0001
1000
0000
0010
1000
,  // measure 38
0010
0000
0100
0001
0101
0000
1001
0000
,  // measure 39
1100
0000
0100
0000
1000
0001
1000
0000
,  // measure 40
0010
0000
1010
0000
0010
1000
0010
0000
,  // measure 41
0100
0100
0001
0001
,  // measure 42
1000
0010
0100
0010
1000
0001
0010
0100
,  // measure 43
1000
0000
0001
0000
0001
0010
0001
0000
,  // measure 44
0010
0110
0100
1100
,  // measure 45
1000
0000
0001
1000
0001
0000
0100
0001
,  // measure 46
0100
0000
0010
1000
1010
0000
1001
0000
,  // measure 47
0011
0000
0010
0000
0001
1000
0001
0000
,  // measure 48
0100
0000
0101
0000
0100
0001
0100
0000
,  // measure 49
0010
0010
1000
1000
,  // measure 50
0001
0100
0010
0100
0001
1000
0100
0010
,  // measure 51
0002
0000
0000
1000
,  // measure 52
2003
0000
0000
0000
,  // measure 53
3020
0000
0000
0000
,  // measure 54
0130
0000
0100
0000
,  // measure 55
0002
0000
1003
0000
,  // measure 56
2000
0000
3001
0000
,  // measure 57
0101
0000
1100
0000
,  // measure 58
MMMM
0000
0000
0000
,  // measure 59
0002
0000
0000
0000
,  // measure 60
0000
0000
0000
0000
,  // measure 61
0000
0000
0000
0000
,  // measure 62
0000
0000
0000
0000
,  // measure 63
0003
0000
0000
0000
;

//---------------dance-single - Light Itsugo15----------------
#NOTES:
     dance-single:
     Light Itsugo15:
     Easy:
     3:
     0.186,0.210,0.058,0.126,0.010:
0000
0000
0000
0000
,
0000
0000
0000
0000
,
0010
0000
0010
0000
,
0010
0000
1010
0000
,
1000
0000
1000
0000
,
1000
0000
1001
0000
,
0001
0000
0001
0000
,
0001
0000
0101
0000
,
0100
0000
0100
0000
,
0100
0000
0110
0000
,
0010
0000
1000
0000
,
0001
0000
0010
0000
,
0100
0000
0010
0000
,
0001
0000
1000
0000
,
0010
0000
0100
0000
,
0001
0000
0100
0000
,
0010
0000
1000
0000
,
0002
0000
0000
0000
,
2003
0000
0000
0000
,
3001
0000
1000
0000
,
0001
0000
0010
0000
,
0100
0000
0010
0000
,
0001
0000
1000
0000
,
0010
0000
0100
0000
,
0010
0000
0010
0000
,
0010
0000
1000
0000
,
1001
0000
0000
0000
0000
0000
0001
0000
0000
0000
0000
0002
,
0000
0000
0003
0000
,
1001
0000
0000
0000
0000
0000
1000
0000
0000
0000
2000
0000
,
0000
0000
3000
0000
,
0010
0000
0100
0000
,
0001
0000
1000
0000
,
0100
0000
0010
0000
,
0002
0000
0000
0000
,
0013
0000
0100
0100
,
1000
0000
1000
1000
,
0001
0000
0001
0001
,
0010
0000
0010
0010
,
0100
0000
0100
0100
,
1000
0000
1000
1000
,
0010
0000
0010
0010
,
0100
0000
0100
0100
,
0001
0000
0001
0010
,
0100
0000
0100
1000
,
0001
0000
0001
0100
,
0010
0000
0010
1000
,
0100
0000
0100
1000
,
0001
0000
0001
1000
,
0010
0000
0010
0100
,
0001
0000
0001
1000
,
0200
0000
0000
0000
,
2300
0000
0000
0000
,
3020
0000
0000
0000
,
0230
0000
0000
0000
,
0302
0000
0000
0000
,
2003
0000
0000
0000
,
3002
0000
0000
0000
,
00M3
0000
0000
0000
,
0040
0000
0000
0000
,
0000
0000
0000
0000
,
0000
0000
0000
0000
,
0000
0000
0000
0000
,
0030
0000
0000
0000
;

//---------------dance-single - Beginner Itsugo15----------------
#NOTES:
     dance-single:
     Beginner Itsugo15:
     Beginner:
     2:
     0.115,0.210,0.039,0.097,0.000:
0000
0000
0000
0000
,
0000
0000
0000
0000
,
0000
1000
0000
0000
,
0000
0010
0000
0000
,
0000
0100
0000
0000
,
0000
0001
0000
0000
,
0000
0100
0000
0000
,
0000
0010
0000
0000
,
0000
1000
0000
0000
,
0000
0001
0000
0000
,
0000
0010
0000
0000
,
0000
0100
0000
0000
,
0000
1000
0000
0000
,
0000
0100
0000
0000
,
0000
0010
0000
0000
,
0000
0001
0000
0000
,
0000
0001
0000
0000
,
0000
0001
0000
0000
,
0002
0000
0000
0003
,
2000
0000
3020
0000
,
0230
0000
0000
0000
,
0302
0000
0000
0000
,
1003
0000
0000
0000
,
0010
0000
0000
0000
,
0100
0000
0000
0000
,
0100
0000
0000
0000
,
0002
0000
0000
0000
,
2003
0000
0000
0000
,
3020
0000
0000
0000
,
0230
0000
0000
0000
,
0301
0000
0000
0000
,
1000
0000
0000
0000
,
0100
0000
0000
0000
,
0010
0000
0000
0000
,
0001
0000
0000
0000
,
1000
1000
0000
0000
,
0001
0001
0000
0000
,
0100
0100
0000
0000
,
0010
0010
0000
0000
,
1000
1000
0000
0000
,
1001
1000
0000
0000
,
1001
0001
0000
0000
,
0010
0000
0000
0000
,
0100
0100
0000
0000
,
1000
1000
0000
0000
,
0001
0001
0000
0000
,
0100
0100
0000
0000
,
0010
0010
0000
0000
,
0110
0010
0000
0000
,
0110
0100
0000
0000
,
0001
0000
0000
0000
,
0000
0000
0000
0000
,
1000
0000
0000
0000
,
0000
0000
0000
0000
,
0100
0000
0000
0000
,
0010
0000
0000
0000
,
0001
0000
0000
0000
,
0000
0000
0000
0000
,
2000
0000
0000
0000
,
0000
0000
0000
0000
,
0000
0000
0000
0000
,
0000
0000
0000
0000
,
3000
0000
0000
0000
;
