#TITLE:ブクレシュティの人形師;
#SUBTITLE:東方幻奏祀典2 "Canon";
#ARTIST:TakeponG;
#TITLETRANSLIT:Bukureshuti no ningyo-shi;
#SUBTITLETRANSLIT:Touhou Maboroshi Soumatsu Ten 2 "Canon";
#ARTISTTRANSLIT:TakeponG;
#GENRE:Touhou;
#CREDIT:Itsugo15;
#MENUCOLOR:;
#BANNER:Bukureshuti no ningyo-shi-bn.jpg;
#BACKGROUND:Bukureshuti no ningyo-shi-bg.jpg;
#LYRICSPATH:Bukureshuti no ningyo-shi.lrc;
#CDTITLE:Itsugo15 simifiles.png;
#MUSIC:Bukureshuti no ningyo-shi.ogg;
#OFFSET:-0.255;
#SAMPLESTART:38.386;
#SAMPLELENGTH:30.000;
#SELECTABLE:YES;
#LISTSORT:;
#BPMS:0.000=151.000,184.000=75.500,188.000=151.000;
#STOPS:;
#TICKCOUNT:0.000=8;
#BGCHANGES:0.000=Bukureshuti no ningyo-shi-bg1.jpg=1.000=1=1=0,
16.000=Bukureshuti no ningyo-shi-bg10.jpg=1.000=1=1=0,
32.000=Bukureshuti no ningyo-shi-bg11.jpg=1.000=1=1=0,
64.000=Bukureshuti no ningyo-shi-bg2.jpg=1.000=1=1=0,
96.000=Bukureshuti no ningyo-shi-bg12.jpg=1.000=1=1=0,
128.000=Bukureshuti no ningyo-shi-bg4.jpg=1.000=1=1=0,
160.000=Bukureshuti no ningyo-shi-bg5.jpg=1.000=1=1=0,
184.000=Bukureshuti no ningyo-shi-bg7.jpg=1.000=0=1=0,
188.000=Bukureshuti no ningyo-shi-bg6.jpg=1.000=0=1=0,
220.000=Bukureshuti no ningyo-shi-bg8.jpg=1.000=1=1=0,
252.000=Bukureshuti no ningyo-shi-bg9.jpg=1.000=1=1=0,
284.000=Bukureshuti no ningyo-shi-bg7.jpg=1.000=1=1=0,
316.000=Bukureshuti no ningyo-shi-bg3.jpg=1.000=1=1=0,
340.000=Bukureshuti no ningyo-shi-bg.jpg=1.000=1=1=0,
99999=-nosongbg-=1.000=0=0=0 // don't automatically add -songbackground-
;
#KEYSOUNDS:;
#ATTACKS:;

//---------------dance-single - Beginner Itsugo15----------------
#NOTES:
     dance-single:
     Beginner Itsugo15:
     Beginner:
     2:
     0.106,0.213,0.093,0.043,0.000:
0000
0000
0000
0000
,
0000
0000
0000
0000
,
0000
0000
0000
0000
,
0000
0000
0000
0000
,
0000
0000
0000
0000
,
0000
0000
0000
0000
,
0000
0000
0000
0000
,
0000
0000
0000
0000
,
1001
0000
0000
0000
,
1000
0000
0000
0000
,
0010
0000
0000
0000
,
0100
0000
0000
0000
,
0100
0000
0000
0000
,
0001
0000
0000
0000
,
1000
0000
0000
0000
,
0100
0000
0000
0000
,
1100
0000
0000
0000
,
0010
0000
0000
0000
,
0001
0000
0000
0000
,
0010
0000
0000
0000
,
0100
0000
0000
0000
,
1000
0000
0000
0000
,
0001
0000
0000
0000
,
0001
0000
0000
0000
,
1001
0000
0000
0000
,
0100
0000
0000
0000
,
0010
0000
0000
0000
,
1000
0000
0000
0000
,
0001
0000
0000
0000
,
0010
0000
0000
0000
,
0100
0000
0000
0000
,
0100
0000
0000
0000
,
0110
0000
0000
0000
,
0010
0000
0000
0000
,
0001
0000
0000
0000
,
0001
0000
0000
0000
,
1000
0000
0000
0000
,
1000
0000
0000
0000
,
0010
0000
0000
0000
,
0010
0000
0000
0000
,
2020
0000
0000
0000
,
3030
0000
0000
0000
,
0202
0000
0000
0000
,
0303
0000
0000
0000
,
0020
0000
0000
0000
,
0030
0000
0000
0000
,
1000
0001
0010
0100
,
1000
0000
0000
1000
0000
0000
0000
0000
,
0100
0000
0000
0100
0000
0000
0000
0000
,
0010
0000
0000
0100
0000
0000
0000
0000
,
1000
0000
0001
0000
,
0100
0000
0000
0100
0000
0000
0000
0000
,
0010
0000
0000
0010
0000
0000
0000
0000
,
0001
0000
0000
0010
0000
0000
0000
0000
,
1000
0000
0001
0000
,
1001
0000
0000
0000
,
1000
0000
0000
0000
,
0100
0000
0000
0000
,
0010
0000
0000
0000
,
0110
0000
0000
0000
,
0011
0000
0000
0000
,
0101
0000
0000
0000
,
1010
0000
1000
0000
,
1001
0000
0000
0000
,
0001
0000
0000
0000
,
0010
0000
0000
0000
,
0100
0000
0000
0000
,
0010
0000
0000
0000
,
0001
0000
0000
0000
,
1000
0000
0000
0000
,
1000
0000
0000
0000
,
1001
0000
0000
0000
,
1000
0000
0000
0000
,
0001
0000
0000
0000
,
0100
0000
0000
0000
,
0100
0000
0000
0000
,
0010
0000
0000
0000
,
1000
0000
0000
0000
,
0001
0000
0000
0000
,
0020
0000
0000
0000
,
0000
0000
0000
0000
,
0000
0000
0000
0000
,
0031
0000
0000
0000
,
0001
0000
0000
0000
,
1000
0000
0000
0000
,
1000
0000
0000
0000
;

//---------------dance-single - Challenge Itsugo15----------------
#NOTES:
     dance-single:
     Challenge Itsugo15:
     Challenge:
     12:
     0.809,1.000,0.279,0.093,0.597:
0000
0000
0000
0000
,
0000
0000
0000
0000
,
0000
0000
0000
0000
,
0000
0000
0000
0000
,
1000
0001
1000
0001
1000
0001
1000
0001
,
1000
0100
1000
0100
1000
0100
1000
0100
,
1000
0100
0010
0001
1000
0100
0010
0001
,
1000
0100
0010
0001
2000
0100
0010
3001
,
1001
0001
1000
0010
0100
0001
0100
1000
,
0100
0010
1000
0001
0010
1000
0010
0001
,
1000
0100
0010
0001
0100
0010
1000
0010
,
0100
0001
1000
0100
0010
0100
1000
0001
,
1001
1000
0001
0100
0010
1000
0010
0001
,
0010
0100
0001
1000
0100
0001
0100
1000
,
0100
0010
0001
1000
0010
0100
0010
1000
0001
0100
0010
0100
0001
1000
0100
0010
,
0001
0010
0100
1000
0100
0010
0100
0001
0100
0010
0100
1000
0001
0100
0010
0100
,
0001
0010
0100
1000
0001
0010
0100
1000
,
0001
0100
0010
1000
0001
0010
0100
1000
,
0100
0010
0001
1000
0010
0100
0001
1000
,
0100
0010
0001
0010
0100
1000
0100
0010
,
0001
0010
0100
1000
0001
0010
0100
1000
,
0001
0100
0010
1000
0001
0010
0100
1000
,
0010
0100
0001
0100
0010
1000
0001
0010
0100
0010
0001
1000
0100
0010
0001
1000
,
0100
0010
0100
1000
0001
0100
0010
0100
1000
0100
0010
0100
0001
1000
0100
0010
,
0001
0010
0100
1000
0001
0100
0010
1000
,
1010
0000
0101
0000
1001
1000
0100
0010
,
0110
0010
0001
1000
1001
1000
0010
0100
,
0110
0000
0100
0000
0001
0000
1000
0000
1001
0000
1000
0000
0001
0000
0010
0100
,
1000
1000
0010
0100
0010
1000
0001
0010
,
0011
0000
1100
0000
1001
1000
0001
1000
,
1001
0001
1000
0001
1001
1000
0001
1000
,
1001
0000
0001
0000
1001
0000
1000
0000
1001
0000
0001
0000
1001
0000
0001
1000
,
0001
0000
0001
0000
0100
0000
0010
0000
1000
0000
0001
0000
0010
0000
0001
0010
,
0001
0000
1000
0000
0001
0100
0010
0100
0001
0100
0010
1000
0010
0100
0010
1000
,
0001
0000
0010
0000
0100
0000
0010
0000
0001
0000
1000
0000
0100
0000
1000
0100
,
1000
0000
0001
0000
1000
0010
0100
0010
1000
0010
0100
0001
0100
0010
0100
0001
,
1000
0000
0100
0000
0010
0000
0100
0000
1000
0000
0001
0000
1000
0000
0001
1000
,
0001
0000
0100
0000
0010
1000
0010
0100
0010
1000
0001
0100
0010
0100
0001
1000
,
0100
1000
0100
1000
0100
1000
0100
1000
0100
0010
0100
0010
0100
0010
0100
0010
,
0001
0010
0001
1000
0001
1000
0001
0100
0001
0100
0001
0100
0010
1000
0010
0100
,
0002
0100
0100
0100
,
0100
0100
0100
0100
,
2003
0100
0100
0100
,
0100
0100
0100
0100
,
0002
0000
0000
0000
,
0000
0000
0000
3000
2000
0000
0000
3003
,
1000
0001
0100
0010
1000
0010
0200
0000
0301
1000
0100
0010
0001
0010
0200
0000
1300
0001
0100
0010
0100
0001
2000
0000
3100
0010
0100
1000
0001
0100
0020
0030
,
1010
0000
0000
1001
0000
0000
0011
0000
,
1001
0000
0000
1001
0000
0000
0110
0000
,
1001
0000
0000
1001
0000
0000
1100
1000
,
0001
0001
0100
0001
1000
1000
0100
1000
,
0001
1000
0001
1000
0001
1000
0001
1000
0001
1000
0001
1000
0001
1000
0001
1000
,
0100
1000
0100
1000
0100
1000
0100
1000
0100
1000
0100
1000
0100
1000
0100
1000
,
0001
1000
0001
1000
0001
1000
0001
1000
0001
0100
0001
0100
0001
0100
0001
0100
,
0001
0100
0010
0100
0001
1000
0001
1000
0100
0010
0001
0010
0100
1000
0001
0100
,
0010
1000
0001
0010
0001
0100
0010
1000
,
0001
0010
0001
0100
0010
1000
0001
0010
,
0100
0010
0001
1000
0100
0001
0100
1000
,
0001
0100
0010
0100
0001
0100
0010
1000
,
0010
0100
0010
1000
0010
0100
0010
1000
0010
0000
0100
0000
0001
0000
1000
0000
,
0100
0010
0100
1000
0100
0010
0100
1000
0100
0000
0010
0000
0001
0000
1000
0000
,
0001
1000
0001
1000
0001
0000
0100
0000
0001
0100
0001
0100
0001
0000
1000
0000
,
0010
1000
0010
1000
0001
0100
0001
0100
0004
4000
0000
0000
0000
0000
0003
0000
,
3001
0100
0010
0100
0001
0100
1000
0100
,
0010
1000
0001
0010
1000
0010
0001
1000
,
1000
0100
0010
0001
0100
0010
1000
0010
,
0100
0001
1000
0100
0010
0100
1000
1000
,
1100
1000
0001
0100
0010
1000
0010
0001
,
0010
0100
0001
0100
0010
1000
0001
1000
,
0100
1000
0100
0000
1000
0000
0001
0000
0100
0001
0100
0000
0010
0000
1000
0000
,
0001
0010
0100
0000
1000
0100
0010
0000
0100
1000
0001
0100
0010
1000
0001
0010
,
0100
1000
1100
0100
0010
0001
0011
0010
,
0001
1000
1001
0001
0100
0010
0110
0100
,
0010
1000
1010
0010
0100
0001
0101
0100
,
0001
0000
1000
0000
1001
0000
0001
0000
0010
0000
0010
0100
0000
1000
0000
0001
,
0100
0010
0110
0100
0010
1000
1010
0010
,
1000
0001
1001
1000
0001
0010
0011
0001
,
0010
0100
0010
0001
1000
0001
0100
0010
1000
0100
1000
0010
0100
0001
1000
0100
,
0010
0001
0100
0010
0100
0001
0010
0100
1000
0100
0010
0100
1000
0001
0010
0100
,
2000
0000
0000
0000
,
0000
0000
0000
0000
,
0000
0000
0000
0000
,
3100
1000
0001
1000
0100
1000
0001
0100
,
0001
0010
0001
1000
0001
0010
0001
1000
,
0010
0001
0010
1000
0010
0100
0001
0020
,
1030
0000
0000
0000
;

//---------------dance-single - Heavy Itsugo15----------------
#NOTES:
     dance-single:
     Heavy Itsugo15:
     Hard:
     9:
     0.584,0.549,0.279,0.122,0.000:
0000
0000
0000
0000
,
0000
0000
0000
0000
,
0000
0000
0000
0000
,
0000
0000
0000
0000
,
1000
0100
1000
0100
1000
0100
1000
0100
,
1000
0001
1000
0001
1000
0001
1000
0001
,
1000
0001
0001
0001
1000
0001
0001
0001
,
1000
0001
0001
0001
1000
0001
0001
0001
,
1001
0001
0100
0001
0100
0010
1000
0100
,
0010
0001
0010
0001
0010
0100
1000
0001
,
0100
0010
0100
0010
1000
0001
0010
0100
,
1000
0100
1000
0100
1000
0001
0010
0100
,
0110
0010
0100
0010
0100
0010
0001
1000
,
0100
1000
0100
1000
0001
0100
0001
1000
,
0010
1000
0010
1000
0100
0010
0001
0100
,
0001
0100
0001
0100
0010
1000
0100
0010
,
0001
0001
1000
1000
0010
0100
0100
0001
,
1000
1000
0100
0100
0010
0001
1000
0010
,
0100
0100
0001
0001
1000
0100
0100
0010
,
0001
0001
1000
1000
0010
0100
0001
1000
,
0001
0001
1000
1000
0100
0010
0010
0001
,
1000
1000
0010
0010
0100
0001
1000
0100
,
0010
0010
0001
0001
1000
0010
0010
0100
,
0001
0001
1000
1000
0100
0010
0001
1000
,
0010
0100
0010
0001
0010
0100
0010
1000
,
1010
1001
0011
0100
,
2000
0001
3001
0002
0000
1000
1000
2003
,
0000
0010
0010
3010
0100
0001
0020
0000
,
0130
0010
1000
0010
0100
0010
0001
1000
,
1001
0101
1100
0100
,
0020
0001
0001
0032
0000
1000
1000
2003
,
0000
3010
0010
0100
0100
0001
0001
1000
,
0100
0010
0001
1000
,
0001
0100
0010
0100
0001
0100
0010
1000
,
0100
0010
0001
1000
,
0010
0100
0010
1000
0010
0100
0010
1000
,
0001
0010
0100
1000
,
0001
0100
0010
1000
0100
0010
0001
0010
,
0100
1000
0010
0100
,
0001
0010
0100
1000
0010
0100
0001
0100
,
0010
1000
0001
0010
,
0001
1000
0010
0010
,
0100
0001
1000
0100
,
1000
0001
0100
0100
,
0220
0000
0000
0000
,
0000
0330
2000
0000
,
3200
0302
0023
2030
,
3001
0000
0000
1100
0000
0000
0000
0000
,
1000
0000
0000
0101
0000
0000
1000
0000
,
1010
0000
0000
0011
0000
0000
0001
1000
,
0000
0100
1000
0000
0010
0000
0100
0000
,
0001
1000
0100
1000
0001
1000
0100
1000
,
0001
1000
0010
1000
0001
1000
0010
1000
,
0001
0010
0001
1000
0001
0010
0001
1000
,
0001
0100
0001
1000
0001
0100
0001
1000
,
0010
0100
0001
1000
0100
0010
0100
0000
,
1000
0001
0100
0010
1000
0100
0010
0000
,
0001
1000
0100
0010
0100
1000
0001
0000
,
1000
0010
0100
0010
1000
0001
0010
0000
,
0100
1000
0001
0100
0010
1000
0100
0100
,
0010
0001
1000
0010
0100
0001
0010
0010
,
0100
1000
0001
0001
0100
0010
1000
1000
,
0001
0001
0010
0010
0100
1000
0001
0100
,
0010
1000
0010
1000
0010
0100
0001
0010
,
0100
1000
0100
1000
0100
0010
0001
1000
,
0010
0100
0010
0100
0001
1000
0100
0010
,
0001
0010
0001
0010
0001
1000
0100
0010
,
0110
0100
0010
0100
0010
0100
1000
0001
,
0010
0001
0010
0001
1000
0010
1000
0001
,
0100
0100
0010
1000
0001
0001
0010
0100
,
1000
1000
0100
0100
0001
0001
0010
0010
,
1000
0001
1001
0000
1000
0100
1100
0000
,
1000
0010
1010
0000
1000
0001
1001
0000
,
0001
1000
1001
0000
0001
0100
0101
0000
,
0001
0010
0011
0000
0001
1000
1001
0000
,
1001
1001
1100
1100
,
0101
0101
0110
0110
,
1010
1100
0110
0101
,
0011
0110
1010
1100
,
0220
0000
0000
0000
,
0000
0000
0000
0000
,
0000
0000
0000
0330
,
0010
0001
0010
0001
0010
0001
0010
0001
,
0010
0100
1000
0100
1000
0100
1000
0100
,
1000
0001
1000
0001
1000
0001
0100
0010
,
2000
3000
0000
0000
;

//---------------dance-single - Medium Itsugo15----------------
#NOTES:
     dance-single:
     Medium Itsugo15:
     Medium:
     6:
     0.337,0.547,0.122,0.179,0.000:
0000
0000
0000
0000
,
0000
0000
0000
0000
,
0000
0000
0000
0000
,
0000
0000
0000
0000
,
1000
0000
0001
0000
,
1000
0000
0001
0000
,
0010
0000
0100
0000
,
1000
0000
0001
0000
,
0100
0100
0010
1000
,
0001
0001
0010
0100
,
1000
1000
0001
0100
,
0010
0010
1000
0100
,
0010
0010
0100
1000
,
0001
0001
0100
0010
,
1000
1000
0001
0010
,
0100
0100
0010
0001
,
0100
0010
1000
0100
,
0001
0100
1000
0001
,
0100
1000
0100
0010
,
1000
0001
0010
0100
,
1000
0100
0010
0001
,
1000
0010
0100
0001
,
0100
0010
1000
0100
,
0010
0001
0010
0100
,
1000
1100
0001
0101
,
0100
0010
2000
3100
,
0020
0030
0010
0000
0002
0003
0001
0000
,
2000
3000
1000
0000
0010
0000
0100
0000
,
0001
0101
1000
1100
,
0100
0010
0002
1003
,
2000
3000
1010
0000
0020
0030
0110
0000
,
0200
0300
0101
0000
1001
0000
1100
0000
,
0110
0010
0001
1000
,
0010
0000
1000
0010
1000
0010
1000
0010
,
1000
0001
0010
0100
,
0010
0000
0001
0010
0001
0010
0001
0010
,
0001
1000
0010
0100
,
0001
0000
0100
0001
0100
0001
0100
0001
,
0100
0010
1000
0100
,
1000
0000
0100
1000
0100
1000
0100
1000
,
0200
0000
0000
0000
,
0000
0000
0000
0000
,
0320
0000
0000
0000
,
0000
0000
0000
0000
,
0032
0000
0000
0000
,
0000
0000
2000
3000
,
0100
0010
1000
0100
,
0023
0000
0000
0031
0000
0000
0000
0000
,
2000
0000
0000
3100
0000
0000
0010
0000
,
0002
0000
0000
1003
0000
0000
0010
0000
,
0100
0001
1000
0200
,
0010
0010
0010
0320
,
0001
0001
0001
0032
,
1000
1000
1000
2003
,
0001
0010
0100
0010
,
3001
0010
0100
1000
,
0100
0010
0001
1000
,
0010
0100
0001
0100
,
0010
1000
0100
0020
,
0100
0100
0100
0230
,
1000
1000
1000
2300
,
0001
3002
0100
0203
,
0010
1000
0001
0310
,
0010
0010
0100
0001
,
1000
1000
0100
0010
,
0001
0001
1000
0010
,
0100
0100
0001
0010
,
0100
0100
0010
0001
,
1000
1000
0010
0100
,
0001
0101
1000
1100
,
0110
0011
1001
0110
,
1001
0001
0001
1000
,
1000
0010
0010
0100
,
0100
0001
1000
0100
,
0010
0001
0100
0010
,
1000
0100
0100
0010
,
0010
0001
0001
1000
,
1000
0010
0100
0001
,
1000
0100
0010
0001
,
2000
0000
0000
0000
,
0000
0000
0000
0000
,
0000
0000
0000
0000
,
3001
0000
0001
0000
,
0100
0000
0100
0000
,
0010
0000
0010
0000
,
1000
0000
0000
0000
;

//---------------dance-single - Easy Itsugo15----------------
#NOTES:
     dance-single:
     Easy Itsugo15:
     Easy:
     4:
     0.129,0.213,0.014,0.064,0.000: // measure 1
0000
0000
0000
0000
,  // measure 2
0000
0000
0000
0000
,  // measure 3
0000
0000
0000
0000
,  // measure 4
0000
0000
0000
0000
,  // measure 5
0000
0000
0000
0000
,  // measure 6
0000
0000
0000
0000
,  // measure 7
0000
0000
0000
0000
,  // measure 8
0000
0000
0000
0000
,  // measure 9
1000
0000
0000
0000
,  // measure 10
0010
0000
0000
0000
,  // measure 11
0100
0000
0000
0000
,  // measure 12
0001
0000
0000
0000
,  // measure 13
1000
0000
0000
0000
,  // measure 14
0100
0000
0000
0000
,  // measure 15
0010
0000
0000
0000
,  // measure 16
0001
0000
0000
0000
,  // measure 17
0100
0000
0010
0000
,  // measure 18
1000
0000
0100
0000
,  // measure 19
0010
0000
0100
0000
,  // measure 20
1000
0000
0001
0000
,  // measure 21
0100
0000
0010
0000
,  // measure 22
1000
0000
0100
0000
,  // measure 23
0010
0000
0001
0000
,  // measure 24
1000
0000
0010
0000
,  // measure 25
0100
0000
0100
0000
,  // measure 26
0001
0000
1000
0000
,  // measure 27
0200
0000
0000
0000
,  // measure 28
0320
0000
0000
0000
,  // measure 29
0031
0000
1000
0000
,  // measure 30
0010
0000
0100
0000
,  // measure 31
0001
0000
0001
0000
,  // measure 32
1000
0000
1000
0000
,  // measure 33
1001
0000
0100
0000
,  // measure 34
0010
0000
0010
0000
,  // measure 35
0001
0000
1000
0000
,  // measure 36
0010
0000
0010
0000
,  // measure 37
0100
0000
0001
0000
,  // measure 38
1000
0000
1000
0000
,  // measure 39
0100
0000
0010
0000
,  // measure 40
0001
0000
1000
0000
,  // measure 41
1001
0000
0000
0000
,  // measure 42
0000
0000
0000
0000
,  // measure 43
1000
0000
0000
0000
,  // measure 44
0000
0000
0000
0000
,  // measure 45
0002
0000
0000
0000
,  // measure 46
0000
0000
2003
0000
,  // measure 47
3001
1000
0001
1000
,  // measure 48
0001
0000
0000
0001
0000
0000
0000
0000
,  // measure 49
1000
0000
0000
1000
0000
0000
0010
0000
,  // measure 50
0100
0000
0000
0100
0000
0000
0010
0000
,  // measure 51
1000
0000
0001
0000
,  // measure 52
0020
0000
0000
0000
,  // measure 53
0230
0000
0000
0000
,  // measure 54
2300
0000
0000
0000
,  // measure 55
3002
0000
0000
0000
,  // measure 56
0103
0000
0010
0000
,  // measure 57
1000
0000
0100
0000
,  // measure 58
1000
0000
0010
0000
,  // measure 59
0100
0000
0001
0000
,  // measure 60
0010
0000
0010
0000
,  // measure 61
0001
0000
0001
0000
,  // measure 62
1000
0000
1000
0000
,  // measure 63
0010
0000
0100
0000
,  // measure 64
0001
0000
0000
0000
,  // measure 65
1000
0000
0000
0000
,  // measure 66
0100
0000
0000
0000
,  // measure 67
0010
0000
0000
0000
,  // measure 68
0001
0000
0000
0000
,  // measure 69
1000
0000
0000
0000
,  // measure 70
0010
0000
0100
0000
,  // measure 71
0001
0000
1000
0000
,  // measure 72
0100
0000
0000
0000
,  // measure 73
0010
0000
0000
0000
,  // measure 74
0001
0000
0000
0000
,  // measure 75
1000
0000
0000
0000
,  // measure 76
0010
0000
0000
0000
,  // measure 77
0100
0000
0000
0000
,  // measure 78
0001
0000
0000
0000
,  // measure 79
1000
0000
0000
0000
,  // measure 80
0200
0000
0000
0000
,  // measure 81
0000
0000
0000
0000
,  // measure 82
0000
0000
0000
0000
,  // measure 83
0310
0000
0000
0000
,  // measure 84
0001
0000
0000
0000
,  // measure 85
1000
0000
0000
0000
,  // measure 86
0010
0000
0000
0000
;
